#TITLE:Wonderland;
#SUBTITLE:;
#ARTIST:Ateez;
#TITLETRANSLIT:;
#SUBTITLETRANSLIT:;
#ARTISTTRANSLIT:;
#GENRE:;
#CREDIT:;
#BANNER:Wonderland.png;
#BACKGROUND:Wonderland-BG.png;
#LYRICSPATH:;
#CDTITLE:;
#MUSIC:Wonderland.ogg;
#OFFSET:0.086000;
#SAMPLESTART:58.914001;
#SAMPLELENGTH:17.971001;
#SELECTABLE:YES;
#BPMS:0.000000=130.000000
,204.000000=135.800003
,205.000000=130.000000
;
#STOPS:
;
#BGCHANGES:4.000=Wonderland.avi=1.000=1=0=0=StretchNoLoop==CrossFade==,
99999=-nosongbg-=1.000=0=0=0 // don't automatically add -songbackground-
;
#KEYSOUNDS:;
#ATTACKS:;

//---------------dance-single - Alex----------------
#NOTES:
     dance-single:
     Alex:
     Beginner:
     1:
     0.081655,0.158114,0.051962,0.000000,0.000000,77.000000,70.000000,7.000000,0.000000,0.000000,0.000000,0.081655,0.158114,0.051962,0.000000,0.000000,77.000000,70.000000,7.000000,0.000000,0.000000,0.000000:
0000
0000
0000
0000
,
0000
0000
0000
0000
,
0000
0000
0000
0000
,
0000
0000
0000
0000
,
0000
0000
0000
0000
,
1000
0000
0000
0000
,
1000
0000
0000
0000
,
0001
0000
0000
0000
,
0001
0000
0000
0000
,
0100
0000
0000
0000
,
0001
0000
0000
0000
,
1000
0000
0000
0000
,
0010
0000
0000
0000
,
1001
0000
0000
0000
,
1000
0000
0000
0000
,
0001
0000
0000
0000
,
1000
0000
0000
0000
,
0001
0000
0000
0000
,
0100
0000
0000
0000
,
0001
0000
0000
0000
,
1000
0000
0000
0000
,
1001
0000
0000
0000
,
0010
0000
0000
0000
,
1000
0000
0000
0000
,
0100
0000
0000
0000
,
1100
0000
0000
0000
,
1000
0000
0000
0000
,
0001
0000
0000
0000
,
1000
0000
0000
0000
,
0010
0000
0000
0000
,
0000
0000
0000
0000
,
0100
0000
0000
0000
,
0010
0010
0010
0000
,
1001
0000
0000
0000
,
0001
0000
0000
0000
,
1000
0000
0000
0000
,
0001
0000
0000
0000
,
0100
0000
0000
0000
,
0100
0000
0000
0000
,
0010
0000
0010
0000
,
0010
0000
0000
0000
,
1000
0000
0000
0000
,
0000
0000
0000
0000
,
0001
0000
0000
0000
,
1000
0000
0000
0000
,
0001
0000
0000
0000
,
0100
0000
0000
0000
,
0010
0000
0000
0000
,
1000
0000
0000
0000
,
1000
0000
0000
0000
,
0001
0000
0000
0000
,
1001
0000
0000
0000
,
0010
0000
0000
0000
,
0100
0000
0000
0000
,
0001
0000
0000
0000
,
1000
0000
0000
0000
,
1000
0000
0000
0000
,
0010
0000
0000
0000
,
0100
0000
0000
0000
,
1001
0000
0000
0000
,
0000
0000
0000
0000
,
1000
0000
0000
0000
,
0001
0001
0001
0000
,
1001
0000
0000
0000
,
0010
0000
0000
0000
,
0100
0000
0000
0000
,
0001
0000
0000
0000
,
1000
0000
0000
0000
,
0010
0000
0000
0000
,
1000
0000
1000
0000
,
1000
0000
0000
0000
,
0010
0000
0000
0000
;

//---------------dance-single - Alex----------------
#NOTES:
     dance-single:
     Alex:
     Easy:
     3:
     0.181338,0.316228,0.230119,0.044539,0.000000,171.000000,140.000000,31.000000,6.000000,0.000000,0.000000,0.181338,0.316228,0.230119,0.044539,0.000000,171.000000,140.000000,31.000000,6.000000,0.000000,0.000000:
0000
0000
0000
0000
,
0000
0000
0000
0000
,
0000
0000
0000
0000
,
0000
0000
0000
0000
,
0000
0000
0000
0000
,
0010
0000
1000
0000
,
0001
0000
0100
0000
,
0001
0000
1000
0000
,
0010
0000
1000
0000
,
0001
0000
1001
0000
,
1000
0000
1001
0000
,
0010
0000
0100
0000
,
0010
0000
0100
0000
,
0001
0000
1000
0000
,
0001
1000
0001
0000
,
1000
0000
0001
0000
,
1000
0001
1000
0000
,
1001
0000
1001
0000
,
0110
0000
0010
0010
,
0010
0000
1000
0000
,
0001
0000
1000
0000
,
2002
0000
3003
0000
,
0010
0010
0010
0000
,
2002
0000
3003
0000
,
0100
0100
0100
0000
,
2002
0000
3003
0000
,
0010
0010
0010
0000
,
1000
0000
0001
0000
,
1001
0000
0110
0000
,
0010
0000
0000
0000
,
0100
0000
0000
0000
,
0010
0000
0000
0000
,
1000
0001
1000
0000
,
1001
0000
0110
0000
,
0010
0010
0010
0000
,
1100
0000
0011
0000
,
0001
0001
0001
0000
,
0101
0000
1010
0000
,
1000
1000
1000
0000
,
0110
0000
0110
0000
,
0100
0100
0100
0000
,
0010
0000
0000
0000
,
0100
0000
0000
0000
,
0010
0000
1000
0000
,
0010
0000
0100
0000
,
0001
0000
1000
0000
,
0001
0000
1000
0000
,
0100
0000
1000
0000
,
0010
0000
0100
0000
,
0001
0000
0001
0000
,
1000
0000
0001
0000
,
1001
0000
0001
0000
,
1000
1000
1000
0000
,
0010
0000
0100
0000
,
0001
0000
0011
0000
,
0001
0000
1000
0000
,
0010
0010
0010
0000
,
1000
0000
0001
0000
,
1001
0000
0110
0000
,
0100
0000
0000
0000
,
0010
0000
0000
0000
,
1000
0000
0000
0000
,
1000
1000
1000
0000
,
1001
0000
0001
0000
,
0100
0100
0100
0000
,
0110
0000
0010
0000
,
1000
0010
1000
0000
,
1010
0000
1000
0000
,
0001
0001
0001
0000
,
1001
0000
0110
0000
,
1001
1001
1001
0000
,
1001
0000
0000
0000
;

//---------------dance-single - Alex----------------
#NOTES:
     dance-single:
     Alex:
     Medium:
     5:
     0.271477,0.370232,0.244965,0.111348,0.000000,256.000000,223.000000,33.000000,15.000000,0.000000,0.000000,0.271477,0.370232,0.244965,0.111348,0.000000,256.000000,223.000000,33.000000,15.000000,0.000000,0.000000:
0000
0000
0000
0000
,
0000
0000
0000
0000
,
0000
0000
0000
0000
,
0000
0000
0000
0000
,
0000
0000
0000
0000
,
1001
0001
0100
0001
,
1000
0010
1000
0100
,
0010
0100
1000
0001
,
0100
0010
0100
0001
,
1000
0010
1000
0001
,
0010
0001
0100
0100
,
0001
0010
0100
0010
,
0001
1000
0010
0100
,
0101
0001
1000
0100
,
0010
0000
0001
0100
0020
0000
0030
0000
,
1000
0010
1000
1000
,
0001
0000
1000
0100
2000
0000
3000
0000
,
0001
0100
0001
0001
,
1000
0000
0010
0000
1000
0001
0010
0100
,
0000
1000
0010
1000
,
1000
0000
0001
1000
0020
0000
0030
0000
,
1001
0000
0001
0100
,
0010
1000
0100
0000
0000
0000
0000
0100
,
1000
0010
0100
0001
,
1000
0010
1010
0101
,
0000
0010
0100
0001
,
0010
0001
0100
0000
0000
0000
0010
0000
,
1000
0001
1000
0001
,
0011
0000
1100
0000
,
2002
0000
3003
0000
,
0000
0000
0220
0000
,
0330
0000
1001
0000
,
0001
1000
0001
1001
,
1000
0010
0100
0001
,
1000
0100
0010
0000
,
0001
0100
0001
0001
,
1000
0010
1000
0000
,
0001
0100
0010
0100
,
0001
0010
0100
0000
,
1010
0000
0101
0000
,
1001
1001
1001
1001
,
2002
0000
3003
0000
,
0000
0000
0000
0000
,
0010
1000
0001
0100
,
0001
1000
0100
0010
,
0100
1000
0001
0100
,
0010
1000
0001
0010
,
0001
0001
1000
1000
,
0010
0100
0001
1000
,
0100
0010
0100
1000
,
0001
0100
0010
1000
,
1001
0001
0100
0010
,
1000
0001
1000
0000
0000
0000
0000
0000
,
0001
0100
0010
1000
,
0100
0010
0011
1100
,
0000
0010
0001
0100
,
0010
1000
0001
0000
0000
0000
1000
0000
,
0010
0100
0001
1000
,
1100
0000
0011
0000
,
0220
0000
0330
0000
,
0000
0000
2002
0000
,
3003
0000
0110
0000
,
0010
0010
0010
0010
,
1000
1000
0001
0001
,
0100
0010
1000
0000
,
0001
0010
0100
1000
,
0001
0001
0001
0000
,
1000
1000
0010
0010
,
1000
0001
0100
0000
,
0110
0000
1001
0000
,
0110
0110
0110
0110
,
2002
3003
0000
0000
;

//---------------dance-single - Alex----------------
#NOTES:
     dance-single:
     Alex:
     Hard:
     8:
     0.441150,0.528902,0.252388,0.163310,0.215272,416.000000,382.000000,34.000000,22.000000,0.000000,0.000000,0.441150,0.528902,0.252388,0.163310,0.215272,416.000000,382.000000,34.000000,22.000000,0.000000,0.000000:
// measure 0
0000
0000
0000
0000
,  // measure 1
0000
0000
0000
0000
,  // measure 2
0000
0000
0000
0000
,  // measure 3
0000
0000
0000
0000
,  // measure 4
0000
0000
0000
0000
0000
0001
1000
0010
,  // measure 5
0100
0001
1000
0000
0100
0010
0001
0000
,  // measure 6
0100
0010
1000
0010
0100
0001
1000
0000
,  // measure 7
0001
0010
0001
0000
1000
0010
1000
0000
,  // measure 8
0010
0100
0001
1000
0100
0010
0001
0000
,  // measure 9
0011
0000
1100
0000
0001
0100
0001
0000
,  // measure 10
1000
0010
1000
0000
0001
0100
0001
0000
,  // measure 11
1100
1100
0100
0010
,  // measure 12
0001
0100
0001
0000
1000
0010
1000
0001
,  // measure 13
0010
0000
0001
0100
0001
0000
1000
0010
,  // measure 14
1000
0000
0001
0000
0010
0000
0100
1000
0000
0000
0010
0000
0100
0000
0001
0000
,  // measure 15
1000
0000
0100
0010
0001
0000
0100
0010
,  // measure 16
1000
0000
0001
0000
0010
0000
0001
0010
0000
0000
0000
0000
0001
0000
0100
0000
,  // measure 17
0001
0000
0100
0010
0000
0010
1000
0000
,  // measure 18
1000
0001
0000
0001
1000
0010
0100
0001
,  // measure 19
0000
0000
1000
0000
0010
0000
0100
0001
,  // measure 20
1000
0000
0001
1000
0020
0000
0030
0000
,  // measure 21
1001
0000
0001
1000
0001
0100
0001
1000
,  // measure 22
0010
0100
0002
0000
0003
0000
0000
1000
,  // measure 23
0100
0010
0100
1000
0001
0100
0010
0100
,  // measure 24
0010
1000
0001
0000
0011
0000
1100
0000
,  // measure 25
0000
0000
0100
1000
0010
0100
0001
1000
,  // measure 26
0100
0010
0002
0000
0003
0000
0000
1000
,  // measure 27
0001
0000
0100
0010
1000
0001
0010
0000
,  // measure 28
0022
0033
2200
3300
,  // measure 29
1001
0000
0010
0000
,  // measure 30
1001
0000
0100
0000
,  // measure 31
1001
0000
1001
0000
,  // measure 32
0001
1000
0001
1000
0001
1000
0001
1000
0001
1000
0000
0000
,  // measure 33
0001
0000
0000
0100
0000
0001
0020
0000
0000
0031
0000
0001
,  // measure 34
0100
0000
0100
0010
0000
0010
1000
0000
0000
1001
0000
0000
,  // measure 35
0001
0000
0000
0100
0000
0010
2000
0000
0000
3100
0000
0100
,  // measure 36
1000
0000
1000
0010
0000
0010
0100
0000
0000
0110
0000
0000
,  // measure 37
1001
0000
0000
0001
0000
1000
0020
0000
0000
0130
0000
0100
,  // measure 38
0001
0000
0001
0010
0000
0010
0002
0000
0000
0003
0000
0000
,  // measure 39
1000
0010
1000
0010
0000
0000
0010
0100
0010
0100
0000
0000
,  // measure 40
0001
1000
0001
1000
0001
1000
0001
1000
0001
1000
0000
0000
,  // measure 41
1001
0000
0010
0000
,  // measure 42
1001
0000
0100
0000
,  // measure 43
0010
0100
0010
1000
0100
0010
0001
0000
,  // measure 44
1000
0010
0100
0001
0010
0001
1000
0000
,  // measure 45
0010
0100
0001
0100
0010
0010
1000
1000
,  // measure 46
0001
0010
0100
1000
0001
0100
0110
0000
,  // measure 47
0010
1000
0100
0010
0001
1000
0010
0000
,  // measure 48
0010
1000
0001
0100
0001
1000
0100
0000
,  // measure 49
0010
0001
0100
0010
0100
0001
0010
0100
,  // measure 50
1000
0001
0001
0000
0000
1001
1001
0000
,  // measure 51
0110
0000
0010
0100
0001
0100
0010
0010
,  // measure 52
1000
1000
0002
0000
0003
0000
0000
0001
,  // measure 53
1000
0010
0100
0001
1000
0100
0010
0001
,  // measure 54
0100
0110
1001
0110
,  // measure 55
0000
0000
0010
0100
0001
0100
0010
0010
,  // measure 56
1000
1000
0200
0000
0300
0000
0000
1000
,  // measure 57
0010
1000
0001
0010
0100
1000
0001
0100
,  // measure 58
0220
0330
2002
3003
,  // measure 59
0110
0000
1000
0000
,  // measure 60
0110
0000
0001
0000
,  // measure 61
0110
0000
1000
0000
,  // measure 62
0001
0010
0001
0010
0001
0010
0001
0010
0001
0010
0000
0000
,  // measure 63
0001
0000
0000
0100
0000
0010
2000
0000
0000
3100
0000
0100
,  // measure 64
1000
0000
1000
0010
0000
0010
0100
0000
0000
0110
0000
0000
,  // measure 65
0100
0000
0000
0001
0000
1000
0002
0000
0000
0103
0000
0100
,  // measure 66
0001
0000
0001
0010
0000
0010
0001
0000
0000
0011
0000
0000
,  // measure 67
1100
0000
0000
0100
0000
1000
0020
0000
0000
0130
0000
0100
,  // measure 68
0001
0000
0001
1000
0000
1000
0010
0000
0000
0000
0000
0000
,  // measure 69
1000
0001
1000
0001
0000
0000
1000
0010
1000
0010
0000
0000
,  // measure 70
0010
0100
0010
0100
0010
0100
0010
0100
0010
0100
0000
0000
,  // measure 71
2002
3003
0000
0000
;
