#TITLE:Whiplash;
#SUBTITLE:;
#ARTIST:Aespa;
#TITLETRANSLIT:;
#SUBTITLETRANSLIT:;
#ARTISTTRANSLIT:;
#GENRE:;
#CREDIT:;
#MUSIC:Whiplash.ogg;
#BANNER:Whiplash.png;
#BACKGROUND:Whiplash-BG.png;
#CDTITLE:;
#SAMPLESTART:34.573;
#SAMPLELENGTH:22.272;
#SELECTABLE:YES;
#OFFSET:0.129;
#BPMS:0.000=126.000
,144.500=252.000
,145.000=126.000
,209.000=63.000
,227.000=69.000
,227.250=76.000
,227.500=83.500
,227.750=89.000
,228.000=92.000
,228.250=98.000
,228.500=103.500
,228.750=109.000
,229.000=102.500
,229.750=126.000
;
#STOPS:144.500=0.565;
#BGCHANGES:9.750=Whiplash.avi=1.000=1=0=0=StretchNoLoop==CrossFade==,
99999.000=-nosongbg-=1.000=0=0=0=StretchNoLoop====
;
#FGCHANGES:;

//--------------- dance-single - Alex ----------------
#NOTES:
     dance-single:
     Alex:
     Beginner:
     1:
     0.078598,0.121711,0.021718,0,0,76,73,3,0,0,0,0.078598,0.121711,0.021718,0,0,76,73,3,0,0,0:
0000
0000
0000
0000
,
0000
0000
0000
0000
,
0000
0000
0000
0000
,
0000
0000
0000
0000
,
0000
0000
0010
0000
,
0000
0000
1000
0000
,
0000
0000
0001
0000
,
0000
0000
1000
0000
,
0000
0000
1000
0000
,
0000
0000
0100
0000
,
0000
0000
0100
0000
,
0000
0000
1000
0000
,
0000
0000
0001
0000
,
0001
0000
0001
0000
,
0000
0000
1000
0000
,
1000
0000
1000
0000
,
0000
0000
0010
0000
,
0010
0000
0010
0000
,
0000
0000
1000
0000
,
0000
0000
0001
0000
,
0000
0000
1001
0000
,
0000
0000
0010
0000
,
0000
0000
1000
0000
,
0000
0000
0001
0000
,
0000
0000
0001
0000
,
0000
0000
0100
0000
,
0000
0000
0100
0000
,
0000
0000
0001
0000
,
0000
0000
0000
0000
,
1000
1000
0000
0000
,
0001
0001
0000
0000
,
0100
0000
0000
0000
,
0010
0000
0000
0000
,
1000
0000
0000
0000
,
1000
0000
0000
0000
,
0001
0000
0000
0000
,
1000
0001
0000
0000
,
0000
0100
0000
0000
,
0000
0001
0000
0000
,
0000
1000
0000
0000
,
0000
1000
0000
0000
,
0000
0010
0000
0000
,
0000
0010
0000
0000
,
0000
0100
0000
0000
,
0000
0010
0000
0010
,
0000
0010
0000
0000
,
0000
0100
0000
0100
,
0000
0100
0000
0000
,
0000
0001
0000
0001
,
0000
0001
0000
0000
,
0000
1000
0000
0000
,
0000
0001
0000
0000
,
0000
1001
0000
0000
,
0000
0100
0000
0000
,
0000
0010
0000
0000
,
0000
1000
0000
0000
,
0000
0001
0000
0000
,
0000
0000
1001
0000
,
0000
0000
0010
0000
,
0000
0000
1000
0000
,
0000
0000
1000
0000
,
0000
0000
0001
0000
,
0000
0000
0100
0000
,
0000
0000
0001
0000
,
0000
0000
0100
0000
,
0000
0000
0000
0000
,
0100
0100
0000
0000
,
0010
0010
0000
0000
;

//--------------- dance-single - Alex ----------------
#NOTES:
     dance-single:
     Alex:
     Easy:
     2:
     0.144786,0.192565,0.094111,0.043436,0,140,127,13,6,0,0,0.144786,0.192565,0.094111,0.043436,0,140,127,13,6,0,0:
0000
0000
0000
0000
,
0000
0000
0000
0000
,
0000
0000
0000
0000
,
0000
0000
0000
0000
,
0000
0000
0100
0000
,
0100
0000
0001
0000
,
0001
0000
1000
0000
,
0010
0000
1000
0000
,
0001
0000
0100
0000
,
0100
0000
0001
0000
,
0010
0000
0001
0000
,
1000
0000
1000
0000
,
0001
0000
0100
0100
,
0100
0000
1001
0000
,
0000
0000
0010
0010
,
0010
0000
1001
0000
,
0000
0000
1000
1000
,
1000
0000
0001
0000
,
0001
0000
1000
0000
,
0010
0000
2002
0000
,
0000
3003
0000
0000
0001
0000
0000
0000
,
0001
0000
0100
0000
,
0100
0000
0001
0000
,
1000
0000
0010
0000
,
0010
0000
1000
0000
,
0100
0000
1000
0000
,
1000
0000
0001
0000
,
0001
0000
1000
0000
,
0010
0000
1001
0000
,
0000
0000
1001
0000
,
0000
0000
0010
0000
,
0010
0000
0100
0000
,
0001
0000
0001
0000
,
1000
0000
0010
0000
,
1000
0000
1000
0000
,
0001
0000
2002
0000
,
3003
0001
0001
0001
,
0000
0100
0000
0100
,
0000
1000
1000
1000
,
0000
0010
0000
0010
,
0000
0001
0001
0001
,
0000
1000
0000
0010
,
0000
0100
0100
0000
,
0010
0010
0020
0030
,
0000
0001
0000
1000
,
0000
1001
0000
0000
,
0000
0100
0000
0100
,
0000
0110
0000
0000
,
0000
0010
0000
0010
,
0000
1001
0000
0000
,
1000
0001
1000
0001
,
1000
0000
0002
0000
0000
0000
0000
0003
,
0000
1001
0000
0001
,
0100
0001
0000
1000
,
1000
1000
0000
0010
,
0010
0010
0000
0100
,
0100
0100
0000
0000
,
0000
0000
1001
0000
,
0010
0000
0010
0000
,
1000
0000
1000
0000
,
0001
0000
0001
0000
,
0100
0000
0001
0000
,
0010
0000
0001
0000
,
0001
0000
1000
0000
,
1000
0000
0001
0000
,
0100
0000
1001
0000
,
0000
0000
1001
0000
;

//--------------- dance-single - Alex ----------------
#NOTES:
     dance-single:
     Alex:
     Medium:
     5:
     0.294743,0.365811,0.079632,0.094111,0,285,274,11,13,0,0,0.294743,0.365811,0.079632,0.094111,0,285,274,11,13,0,0:
0000
0000
0000
0000
,
0000
0000
0000
0000
,
0000
0000
0000
0000
,
0000
0000
0000
0000
,
0000
0000
1000
0001
,
0100
0010
1000
0001
,
0010
0100
0010
0001
,
0100
0010
0010
1000
,
0001
1000
0100
0100
,
1000
0001
0010
0001
,
0100
0010
1000
0001
,
1000
0001
0100
0100
,
2002
3003
0001
0100
,
0010
0000
1000
0000
0100
0010
0100
0000
,
1001
0000
0001
0100
,
0010
0000
1000
0000
0001
0010
0001
0000
,
1001
0000
1000
0010
,
0100
0000
0001
0000
1000
0100
2000
0000
,
3000
0001
0100
0010
,
0100
0000
0001
0000
1000
0010
0100
0010
,
0000
0020
0000
0030
0100
0001
0100
0000
,
0001
0000
1000
0000
0100
1000
0100
0000
,
1000
0000
0001
0000
0100
0010
0100
0000
,
0001
0000
0010
0000
0100
1000
0001
0000
,
1000
0000
0010
0000
0100
0001
0100
0000
,
0001
0000
0010
0000
0100
0010
0100
0000
,
1000
0000
0001
0000
1000
0001
1000
0000
,
0001
0000
0001
0000
0100
0010
0100
0000
,
0001
0000
1001
0000
0000
0000
0000
0010
,
0100
0010
0000
0000
0000
0000
0000
0100
,
0010
0100
0000
0000
0001
0000
1000
0000
,
0001
0001
1000
0010
,
1000
1000
0001
0010
,
0100
1000
0001
0100
,
0010
0100
0001
0010
,
0100
0010
0001
1000
,
1001
0001
0001
0100
,
0010
0000
0100
0000
0001
0000
1000
0100
,
1000
0100
1000
0000
0010
0000
0100
0000
,
0001
0000
0010
0000
0100
0000
1000
0001
,
1000
0001
1000
0000
0001
0000
0010
0000
,
0001
0000
0100
0000
0010
0000
0100
0010
,
0100
0010
0100
0000
0110
0000
0000
0010
,
0100
0010
0100
0000
1001
0000
0000
0000
,
0001
0010
0001
0100
,
0010
0000
1000
0001
1000
0000
1001
0000
,
0000
0001
0100
0010
,
1000
0000
0100
1000
0100
0000
1100
0000
,
0000
1000
0010
0010
,
1000
0000
0001
0010
0001
0000
0000
0000
,
0100
0010
0100
0000
0001
1000
0001
0000
,
0010
0100
1000
2020
,
3030
0000
0000
0010
0100
0001
1000
0100
,
0020
0030
0001
0100
0010
0100
0001
1000
,
0100
0020
0030
0001
0100
0010
0100
0001
,
2000
3000
0001
0100
0010
1000
0001
0010
,
0100
2000
0000
0000
0000
0000
3000
0000
,
0000
0000
0001
0100
,
0010
0100
0001
1000
,
0100
0010
0001
0100
,
0010
1000
0001
0001
,
0100
0000
0010
0100
0010
0000
1000
0000
,
0001
0000
0010
0001
0010
0000
0001
0000
,
0100
0000
0010
1000
0010
0000
1000
0000
,
0001
0000
1000
0100
1000
0000
0001
0000
,
0100
0000
2002
0000
3003
0000
0000
0001
,
0100
0001
0000
0000
0000
0000
0000
1000
,
0010
2000
0000
3000
0000
0000
0000
0000
;

//--------------- dance-single - Alex ----------------
#NOTES:
     dance-single:
     Alex:
     Hard:
     8:
     0.403332,0.488652,0.072393,0.231657,0.068773,390,380,10,32,6,0,0.403332,0.488652,0.072393,0.231657,0.068773,390,380,10,32,6,0:
0000
0000
0000
0000
,
0000
0000
0000
0000
,
0000
0000
0000
0000
,
0000
0000
0000
0000
,
0000
0001
0100
0010
0100
0001
0000
1000
,
0000
0001
1000
0100
1000
0001
0000
0100
,
0000
0010
0100
0001
1000
0100
0000
0010
,
0000
0001
0100
0010
0100
0001
0000
1001
,
0000
0001
1000
0010
1000
0001
0000
0100
,
0000
0001
0010
0100
1000
0001
0000
0100
,
0000
0010
0100
0100
0001
1000
0000
0001
,
0000
0000
1000
0100
1000
0100
1000
0000
0001
0000
1000
0000
0000
0000
0010
0000
,
0100
0020
0000
0030
0100
0001
0100
0001
,
1000
0000
0010
0100
0001
0020
0000
0000
,
0030
0000
0001
0100
0010
0100
0001
1000
,
0100
0000
0010
0001
1000
0020
0000
0000
,
0030
0000
0100
0100
0001
1000
0100
0010
,
0001
0100
0010
1000
0001
0020
0000
0000
,
0030
0000
0001
0100
0001
0000
1000
0010
,
1000
0000
0001
0010
0100
1000
0001
0200
,
0000
0320
0000
0030
0100
0001
0100
0001
,
0000
1000
0010
1000
0001
0010
0000
0001
,
0000
0100
0100
0001
1000
0100
0000
0010
,
0000
0001
1000
0010
0100
0001
0000
0100
,
0000
0010
1000
0100
0010
0001
0000
1001
,
0000
0001
1000
0010
1000
0001
0000
0011
,
0000
0001
0100
0001
0100
0010
0000
0110
,
0000
0000
0010
1000
0010
1000
0010
0000
0100
0000
0100
0000
0000
0000
0001
0000
,
1000
0000
0200
0000
0000
0000
0000
0000
0300
M000
0000
000M
0000
0000
1000
0000
,
0001
0000
2002
0000
0000
0000
3003
00M0
0000
0M00
0000
0000
0000
0000
0001
0000
,
0100
0000
0101
0000
0000
0MM0
0000
0000
0001
0000
0100
0000
0001
0000
0100
0000
,
0010
0100
0000
0001
1000
0100
0010
0100
,
1000
0001
0000
0100
0100
0100
0001
1000
,
0010
0100
0000
0001
1000
1000
0001
0010
,
0001
0100
0000
0010
1000
0001
0010
0100
,
1000
0001
0000
1000
0010
0100
0001
1000
,
0001
0200
0301
0000
0001
0000
1000
0000
,
0001
1000
0010
0100
0001
1000
0100
0010
,
0001
0100
0020
0000
0230
0000
0300
0000
,
0001
0100
0001
0001
1000
0010
0100
0001
,
0010
0100
2000
0000
3020
0000
0030
0100
,
0001
0100
0001
0010
0100
0010
0001
1000
,
0010
0100
0002
0000
0203
0000
0300
0010
,
1000
0001
2000
0000
3200
0000
0300
0000
,
1000
0010
1000
0001
1000
0010
0100
0000
,
0001
0100
0010
2000
0000
0000
3000
0000
,
0001
0100
0010
0100
0001
1000
0100
0000
,
0010
0001
1000
0020
0000
0000
0030
0000
,
0100
0001
0100
0001
0001
1000
0010
1000
,
0001
0010
0100
2000
0000
0000
3000
0000
,
0001
1000
0010
0000
0100
0001
1000
0000
,
0001
0010
0100
1000
0001
0200
0000
0320
,
0000
0000
0000
0000
0030
0000
0100
0000
0001
0000
0100
0000
0010
0000
1000
0001
,
0010
0100
2000
0000
3010
0000
1000
0000
0001
0000
0100
0000
0010
0000
0100
0001
,
0010
0001
0200
0000
0300
0000
0001
0000
1000
0000
0010
0000
1000
0000
0001
0010
,
0100
1000
0002
0000
0103
0000
0100
0000
0010
0000
1000
0000
0001
0000
0010
0100
,
1000
0001
0200
0000
0000
0000
0000
0000
0000
0000
0000
0000
0300
0000
0000
0000
,
0000
0000
0000
0000
0010
0100
0010
1000
,
0000
0001
1000
0010
0100
0001
0000
0100
,
0000
0001
1000
0100
1000
0001
0000
0100
,
0000
0010
0010
0100
0001
0010
0000
0001
,
0000
1000
0010
1000
0001
0100
0000
0110
,
0000
0010
1000
0100
1000
0010
0000
1010
,
0000
0010
1000
0001
0001
0100
0000
0001
,
0000
0000
0010
0100
0010
0100
0010
0000
0001
0000
0100
0000
0000
0000
0010
0000
,
1000
0002
0000
0000
0003
0000
0000
0100
,
0010
0220
0000
0000
0330
0000
0000
0001
,
1000
2002
0000
0000
3003
0000
0000
0000
;

//--------------- dance-single - Alex ----------------
#NOTES:
     dance-single:
     Alex:
     Challenge:
     9:
     0.530537,0.682847,0.130307,0.30405,0.213559,513,495,18,42,76,0,0.530537,0.682847,0.130307,0.30405,0.213559,513,495,18,42,76,0:
0000
0000
0000
0000
MMMM
M00M
MMMM
M00M
,
M00M
0000
MMMM
M000
MMMM
M000
MMMM
0000
,
MMMM
M000
0M00
00M0
000M
MMMM
0000
0000
,
MMMM
M00M
MMMM
M000
M000
0000
MMMM
M00M
,
MMMM
M00M
M00M
0000
0001
1000
0010
1000
,
0001
1000
0010
1000
0001
0100
0010
0100
,
0001
0000
0100
0010
0100
0000
0100
0001
0100
0000
0100
0000
0010
0000
1000
0000
,
0001
0100
0010
0100
0001
0001
1000
1000
,
0001
1000
0100
1000
0001
0100
0010
0100
,
0001
0010
0100
0010
0001
0100
0010
1000
,
0001
1000
0100
0010
0100
1000
0001
0100
,
0010
0000
1000
0010
1000
0010
1000
0000
0001
0000
0100
0000
0010
0000
0100
0000
,
0001
1000
0001
0010
0100
1000
0001
1000
,
1001
0000
0001
0100
0010
0100
0000
1MM1
,
0000
1000
0100
0001
0100
1000
0010
0001
,
0011
0000
0001
0100
0010
0100
0000
M1M1
,
0000
0001
0100
0010
0100
0001
1000
0100
,
0010
0010
0001
0001
0100
0010
0000
1MM1
,
0000
0001
2000
3002
0023
0000
0032
0203
,
0320
0000
2030
3200
0320
0032
0203
0320
,
0000
0230
0000
0300
0001
1000
0001
0100
,
0001
1000
0010
1000
0001
0001
1000
1000
,
0001
0000
1000
0010
1000
0000
0001
0100
0001
0000
0010
0000
0001
0000
0100
0000
,
0010
0100
0001
0001
1000
1000
0001
1000
,
0100
0010
0001
0100
0010
0100
0000
1001
,
0000
0001
1000
0100
1000
0001
0000
0011
,
0000
0001
0100
0010
0100
0001
0000
1001
,
0000
0000
0001
1000
0001
1000
0001
0000
0100
0000
0200
0000
0300
0000
0001
0000
,
1000
0000
0020
0000
0000
0000
0030
0000
0000
0100
0000
0100
0000
0000
0001
0000
,
1000
0000
0010
0000
0100
0000
0000
0001
0000
0001
0000
0001
0100
0000
0010
0000
,
0010
0000
0100
0000
1001
0000
0000
0000
0001
0000
1000
0000
0010
0000
0100
0001
,
0100
0000
0001
0000
1000
0000
0100
1000
0100
0000
0010
0000
0001
0000
0100
0010
,
0100
0000
0001
0000
0010
0000
0100
1000
0001
0000
0100
0000
0010
0000
1000
0001
,
0010
0000
0001
0000
0100
0000
0010
0100
0001
0000
1000
0000
0100
0000
0010
0001
,
0100
0000
0010
0000
1000
0000
0001
1000
0001
0000
1000
0000
0010
0000
1000
0010
,
1000
0000
0001
0000
0100
0000
0010
0000
0100
0001
0100
0001
0100
0001
0100
0001
,
0100
0200
0310
0100
0001
0100
0010
0100
,
0001
0001
1000
0001
0010
0100
1000
0001
,
0100
0010
0110
0100
0001
1000
0100
0100
,
1000
1000
0010
0100
0001
0010
0100
0010
,
0001
0100
0110
0010
1000
0001
0100
0100
,
0001
0001
1000
0100
0010
0001
0100
0010
,
1000
0001
0022
0033
2200
3300
0000
0100
,
1000
0010
0100
0000
2002
0000
3003
0000
,
0001
1000
0010
0100
0001
1000
0100
0000
,
0010
0001
0100
0010
0000
1MM1
0000
0001
,
0100
1000
0100
0001
1000
0010
0100
0000
,
0001
0010
0100
0010
0000
MM11
0000
0001
,
0100
0010
1000
1000
0001
0001
0010
0001
,
0100
0010
0100
0001
0000
1000
0000
0001
,
2000
3020
0230
0000
0302
2003
3200
0000
,
0320
0032
0203
0320
0230
0302
0000
2003
,
0000
0000
3000
0000
0010
0000
0100
0001
1000
0100
0010
0001
0100
0010
1000
0001
,
0010
0001
0200
0000
0310
0000
0010
1000
0001
1000
0001
0100
0001
0000
1000
0010
,
0100
0001
0020
0000
0031
0000
0001
0100
0010
0100
0001
0000
0100
0001
1000
0010
,
0100
0001
2000
0000
3010
0000
0010
0100
0001
1000
0100
0010
0001
0000
0100
0010
,
0100
0001
2000
0000
0002
0000
0000
0000
0000
0000
0000
0000
3003
0000
0000
0000
,
0000
0000
0000
0000
1000
0010
0100
0001
,
0010
0000
0100
0000
1000
0000
0001
1000
0100
0000
1000
0000
0100
0000
0001
0000
,
0100
0000
0100
1000
0100
0000
1000
0010
1000
0000
0001
0000
0100
0000
0010
0000
,
0100
0001
0010
0100
1000
0001
0100
0010
,
0100
0100
0001
1000
0100
0001
0100
1000
,
0010
0100
0001
0010
0100
0010
0001
0100
,
0010
0100
0001
1000
0001
0001
0100
0010
,
1000
0000
0001
0010
0100
1000
0001
0000
0100
0000
0001
0000
0100
0000
0010
0000
,
1000
0000
0001
0000
0010
0000
0100
0000
0000
0100
0000
0100
0000
1000
0010
0000
,
0100
0000
0100
0000
0000
0000
0000
0001
0000
0001
0000
0100
0000
0010
0100
0000
,
0101
2002
0000
3003
0000
0000
0000
0000
;
