#TITLE:Wanna;
#SUBTITLE:;
#ARTIST:Kara;
#TITLETRANSLIT:;
#SUBTITLETRANSLIT:;
#ARTISTTRANSLIT:;
#GENRE:;
#CREDIT:;
#MUSIC:wanna.ogg;
#BANNER:Wanna.png;
#BACKGROUND:Wanna-BG.png;
#CDTITLE:;
#SAMPLESTART:37.327;
#SAMPLELENGTH:12.000;
#SELECTABLE:YES;
#OFFSET:-0.100;
#BPMS:0.000=161.000;
#STOPS:;
#BGCHANGES:0.000=Wanna.avi=1.000=1=0=0=StretchNoLoop==CrossFade==,
99999.000=-nosongbg-=1.000=0=0=0=StretchNoLoop====
;
#FGCHANGES:;

//--------------- dance-single - Alex ----------------
#NOTES:
     dance-single:
     Alex:
     Beginner:
     1:
     0,0,0,0,0:
0000
0000
0000
0000
,
0000
0000
0000
0000
,
0000
0000
0000
0000
,
0000
0000
0000
0000
,
0001
0000
0000
0000
,
1000
0000
0000
0000
,
0001
0000
0000
0000
,
0100
0000
0000
0000
,
0010
0000
0000
0000
,
1000
0000
0000
0000
,
1000
0000
0000
0000
,
0001
0000
0000
0000
,
1000
0000
0000
0000
,
0010
0000
0000
0000
,
0100
0000
0000
0000
,
0001
0000
0000
0000
,
1000
0000
0000
0000
,
0001
0000
0000
0000
,
1000
0000
0000
0000
,
0010
0000
0000
0000
,
0100
0000
0000
0000
,
0010
0000
0000
0000
,
1000
0000
0000
0000
,
0001
0000
0000
0000
,
0001
0000
0000
0000
,
1001
0000
0000
0000
,
0010
0000
0000
0000
,
0100
0000
0000
0000
,
0001
0000
0000
0000
,
1000
0000
0000
0000
,
0010
0000
0000
0000
,
1000
0000
0000
0000
,
0001
0000
0000
0000
,
1001
0000
0000
0000
,
0000
0000
0000
0000
,
0110
0000
0000
0000
,
0000
0000
0000
0000
,
1001
0000
0000
0000
,
0000
0000
0000
0000
,
0110
0000
0000
0000
,
0000
0000
0000
0000
,
0100
0000
0000
0000
,
0001
0000
0000
0000
,
1000
0000
0000
0000
,
0000
0000
0000
0000
,
0001
0000
0000
0000
,
1000
0000
0000
0000
,
0010
0000
0000
0000
,
0000
0000
0000
0000
,
1001
0000
0000
0000
,
1000
0000
0000
0000
,
1000
0000
0000
0000
,
0010
0000
0000
0000
,
1000
0000
0000
0000
,
0001
0000
0000
0000
,
0001
0000
0000
0000
,
0100
0000
0000
0000
,
0010
0000
0000
0000
,
1000
0000
0000
0000
,
0001
0000
0000
0000
,
1000
0000
0000
0000
,
0001
0000
0000
0000
,
1000
0000
0000
0000
,
0001
0000
0000
0000
,
1000
0000
0000
0000
,
0001
0000
0000
0000
,
1001
0000
0000
0000
;

//--------------- dance-single - Alex ----------------
#NOTES:
     dance-single:
     Alex:
     Easy:
     4:
     0,0,0,0,0:
0000
0000
0000
0000
,
0000
0000
0000
0000
,
0000
0000
0000
0000
,
0000
0000
0000
0000
,
0000
0010
1000
0001
,
0000
0001
1000
0100
,
0000
1000
0001
0100
,
0000
0010
0100
0001
,
1000
0000
1001
0000
,
0010
0010
0010
0000
,
1000
1000
1000
0000
,
0001
0000
0100
0000
,
0010
0010
1001
0000
,
0001
0100
0001
0000
,
1000
0010
1000
0000
,
0001
0000
1000
0000
,
0001
0100
0101
0000
,
0010
0010
1000
0000
,
0001
0001
0100
0000
,
1000
0001
0100
0010
,
1000
0001
1001
0000
,
0001
1000
0001
0000
,
1000
0010
1000
0000
,
0010
0100
0001
0010
,
0100
1000
1010
0000
,
0010
0000
1000
0000
,
0010
1000
0010
0000
,
0100
0000
0001
0000
,
0100
0001
0100
0000
,
0010
0000
1000
0000
,
0001
0000
0010
0000
,
0001
0000
0100
0000
,
0010
1000
0001
0100
,
0010
0000
1001
0000
,
0100
0000
1001
0000
,
0010
0000
1001
0000
,
0001
0001
1000
1000
,
0001
0100
0001
1000
,
0000
0010
1000
0100
,
0000
0010
0001
0100
,
0000
0010
1000
0001
,
1000
0000
1001
0000
,
0010
0000
0101
0000
,
0010
0000
1100
0000
,
0010
0010
0001
0001
,
1000
0000
1010
0000
,
0100
0000
0101
0000
,
0001
0000
1001
0000
,
1000
0001
1000
0001
,
1000
0000
0000
0000
,
0010
0010
0010
0000
,
1000
0000
0001
0000
,
0100
0001
0100
0000
,
0010
0000
1000
0000
,
0100
0000
1000
0000
,
0001
0000
0001
0000
,
1000
0000
1000
0000
,
0010
0100
0001
0000
,
1000
0001
1000
0001
,
0000
0001
1000
0010
,
0000
0100
0001
1000
,
0000
0100
0010
0001
,
0000
0100
0100
0010
,
0000
1000
0001
0001
,
0000
0100
0010
1000
,
0000
0001
1000
0001
,
1001
0000
0000
0000
;

//--------------- dance-single - Alex ----------------
#NOTES:
     dance-single:
     Alex:
     Medium:
     6:
     0,0,0,0,0:
0000
0000
0000
0000
,
0000
0000
0000
0000
,
0000
0000
0000
0000
,
0000
0000
0000
0000
,
0001
1000
0001
0001
,
1000
0010
1000
1000
,
0010
0100
0001
0001
,
0010
0100
1000
0001
,
0100
0100
0001
0010
,
0001
1000
0010
0100
,
0001
1000
0100
0010
,
0100
0000
1000
0000
0001
0000
0100
0010
,
0000
1001
0000
0110
0000
1001
0000
0000
,
0001
0010
0001
1000
,
1000
0010
1000
0100
,
0010
0000
0100
0000
1000
0001
1000
0001
,
0000
1001
0000
0000
0001
0000
0001
0000
,
1000
0010
1000
0001
,
0001
0100
0100
0010
,
1000
0000
0100
0000
0010
0000
0100
0010
,
0000
0022
0000
0000
0033
0000
0000
0000
,
0001
0100
0100
0001
,
0001
1000
0010
1000
,
1000
0000
0001
0000
0010
0000
0100
1000
,
0000
2020
0000
0000
3030
0000
0000
0000
,
0001
1000
0010
1000
,
0001
0000
0010
0000
0001
0010
0001
0000
,
0100
0001
1000
0010
,
0010
0000
1000
0000
0100
1000
0100
0000
,
0010
0001
0100
0010
,
0010
1000
0001
0100
,
0100
0001
1000
0100
,
1000
0000
0001
0000
0010
0001
0100
0000
,
0010
1000
0100
0010
,
0100
1000
0001
0100
,
0010
0010
1000
1000
,
0001
0010
0001
0001
,
0100
0010
1000
0100
,
0100
1000
0001
0001
,
0100
0010
1000
0001
,
0010
0001
0100
0010
,
1010
0000
0010
0000
0100
0001
0000
0000
,
0010
0000
0100
0000
1000
0001
0000
0000
,
1000
0000
1000
0000
0001
0100
0000
0100
,
0000
0010
0000
2000
0000
0000
3000
0000
,
0001
0000
0010
0000
0001
0010
0000
0000
,
0001
0000
0100
0000
0010
0100
0000
0000
,
0001
0000
1000
0000
0100
0010
0000
0001
,
0000
0100
0000
0020
0000
0000
0030
0000
,
0100
0100
0100
0100
,
0010
1000
0001
0100
,
0010
0000
1000
0000
0001
1000
0001
0000
,
0100
0010
1000
0100
,
0010
0000
0100
0000
1000
0001
1000
0000
,
0001
0001
1000
1000
,
0010
0100
0001
1000
,
0100
0010
0001
0100
,
0010
0000
0010
0000
1000
0001
0010
0000
,
0001
0100
0001
0001
,
1000
0010
1000
1000
,
0010
0100
0001
0001
,
0010
0100
0010
0001
,
1000
1000
0010
0010
,
0100
0001
1000
0100
,
0100
1000
0001
0010
,
0001
0100
0010
1000
,
1001
0000
0000
0000
;

//--------------- dance-single - Alex ----------------
#NOTES:
     dance-single:
     Alex:
     Hard:
     9:
     0,0,0,0,0:
0000
0000
0000
0000
,
0000
0000
0000
0000
,
0000
0000
0000
0000
,
0000
0000
0000
0000
,
0001
0010
0001
0100
0001
0010
0001
0000
,
0000
0001
0100
0010
1000
0100
0010
0000
,
0000
0001
1000
0010
0100
0001
1000
0000
,
0000
0001
0100
0001
1000
0010
1000
0000
,
0000
0001
0010
0001
0100
0001
0010
0100
,
0100
0000
1000
0010
0000
0010
1000
0001
,
0100
0000
0010
0000
1000
0000
0001
0010
,
0001
0000
1000
0000
0010
0000
0100
0001
,
0000
1001
0000
0110
0000
1001
0000
0000
,
0001
0000
0100
0001
0100
0010
1000
0001
,
0000
0100
0010
0010
1000
0001
0010
0001
,
0000
0100
0000
0010
0000
1000
0100
0010
,
0000
0011
0000
0000
0001
0000
1000
0000
,
0001
0000
0100
0010
0000
0010
0100
0000
,
0100
0000
0010
1000
0000
1000
0001
0000
,
0001
1000
0001
0100
0001
0001
1000
0010
,
0000
1010
0000
0010
0000
1000
0100
1000
,
0001
0000
0001
0100
0000
0100
0001
0000
,
1000
0000
0010
1000
0000
1000
0010
0000
,
0100
0001
0010
0001
0100
0010
1000
0001
,
0000
1001
0000
0001
0100
0001
1000
0010
,
1000
0010
0100
0001
0010
0001
1000
0010
,
0100
0100
0001
0001
0010
0100
1000
0000
,
0001
0100
0001
1000
0010
0100
0001
1000
,
0100
0100
1000
1000
0010
0100
0001
0000
,
0001
0010
0001
0100
0010
0100
0001
0010
,
0001
1000
0010
0100
0001
1000
0100
0010
,
0001
0100
0010
0010
1000
1000
0001
0010
,
0001
0100
0010
1000
0100
0010
0001
0000
,
1000
0010
0100
0001
0000
0001
0100
0000
,
0100
0001
0010
0001
0000
0001
1000
0000
,
1000
0010
1000
0010
0000
0010
0100
0000
,
0001
0010
0100
1000
0001
0100
0010
0000
,
1000
0100
1000
0001
0100
0001
0001
0000
,
0000
0001
0100
0001
0010
0001
0100
0000
,
0000
0010
1000
0001
0010
0100
1000
0000
,
0000
0001
1000
0010
1000
0001
0010
0000
,
0001
0000
0100
0000
0010
0100
0000
0100
,
0010
0000
1000
0000
0001
0100
0000
0100
,
0001
0000
1000
0000
0010
1000
0000
1000
,
0000
0010
0000
0101
0000
0000
0000
0000
,
0010
0000
0001
0000
0100
0001
0000
0001
,
0100
0000
0010
0000
1000
0001
0000
0001
,
1000
0000
0010
0000
0100
0001
0000
0010
,
0000
0100
0000
1100
0000
0000
0000
0000
,
0010
0001
1000
0010
1000
0001
0010
0001
,
0100
0100
0001
0001
1000
0010
0100
0001
,
1000
0100
0010
0100
1000
0001
0100
0000
,
0010
0100
0001
0010
0001
1000
0010
0100
,
0001
1000
0001
0100
0001
0010
0001
0000
,
0001
0100
0010
0100
0001
0010
0100
1000
,
0001
0100
0010
1000
0100
0010
0100
1000
,
0001
0100
0010
0100
0001
0010
0001
1000
,
0010
0010
0100
0100
0001
1000
0100
0000
,
0010
0001
0100
0010
0100
0001
0010
0000
,
0000
0001
1000
0010
0100
0001
1000
0000
,
0000
0100
0010
0001
0100
0010
1000
0000
,
0000
0001
1000
0010
0100
0001
1000
0000
,
0000
0100
0100
1000
1000
0010
0100
0000
,
0000
0001
0001
1000
1000
0010
0100
0000
,
0000
0001
0010
0001
0100
0010
1000
0000
,
0000
0001
0010
0100
1000
0001
0100
0000
,
0110
0000
0000
0000
;
