#TITLE:Walkin On Water;
#SUBTITLE:;
#ARTIST:Stray Kids;
#TITLETRANSLIT:;
#SUBTITLETRANSLIT:;
#ARTISTTRANSLIT:;
#GENRE:;
#CREDIT:;
#MUSIC:Walkin On Water.ogg;
#BANNER:Walkin On Water.png;
#BACKGROUND:Walkin On Water-BG.png;
#CDTITLE:;
#SAMPLESTART:43.025;
#SAMPLELENGTH:17.395;
#SELECTABLE:YES;
#OFFSET:-0.130;
#BPMS:0.000=95.000;
#STOPS:;
#BGCHANGES:0.000=Walkin On Water.avi=1.000=1=0=0=StretchNoLoop==CrossFade==,
99999.000=-nosongbg-=1.000=0=0=0=StretchNoLoop====
;
#FGCHANGES:;

//--------------- dance-single - Alex ----------------
#NOTES:
     dance-single:
     Alex:
     Beginner:
     1:
     0.055113,0.057869,0,0,0,57,57,0,0,0,0,0.055113,0.057869,0,0,0,57,57,0,0,0,0:
0000
0000
0000
0000
,
1000
0000
0000
0000
,
1000
0000
0000
0000
,
0010
0000
0000
0000
,
0010
0000
0000
0000
,
1000
0000
0000
0000
,
0001
0000
0000
0000
,
1000
0000
0000
0000
,
0100
0000
0000
0000
,
1000
0000
0000
0000
,
0001
0000
0000
0000
,
0001
0000
0000
0000
,
1000
0000
0000
0000
,
0010
0000
0000
0000
,
1000
0000
0000
0000
,
0001
0000
0000
0000
,
1000
0000
0000
0000
,
0001
0000
0000
0000
,
0100
0000
0000
0000
,
0001
0000
0000
0000
,
1000
0000
0000
0000
,
0010
0000
0000
0000
,
0010
0000
0000
0000
,
1000
0000
0000
0000
,
0001
0000
0000
0000
,
1000
0000
0000
0000
,
0100
0000
0000
0000
,
1000
0000
0000
0000
,
0001
0000
0000
0000
,
1000
0000
0000
0000
,
0001
0000
0000
0000
,
0100
0000
0000
0000
,
0010
0000
0000
0000
,
0010
0000
0000
0000
,
1000
0000
0000
0000
,
0001
0000
0000
0000
,
0100
0000
0000
0000
,
0001
0000
0000
0000
,
0001
0000
0000
0000
,
1000
0000
0000
0000
,
0100
0000
0000
0000
,
1000
0000
0000
0000
,
0010
0000
0000
0000
,
1000
0000
0000
0000
,
0001
0000
0000
0000
,
1000
0000
0000
0000
,
0010
0000
0000
0000
,
1000
0000
0000
0000
,
0001
0000
0000
0000
,
0100
0000
0000
0000
,
0001
0000
0000
0000
,
0001
0000
0000
0000
,
1000
0000
0000
0000
,
0010
0000
0000
0000
,
1000
0000
0000
0000
,
0001
0000
0000
0000
,
1000
0000
0000
0000
,
0001
0000
0000
0000
;

//--------------- dance-single - Alex ----------------
#NOTES:
     dance-single:
     Alex:
     Easy:
     3:
     0.165339,0.195434,0.087988,0,0,171,158,13,0,0,0,0.165339,0.195434,0.087988,0,0,171,158,13,0,0,0:
0000
0000
0000
0000
,
0010
0000
1000
0000
,
0001
0000
0100
0000
,
0010
0000
0100
0000
,
0001
0000
1000
0000
,
0001
1000
0001
0000
,
1000
0010
1000
0000
,
0001
0100
0001
0000
,
1000
0100
1001
0000
,
0110
0000
0010
0000
,
1000
0001
1000
0001
,
1000
0000
0001
0000
,
1000
0000
0010
0000
,
0100
0001
0100
0000
,
0010
1000
0010
0000
,
1000
0001
1000
0000
,
0001
0010
0001
0000
,
1001
0000
0001
1000
,
0001
0000
1000
0100
,
1000
0000
0010
1000
,
0010
0000
0010
0000
,
1001
0000
0010
0000
,
0100
0100
0001
0001
,
0011
0000
0010
0000
,
0001
1000
0001
1000
,
0010
0000
1000
0000
,
0001
0000
0100
0000
,
0001
0000
1000
0000
,
0010
0000
1000
0000
,
0001
0100
0001
0000
,
1000
0010
1000
0000
,
0001
0100
0010
1000
,
0001
1000
0100
0100
,
1001
0000
0010
0000
,
0100
0100
0100
0010
,
1001
0000
0001
0000
,
1000
0010
1000
0010
,
1010
0000
1000
0010
,
1000
0000
0001
0100
,
0001
0000
1000
0100
,
1000
0000
0001
0000
,
1001
0000
0110
0000
,
0010
0010
1000
1000
,
1100
0000
0011
0000
,
0001
0001
1000
1000
,
0010
0000
1000
0000
,
0001
0000
1000
0000
,
0100
0000
1000
0000
,
0010
0000
0100
0100
,
1001
0000
0000
0000
,
0010
0100
0010
0000
,
1000
0001
1000
0000
,
0001
0010
0001
0000
,
0100
0010
0100
0000
,
0001
1000
0001
0000
,
1000
0010
1000
0000
,
0001
0100
0010
1000
,
0001
0100
0010
1000
;

//--------------- dance-single - Alex ----------------
#NOTES:
     dance-single:
     Alex:
     Medium:
     6:
     0.2804,0.293786,0.115061,0.081219,0,290,273,17,12,0,0,0.2804,0.293786,0.115061,0.081219,0,290,273,17,12,0,0:
0000
0000
0000
0000
,
0001
0100
0010
1001
,
1000
0100
0010
0011
,
0001
0100
0010
1010
,
1000
0001
0100
1001
,
0001
0010
0001
0000
1000
0000
0010
0000
,
1000
0010
1000
0000
0001
0000
0100
0000
,
0010
0100
0010
0000
1000
0000
0001
0000
,
0010
0001
0100
0010
0100
0000
0010
1000
,
0200
0000
0300
0000
0010
0001
1000
0000
,
0001
0000
0100
0000
0010
0000
1000
0001
,
0020
0030
0001
0001
,
1000
0010
0100
0001
,
1000
0000
0100
0000
1000
0100
1000
0000
,
0001
0000
0010
0000
0001
0010
0001
0000
,
1000
0010
0001
0010
,
1000
0000
0001
0000
0100
0010
1000
0001
,
1001
0000
0000
0000
0001
0100
0010
1000
,
1100
0000
0000
0000
0010
0001
0100
0010
,
1001
0000
0000
0000
0001
0100
0010
0100
,
0000
0001
0001
1000
1000
0010
1000
0010
,
0100
0000
0001
0000
1000
0001
1000
0000
,
0001
0000
0010
0000
0100
0010
0001
0000
,
1000
0000
0010
0000
1000
0100
1000
0000
,
0001
0000
0100
0000
0010
0100
0010
0000
,
1001
1000
0010
1000
,
0001
0010
0002
0003
,
0100
0001
1000
0010
,
1000
0001
0200
0300
,
0010
1000
0010
0000
1000
0001
0010
0000
,
0001
0100
0010
0000
1000
0100
0010
0000
,
0001
0100
0001
0000
1000
0010
1000
0000
,
0001
1000
0001
0000
0100
0010
0100
0000
,
1001
0000
0000
0001
0200
0000
0300
0000
,
0010
1000
0100
0010
0001
1000
0010
1000
,
0001
0000
0000
1000
0002
0000
0003
0000
,
0010
0000
1000
0000
0001
0000
0100
0010
,
1001
0000
0000
0000
0001
1000
0010
0100
,
1001
0000
0000
0000
1000
0100
0010
0001
,
1001
0000
0000
0000
0001
1000
0010
0100
,
0000
0001
1000
0001
1000
0100
1000
0100
,
0010
0000
0001
0000
0100
0010
0100
0000
,
0001
0000
1000
0000
0001
1000
0001
0000
,
1000
0000
0010
0000
1000
0010
1000
0000
,
0010
0000
0100
0000
0001
0100
0001
0000
,
1001
1000
0020
0030
,
0100
0001
0020
0030
,
0001
1000
0020
0030
,
1000
0100
2000
3000
,
0001
0100
0020
0030
,
1000
0000
0001
0000
1000
0010
1000
0000
,
0001
0000
0100
0000
0001
0100
0001
0000
,
1000
0000
0100
0000
1000
0100
1000
0000
,
0010
1001
0100
1001
,
0001
0010
0100
0000
1000
0010
0100
0000
,
0101
0010
1100
0010
,
0001
1000
0010
0100
0001
1000
0100
0000
,
0010
0001
0100
0010
1000
0100
0020
0030
;

//--------------- dance-single - Alex ----------------
#NOTES:
     dance-single:
     Alex:
     Hard:
     8:
     0.419633,0.391714,0.128597,0.189512,0.087988,434,415,19,28,0,0,0.419633,0.391714,0.128597,0.189512,0.087988,434,415,19,28,0,0:
0000
0000
0000
0000
,
1000
0010
0100
0001
0010
0100
2000
3000
,
0001
0100
0010
0100
0001
0010
0200
0300
,
1000
0001
0100
0010
1000
0001
0020
0030
,
0001
0100
0010
0100
0001
1000
0100
1001
,
0000
0001
1000
0010
0100
0001
1000
0200
,
0300
1000
0010
1000
0001
0010
0001
0200
,
0300
0010
1000
0100
0010
0001
0100
0010
,
0010
1000
0001
0010
1001
0000
0001
1000
,
0010
0200
0300
0001
1000
0100
0010
0002
,
0003
0100
0010
0100
0001
0001
1000
1000
,
0010
2000
3000
0001
0100
0010
1000
0200
,
0300
0010
0001
0100
0010
0100
0001
2000
,
3000
0001
1000
0010
1000
0001
0100
0200
,
0300
0010
1000
0001
0010
0100
0010
0002
,
0003
0100
0010
1000
0100
0010
0001
2000
,
3000
0010
0010
1000
1000
0001
0100
0010
,
1001
0000
0000
0000
0000
0000
0001
1000
0000
0001
1000
0000
0010
0100
0010
0000
,
1001
0000
0000
0000
0000
0000
0001
1000
0000
0100
1000
0000
0001
0100
0001
0000
,
1001
0000
0000
0000
0000
0000
0001
0010
0000
0001
0010
0000
0001
0100
0001
0100
,
0000
0010
1000
0100
0010
0001
1000
1010
,
0000
0010
1000
0100
1000
0010
0100
0002
,
0003
1000
0001
0010
0100
1000
0001
0001
,
0100
0010
0100
0001
1000
0100
0010
0200
,
0300
1000
0010
1000
0001
0100
0010
1000
,
1001
0001
0100
0010
0100
0001
1000
0100
,
0010
0100
1000
0001
0100
0010
0200
0300
,
0001
0001
0010
0010
0001
1000
0010
1000
,
0001
0100
0010
1000
0100
0010
0001
0100
,
0110
0000
0010
0000
0100
0001
1000
0000
,
0001
0010
0001
0100
0010
1000
0100
0000
,
1000
0010
1000
0001
1000
0010
1000
0001
,
0100
0010
0100
0001
0010
0100
1000
0010
,
1010
0000
0000
0000
0000
0000
0010
1000
0010
0000
0020
0000
0030
0000
0100
0001
,
0100
0001
0010
0100
1000
0001
0100
0010
,
1001
0000
0000
0000
0000
0000
1000
0010
1000
0000
0002
0000
0003
0000
0001
1000
,
0001
0000
0000
0100
0000
0000
1000
0000
0000
0100
0000
0000
0001
0000
1000
0000
,
1010
0000
0000
0000
0000
0000
0010
1000
0000
0010
1000
0000
0010
1000
0010
0000
,
1010
0000
0000
0000
0000
0000
1000
0001
0000
1000
0001
0000
1000
0001
1000
0000
,
1001
0000
0000
0000
0000
0000
0001
0100
0000
0001
0100
0000
0010
0100
0010
0100
,
0000
0001
0010
0100
1000
0001
0100
0110
,
0000
0010
1000
0100
0010
0100
1000
0002
,
0003
0100
0001
0010
0100
1000
0001
0001
,
1000
0010
1000
0001
0010
0001
0100
0020
,
0030
1000
0100
0010
0100
1000
0001
0100
,
0110
0010
1000
0001
0010
0100
2000
3000
,
0001
0100
0010
0100
0001
0001
2000
3000
,
0001
0010
0001
1000
0010
1000
0002
0003
,
1000
0100
0010
0100
1000
0001
0200
0300
,
0010
1000
1000
0001
0100
0010
1001
0000
,
0001
0010
0100
1000
0001
0100
0002
0003
,
1000
0010
1000
0001
1000
0100
2000
3000
,
0010
0100
0001
1000
0100
0010
0001
1001
,
0000
0001
0100
0010
1000
0001
0010
0002
,
0003
0100
0100
0001
0001
1000
0010
2000
,
3000
0010
0100
0001
1000
0100
0010
0001
,
0100
0100
0010
1000
0001
0010
0011
0000
,
0001
0100
0010
1000
0100
0010
0001
1001
;

//--------------- dance-single - Alex ----------------
#NOTES:
     dance-single:
     Alex:
     Challenge:
     10:
     0.578205,0.549584,0.203048,0.189512,0.632834,598,568,30,28,50,0,0.578205,0.549584,0.203048,0.189512,0.632834,598,568,30,28,50,0:
0000
0000
0000
0000
,
0001
0000
0100
0000
0010
0000
0100
0001
0010
0000
0001
0000
2000
0000
3000
0000
,
0001
0000
1000
0000
0010
0000
0100
0001
1000
0000
0100
0000
0020
0000
0030
0000
,
0001
0000
0001
0000
1000
0000
0010
1000
0010
0000
1000
0000
0002
0000
0003
0000
,
0100
0000
0001
0000
1000
0000
0100
0010
0001
0000
1000
0000
0010
0000
1001
0000
,
0000
0000
0001
1000
0000
0001
1000
0000
0010
0100
0001
0000
1000
0100
0010
0001
,
0100
0000
0001
0100
0000
0001
0100
0000
0010
1000
0010
0000
1000
0001
1000
0001
,
1000
0000
0001
0100
0000
0001
0100
0000
0010
1000
0010
0000
1000
0100
1000
0100
,
1000
0000
0010
0000
0100
0000
0001
0000
2002
0000
3003
0010
0100
0001
1000
0000
,
0100
0000
1001
0000
0000
0000
0001
0100
0010
0100
0001
1000
0100
0000
1100
0000
,
0000
0100
0010
0000
0001
0000
0100
0000
1000
0000
0010
0000
0100
0000
0001
0010
,
0001
0000
0101
0000
0000
0001
0100
0000
0010
1000
0100
0010
0001
1000
0010
0100
,
0000
0001
0010
0001
0100
0000
0010
1000
0100
0010
0001
0100
0010
1000
0001
0020
,
0000
0000
0000
0030
0000
0000
0001
0000
0000
0100
0000
0000
0001
0000
0000
0000
0000
0000
1000
0000
0000
0010
0000
0000
1000
0000
0000
0001
0000
0000
0100
0000
0000
0010
0000
0000
1000
0000
0000
0000
0010
0000
0000
0000
2000
0000
0000
0000
,
0000
0000
3000
0000
0000
0000
0001
0000
0000
0100
0000
0000
0001
0000
0000
0000
0000
0000
1000
0000
0000
0100
0000
0000
0010
0000
0000
0001
0000
0000
0100
0000
0000
0010
0000
0000
1000
0000
0000
0000
0001
0000
0000
0000
0020
0000
0000
0000
,
0000
0000
0030
0000
0000
0000
0001
0000
0000
0100
0000
0000
0001
0000
0000
0000
0000
0000
0100
0000
0000
0010
0000
0000
0100
0000
0000
0000
0000
0000
0010
0000
0000
1000
0000
0000
0010
0000
0000
0000
0000
0000
1010
0000
0000
0000
0000
0000
,
0000
0000
0010
1000
0001
0000
0100
0001
1000
0000
0100
0010
0001
0000
1000
0000
,
1001
0000
MMMM
0000
MMMM
0000
0001
1000
0000
0001
1000
0000
0010
0100
0001
1000
,
1100
0000
MMMM
0000
MMMM
0000
1000
0010
0000
1000
0010
0000
1000
0001
0010
0100
,
1100
0000
MMMM
0000
MMMM
0000
0001
1000
0000
0001
1000
0000
0010
0100
0001
2000
,
0000
3000
0001
0010
0001
0000
1000
0010
1000
0000
0001
0100
0001
0000
1001
0000
,
0000
0000
0001
0100
0000
0010
0100
0000
0001
1000
0100
0000
1000
0001
0100
0010
,
1000
0000
0001
0010
0100
0000
1000
0010
0100
0001
1000
0100
0010
0000
0001
0000
,
0100
0000
0010
0100
0000
0010
0100
0000
0001
0100
0001
0000
1000
0100
1000
0100
,
1000
0000
0010
1000
0010
0000
0100
0001
0100
0000
0001
0010
0001
0000
0011
0000
,
0001
0000
1000
0010
0200
0300
0001
1000
0200
0300
0010
0001
0200
0300
0010
1000
,
0001
0000
0001
1000
0000
0010
0000
0100
0001
0000
1000
0000
1001
0000
0000
0000
,
0001
0000
1000
0010
2000
3000
0001
0100
0002
0003
0010
0001
0200
0300
0010
1000
,
0100
0000
0010
0001
0100
0000
0100
0010
0000
0100
0000
0000
1001
0000
0000
0000
,
0220
0000
0330
0000
0010
1000
0010
0000
0100
0001
1000
0000
0001
1000
0010
0000
,
0100
0000
0000
0000
0000
0000
0001
0000
0000
0000
0000
0000
1000
0000
0000
0000
0000
0000
0000
0000
0000
0000
0000
0000
0100
0000
0000
0010
0000
0000
0100
0000
0000
0000
0000
0000
0010
0000
0000
0000
0000
0000
0000
0000
0000
0000
0000
0000
0001
0000
0000
0000
0000
0000
0100
0000
0000
0000
0000
0000
0010
0000
0000
0000
0000
0000
1000
0000
0000
0000
0000
0000
0100
0000
0000
0000
0000
0000
0000
0000
2002
0000
0000
0000
0000
0000
0000
0000
3003
0000
0000
0000
0000
0000
0000
0000
,
0001
0100
0010
0000
1000
0100
0010
0001
0000
1000
0010
1000
0001
0000
0100
0000
,
0010
0100
0010
0100
0001
1000
0000
0100
1000
0000
0001
0100
0010
0100
0001
0000
,
1001
0000
0MM0
0000
0000
0000
0010
1000
0020
0000
0000
0000
0030
0000
0100
0001
,
0100
0001
1000
0100
0010
0001
0100
0010
,
1010
0000
0000
0000
0000
0000
0001
1000
0200
0000
0000
0000
0300
0000
1000
0001
,
0100
0000
0010
0100
0000
0100
0001
0000
0001
1000
0000
1000
0100
0000
1100
0000
,
0011
0000
MMMM
0000
MMMM
0000
0001
0100
0000
0010
0100
0000
0001
1000
0100
0010
,
0011
0000
MMMM
0000
MMMM
0000
0001
1000
0000
0100
1000
0000
0010
0100
0001
1000
,
1001
0000
MMMM
0000
MMMM
0000
0001
1000
0000
0001
0100
0000
0001
1000
0010
0200
,
0000
0300
0001
1000
0100
0000
0010
0001
0100
0000
0010
1000
0001
0000
1001
0000
,
0000
0000
0001
0100
0000
0010
0100
0000
0001
1000
0100
0000
0010
0001
1000
0010
,
0100
0000
0001
0100
0010
0000
0010
0100
0001
1000
0100
0010
0001
0000
1000
0000
,
0010
0000
1000
0010
0000
1000
0010
0000
1000
0001
1000
0000
0001
0100
0010
0100
,
0001
0000
1000
0100
0010
0000
0001
0100
0010
0000
1000
0001
0010
0000
1001
0000
,
0001
0000
1000
0000
0010
0000
0100
0001
1000
0000
0100
0000
0020
0000
0030
0000
,
0001
0000
1000
0000
0010
0000
1000
0001
0010
0000
0001
0000
0200
0000
0300
0000
,
0010
0000
1000
0000
0100
0000
0010
0001
1000
0000
0010
0000
2000
0000
3000
0000
,
0001
0000
0100
0000
0001
0000
0001
1000
0010
0000
0100
0000
0002
0000
0003
0000
,
0001
0000
0100
0000
0010
0000
1000
0100
0010
0000
0001
0000
1001
0000
0000
0000
,
0001
0000
0100
0000
0010
0000
1000
0010
0100
0000
0001
0000
1001
0000
0000
0000
,
0001
0000
0001
0000
1000
0000
0010
1000
0010
0000
1000
0000
1100
0000
0000
0000
,
0010
0000
0001
0000
0100
0000
0010
0100
0010
0000
1000
0000
0001
0000
1001
0000
,
0000
0000
0001
1000
0000
0010
1000
0000
0001
0100
0001
0000
1000
0100
0010
0100
,
1000
0000
0001
0100
0000
0010
0100
0000
0001
0010
0001
0000
1000
0010
1000
0010
,
1000
0000
0001
0100
0000
0001
0100
0000
0001
0010
0100
0000
1000
0001
0100
0010
,
1000
0000
0001
0000
0010
0000
0001
0100
0010
0000
1000
0000
1001
0000
0110
0000
,
0010
0000
1000
0000
0100
0000
0010
0001
0100
0000
0010
0000
1000
0000
2002
0000
,
3003
0000
0000
0000
;
