#TITLE:Very Nice;
#SUBTITLE:;
#ARTIST:Seventeen;
#TITLETRANSLIT:;
#SUBTITLETRANSLIT:;
#ARTISTTRANSLIT:;
#GENRE:;
#CREDIT:;
#MUSIC:Very Nice.ogg;
#BANNER:Very Nice.png;
#BACKGROUND:Very Nice-BG.png;
#CDTITLE:;
#SAMPLESTART:36.972;
#SAMPLELENGTH:15.181;
#SELECTABLE:YES;
#OFFSET:-0.116;
#BPMS:0.000=122.000
,68.000=183.000
,68.750=61.000
,69.000=183.000
,69.750=61.000
,70.000=183.000
,70.750=61.000
,71.000=183.000
,71.750=61.000
,72.000=244.000
,75.750=61.000
,75.875=44.000
,76.000=122.000
,188.000=183.000
,188.750=61.000
,189.000=183.000
,189.750=61.000
,190.000=183.000
,190.750=61.000
,191.000=183.000
,191.750=61.000
,192.000=244.000
,195.750=61.000
,196.000=244.000
,199.750=61.000
,199.875=44.000
,200.000=122.000
;
#STOPS:72.000=0.126
,72.500=0.125
,73.000=0.126
,73.500=0.125
,74.000=0.268
,192.000=0.126
,192.500=0.125
,193.000=0.126
,193.500=0.125
,194.000=0.268
,196.000=0.126
,196.500=0.125
,197.000=0.126
,197.500=0.125
,198.000=0.268
;
#BGCHANGES:;
#FGCHANGES:;

//--------------- dance-single - Alex ----------------
#NOTES:
     dance-single:
     Alex:
     Beginner:
     1:
     0,0,0,0,0:
0000
0000
0000
0000
,
0000
0000
0000
0000
,
0110
0000
0000
0000
,
0001
0000
0000
0000
,
1000
0000
0000
0000
,
0010
0000
0000
0000
,
1000
0000
0000
0000
,
1000
0000
0000
0000
,
0001
0000
0000
0000
,
0100
0000
0000
0000
,
0110
0000
0000
0000
,
0001
0000
0000
0000
,
1000
0000
0000
0000
,
0010
0000
0000
0000
,
1000
0000
0000
0000
,
1000
0000
0000
0000
,
0001
0000
1000
0000
,
0001
0000
0000
0000
,
0000
0000
0000
0000
,
1001
0000
0000
0000
,
0010
0000
0000
0000
,
1000
0000
0000
0000
,
1000
0000
0000
0000
,
0001
0000
0000
0000
,
0010
0000
0000
0000
,
0001
0000
0000
0000
,
0100
0000
0000
0000
,
1001
0000
0000
0000
,
0010
0000
0010
0000
,
0010
0000
0000
0000
,
1000
0000
1000
0000
,
1000
0000
0000
0000
,
0100
0000
0100
0000
,
0100
0000
0000
0000
,
0001
0000
0000
0000
,
0010
0000
0000
0000
,
0001
0000
0000
0000
,
1000
0000
0000
0000
,
1000
0000
0000
0000
,
0010
0000
0000
0000
,
1000
0000
0000
0000
,
1000
0000
0000
0000
,
0001
0000
0000
0000
,
0100
0000
0000
0000
,
0010
0000
0000
0000
,
0010
0000
0000
0000
,
1000
0000
0001
0000
,
1000
0000
0000
0000
,
0000
0000
0000
0000
,
0000
0000
0000
0000
,
1001
0000
0000
0000
,
1000
0000
0000
0000
,
0001
0000
0000
0000
,
1000
0000
0000
0000
,
0010
0000
0000
0000
,
0100
0000
0000
0000
,
0010
0000
0000
0000
,
0100
0000
0000
0000
,
1001
0000
0000
0000
;

//--------------- dance-single - Alex ----------------
#NOTES:
     dance-single:
     Alex:
     Easy:
     3:
     0,0,0,0,0:
0000
0000
0000
0000
,
0000
0000
0000
0000
,
0001
0000
1000
0000
,
0001
0000
0001
0000
,
1000
0000
0010
0000
,
1000
0000
0001
0000
,
0100
0000
0100
0000
,
0001
0000
0001
0000
,
0010
0000
0010
0000
,
0001
1000
0001
1000
,
1001
0000
0001
0000
,
1000
0000
1000
0000
,
0010
0000
0010
0000
,
1000
0000
0001
0000
,
0100
0010
0100
0000
,
0010
0100
0010
0000
,
1001
0000
1001
0000
,
1000
1000
0001
0001
,
0100
0000
0000
0000
,
1001
0000
1001
0000
,
0010
0100
0010
0000
,
1010
0000
1010
0000
,
1000
0100
1000
0000
,
1001
0000
1001
0000
,
0001
0100
0001
0000
,
0011
0000
0011
0000
,
0001
1000
0001
1000
,
0001
0000
0000
0000
,
1000
0000
0001
0000
,
1000
0000
0001
0100
,
0001
0000
0100
0000
,
0010
0000
0100
0010
,
0100
0000
0001
0000
,
1000
0000
0100
1000
,
0100
0000
1000
0000
,
1001
0000
1001
0000
,
0010
0010
0010
0000
,
1000
0000
1000
0000
,
0001
0001
0001
0000
,
0100
0000
0001
0000
,
1001
0000
1000
0000
,
0010
0000
1000
0000
,
1000
0000
0001
0000
,
0010
0000
0001
0000
,
1000
1000
1000
0000
,
0001
0001
0001
0000
,
1000
0000
0001
0000
,
1000
0001
1000
0001
,
1001
0000
0000
0000
,
1001
0000
0000
0000
,
0110
0000
0110
0000
,
0010
1000
0010
0000
,
1010
0000
1010
0000
,
1000
0001
1000
0000
,
1100
0000
1100
0000
,
0010
0001
0010
0000
,
0101
0000
0101
0000
,
1000
0010
1000
0010
,
1000
0000
0000
0000
;

//--------------- dance-single - Alex ----------------
#NOTES:
     dance-single:
     Alex:
     Medium:
     5:
     0,0,0,0,0:
0000
0000
0000
0000
,
0000
0000
0000
0000
,
1000
0010
0100
0001
,
1000
0100
1000
0001
,
0100
0100
0001
0001
,
1000
0010
1000
0010
1000
0000
0001
0000
,
1001
0100
0001
0010
,
0001
1000
0100
0100
,
1000
0001
0100
0010
,
0100
0001
0100
0001
0200
0000
0300
0000
,
0010
0010
0001
1000
,
0010
0000
0100
0000
0001
1000
0001
1000
,
0001
1000
0010
0100
,
0001
0000
1000
0000
0100
1000
0100
1000
,
0100
1000
0001
0100
,
0100
0001
1000
0010
,
1010
0000
1010
0000
,
2000
3000
0002
0003
2000
3000
0002
0003
,
1000
0001
1000
0001
1000
0000
M00M
0000
,
0001
1000
0001
1000
,
0010
0000
0100
0000
0001
0100
0001
0100
,
0001
1000
0010
1000
,
0100
0000
0100
0000
1000
0010
1000
0000
,
0001
1000
0010
1000
,
0001
0000
0010
0000
0001
0100
0001
0100
,
0001
0100
0010
0100
,
0001
0000
1000
0000
0100
1000
0100
0000
,
1001
0000
M00M
0000
,
0001
1000
0010
1000
,
0001
0100
0220
0330
,
0100
0001
0010
0010
,
0001
1000
2200
3300
,
1000
0001
0100
0010
,
0100
0001
2002
3003
,
0001
1000
0010
0100
,
0001
1000
0100
0100
,
1001
1000
0001
0010
,
0001
0000
0100
0000
0100
0000
0001
1000
,
0001
1000
0001
1000
,
1000
0001
0100
0110
,
0100
0100
0001
1000
,
0010
1000
0001
0001
,
0100
0010
0100
0001
,
0010
0100
1000
0001
,
1000
0010
1000
0000
0001
0000
0100
0010
,
0100
0001
1000
0001
,
1000
1000
0100
0100
,
2000
3000
0002
0003
2000
3000
0002
0003
,
1000
0010
1000
0010
1000
0000
M00M
0000
,
0001
1000
0001
1000
0001
0000
M00M
0000
,
0001
0001
1000
0010
,
0100
0000
0001
0000
1000
0100
1000
0100
,
1000
0001
0100
0010
,
0100
0000
0100
0000
0001
0010
0001
0000
,
1000
0001
0001
0100
,
0010
0000
1000
0000
0001
1000
0001
1000
,
0001
1000
0100
1000
,
1000
0000
0010
0000
1000
0010
0100
0000
,
M000
0M00
00M0
000M
;

//--------------- dance-single - Alex ----------------
#NOTES:
     dance-single:
     Alex:
     Hard:
     8:
     0,0,0,0,0:
0000
0000
0000
0000
,
0000
0000
0000
0000
0000
0001
1000
0010
,
0100
0000
0001
0100
0000
0001
0010
0100
,
1000
0010
0100
0002
0003
1000
0100
0010
,
0001
0000
1000
0010
0000
0010
1000
0001
,
0100
0010
0100
0002
0003
1000
0001
0010
,
0001
0000
0000
1000
0000
0010
1000
0000
0001
0000
0100
0000
0001
0000
1000
0100
,
1000
0000
0001
0100
0000
0100
0000
0000
0001
0000
0020
0000
0030
0000
0000
0000
,
1001
0000
0000
0000
0110
0000
0000
0000
0001
0000
1000
0010
0000
0000
0100
0000
,
0001
1000
0100
0010
0001
1000
1001
0000
,
0001
0000
0000
0000
1000
0000
1000
0000
0100
0000
1000
0000
0010
0000
0100
0001
,
0000
0100
0001
0000
1000
0010
1000
0001
,
0010
0100
0010
0001
0100
0100
0001
1000
,
0000
0001
0010
0000
0001
1000
0010
1000
,
0001
0100
0010
0200
0300
0001
1000
0100
,
1000
0000
0000
0002
0000
0000
0000
0000
0000
0000
0000
0000
0003
0000
0000
0000
0000
0000
1000
0000
0010
0000
1000
0000
,
0010
1000
0001
0100
,
0020
0030
0200
0300
0002
0003
2000
3000
,
0001
0010
0100
1000
0001
0000
MMMM
0000
,
1001
0000
0110
0000
1000
0001
1001
0000
,
0010
0000
1000
0000
0001
0000
0010
0000
0100
0000
1000
0100
0000
0000
1000
0000
,
1001
0000
0110
0000
0001
1000
1001
0000
,
0001
0000
0010
0000
0001
0000
0100
0000
0001
0000
0100
0010
0000
0000
0100
0000
,
0101
0000
1010
0000
0010
1000
1100
0000
,
1000
0000
0010
0000
1000
0000
0001
0000
1000
0000
0010
1000
0000
0000
0001
0000
,
1001
0000
0110
0000
0010
0100
0101
0000
,
0001
0000
1000
0000
0100
0000
0010
0000
0001
0000
1000
0010
0000
0000
0100
0000
,
2002
3003
0220
0330
2002
3003
0000
0000
,
0000
0000
0001
0000
1000
0000
0001
0100
0000
0001
0000
1000
0000
0000
0010
0000
,
0100
0000
0001
0100
0000
0010
0000
0200
0000
0000
0300
0000
0001
1000
0000
0000
,
0000
0000
0001
0000
1000
0000
0100
1000
0000
1000
0100
0000
1000
0000
0000
0000
,
0010
0000
0100
0001
0000
0100
0000
0001
0000
0000
0000
0000
1001
0000
0000
0000
,
0000
0000
0001
0000
1000
0000
0010
1000
0000
1000
0010
0000
0100
0000
0000
0000
,
0001
0000
1000
0100
0000
1000
0000
0001
0000
0000
0000
0000
1000
0001
0000
0000
,
0101
1010
1100
0110
,
0010
0000
0001
0100
0000
0100
0001
0000
2002
0000
0000
0000
3003
0000
0000
0000
,
0001
1000
0010
0000
0100
0001
1000
0000
,
0100
0000
0010
0000
0001
0000
0000
0100
0000
0000
0001
0000
1000
0000
0001
0000
,
1000
0000
0001
0200
0000
0000
0000
0300
0000
0000
0001
0000
1000
0000
0010
0000
,
1000
0001
1001
0000
,
0001
0000
0100
0000
0001
0000
0100
0000
0010
0000
0100
0000
0001
0000
0010
0100
,
0000
1000
0010
0100
0000
0001
1000
0100
,
1000
0000
0001
0000
0100
0010
0100
0001
,
0000
0010
0100
0000
1000
0010
0100
0001
,
1000
0100
0010
0002
0003
1000
0010
0100
,
0001
0000
0000
0020
0000
0000
0000
0000
0000
0000
0000
0000
0030
0000
0000
0000
0000
0000
0001
0000
1000
0000
0001
0000
,
1000
0001
0100
0010
,
2000
3000
0002
0003
0200
0300
0020
0030
,
1000
0001
0100
0010
1000
0000
1001
0000
,
0010
0100
0001
1000
0100
0000
MMMM
0000
,
1001
0000
0110
0000
0010
0100
0101
0000
,
0001
0000
1000
0000
0100
0000
1000
0000
0001
0000
0100
0010
0000
0000
0100
0000
,
0101
0000
1010
0000
0010
1000
1100
0000
,
0100
0000
1000
0000
0001
0000
0100
0000
0001
0000
1000
0010
0000
0000
1000
0000
,
1001
0000
0011
0000
0001
0100
0110
0000
,
0010
0000
0100
0000
0001
0000
0010
0000
0001
0000
1000
0001
0000
0000
0100
0000
,
0101
0000
1010
0000
0010
1000
1100
0000
,
0100
0000
1000
0000
0010
0000
0100
0000
0001
0000
1000
0010
0000
0000
0100
0000
,
000M
M000
00M0
0M00
;

//--------------- dance-single - Alex ----------------
#NOTES:
     dance-single:
     Alex:
     Challenge:
     10:
     0,0,0,0,0:
0000
0000
0000
0000
,
0000
0000
0000
0000
0000
0001
1000
0010
,
1010
0010
1000
0001
0100
0100
0001
1000
,
0100
0010
0001
1001
0000
0001
1000
0010
,
0110
0000
0101
1010
0000
1000
0100
0010
,
1001
0001
0100
0101
0000
0001
0100
0010
,
0110
0000
0010
0100
0000
0100
0010
0000
1000
0000
0010
0000
0100
0000
0001
0010
,
0100
0000
1000
0001
0000
0001
1000
0000
0010
0000
0100
0000
0001
0000
0100
0000
,
0101
0000
0000
0000
1010
0000
0000
0000
0010
1000
0010
2000
0000
0000
3001
0000
,
0100
0001
0010
0100
1000
0001
0100
0010
0100
0000
0000
0000
0110
0000
0000
0000
,
0010
0000
1000
0000
0001
0000
1000
0010
1000
0000
0001
0000
0100
0000
0001
0010
,
0000
0010
0001
0000
0100
0000
0001
0000
1000
0000
0010
0000
0100
0000
0001
0000
,
1001
0000
0001
0000
1000
0000
0100
1000
0100
0000
1000
0000
0010
0000
1000
0010
,
1000
0001
0100
0001
0010
0100
1000
0001
,
0100
0010
0110
1001
0110
0010
1000
0100
,
1100
0000
0000
0011
0000
0000
1100
0000
0000
1000
0000
0000
0001
0000
0000
0100
0000
0000
0010
0000
1000
0000
0001
0000
,
0101
1010
1100
0110
,
0002
0000
0000
0003
2000
0000
0000
3000
0020
0000
0000
0030
0200
0000
0000
0300
,
1001
0010
1001
0100
1001
0000
MMMM
0000
,
0001
0000
1000
0000
0010
0000
0100
0001
0100
0000
0001
1000
0000
1000
0001
0010
,
0100
1000
0001
0100
0010
1000
0100
0010
0001
0000
0100
0010
0000
0000
0100
0000
,
0101
0000
0001
0000
1000
0000
0100
1000
0100
0000
1000
0010
0000
0010
1000
0010
,
1000
0001
1000
0010
0100
0001
1000
0100
0010
0001
1000
0100
0000
0000
1000
0000
,
1001
0000
0010
0000
1000
0000
0100
1000
0100
0000
1000
0010
0000
0010
1000
0001
,
0100
0001
0010
0001
0100
0010
0100
0001
1000
0000
0001
1000
0000
0000
0001
0000
,
1001
0000
1000
0000
0010
0000
0100
0001
0100
0000
0001
0100
0000
0100
0001
0010
,
0100
0010
0001
0100
0010
1000
0100
0010
0001
1000
0010
0100
0000
0000
0001
0000
,
1MM1
0000
0000
0000
M11M
0000
0000
0000
1000
0001
1000
0001
1000
0010
0100
0010
,
0000
0000
0100
0001
0100
0000
0001
1000
0000
0010
0000
1000
0000
0001
0100
0001
,
0100
0000
0010
0100
0000
0001
0000
1001
0000
0000
0000
0000
1001
0001
0000
0000
,
0000
0000
1000
0001
1000
0000
0010
1000
0000
0001
0100
0000
0010
0000
0100
0001
,
0100
0000
0001
1000
0000
0010
0000
1010
0000
0000
0000
0000
1001
1000
0000
0000
,
1000
0000
0001
1000
0001
0000
1000
0010
0000
0010
0000
1000
0001
0000
1000
0000
,
0001
0000
0100
0001
0000
0100
0000
0010
0000
0000
0000
0000
0101
0100
0000
0000
,
0110
0000
0000
0000
0101
0000
0000
0000
0001
0010
0100
1000
0020
0000
0030
0000
,
1000
0000
1000
0001
0000
0001
1000
0000
1001
0000
0000
0000
1000
0001
1000
0001
,
1000
0000
0001
0100
0000
0100
0001
0000
0010
0000
0100
0000
1000
0000
0010
0000
,
1000
0000
0001
0000
1000
0000
0000
1001
0000
0000
0001
0000
0100
0010
1000
0001
,
0010
0000
0001
0020
0000
0030
0100
0000
0000
0000
0100
0000
1100
0000
0000
0000
,
1000
0000
0001
0000
1000
0000
0010
0000
1000
0000
0001
0000
0100
0101
0000
0000
,
0001
0000
1000
0000
0010
0000
1000
0000
0001
0000
0010
0000
0001
0000
0100
0010
,
0000
0010
0100
0000
0001
0000
2000
0000
3000
0000
0001
0000
1000
0000
0100
0000
,
0001
0100
1000
0010
0100
0001
0010
0011
,
0000
0101
0000
0100
0001
0100
0010
0100
,
0001
1000
0010
1010
0000
1000
0001
0010
,
0100
0000
0000
2002
0000
0000
0000
0000
0000
0000
0000
0000
3003
0000
0000
0000
0000
0000
0001
0000
1000
0000
0010
0000
,
0110
0101
0011
1001
,
0002
0000
0000
0003
0020
0000
0000
0030
0200
0000
0000
0300
2000
0000
0000
3000
,
0001
1001
1000
1001
0001
0000
1001
0000
,
0010
0100
0110
0010
0110
0000
MMMM
0000
,
1001
0000
1000
0000
0010
0000
0100
0001
0100
0000
0001
1000
0000
1000
0010
0100
,
0001
0010
0001
1000
0100
0010
0001
1000
0010
0000
0010
1000
0000
0000
0001
0000
,
0101
0000
0100
0000
0001
0000
0010
0001
0010
0000
0001
1000
0000
1000
0010
1000
,
0001
1000
0100
0010
0001
1000
0010
0100
0001
1000
0010
0100
0000
0000
0001
0000
,
1001
0000
1000
0000
0010
0000
1000
0010
1000
0000
1000
0001
0000
0001
1000
0100
,
1000
0001
0100
0001
0010
0001
0100
0010
0100
0000
0100
0001
0000
0000
0010
0000
,
0011
0000
0001
0000
0100
0000
0010
0100
0010
0000
1000
0010
0000
0010
1000
0001
,
0100
0010
1000
0001
0010
0100
1000
0001
0010
0001
1000
0010
0000
0000
0100
0000
,
MM11
11MM
1M1M
1MM1
;
