#TITLE:Venom;
#SUBTITLE:;
#ARTIST:Stray Kids;
#TITLETRANSLIT:;
#SUBTITLETRANSLIT:;
#ARTISTTRANSLIT:;
#GENRE:;
#CREDIT:;
#BANNER:Venom.png;
#BACKGROUND:Venom-BG.png;
#LYRICSPATH:;
#CDTITLE:;
#MUSIC:Venom.ogg;
#OFFSET:-0.690000;
#SAMPLESTART:63.263000;
#SAMPLELENGTH:15.985000;
#SELECTABLE:YES;
#BPMS:0.000000=68.500000
;
#STOPS:
;
#BGCHANGES:;
#KEYSOUNDS:;
#ATTACKS:;

//---------------dance-single - Alex----------------
#NOTES:
     dance-single:
     Alex:
     Beginner:
     1:
     0.058168,0.083375,0.045242,0.000000,0.000000,63.000000,56.000000,7.000000,0.000000,0.000000,0.000000,0.058168,0.083375,0.045242,0.000000,0.000000,63.000000,56.000000,7.000000,0.000000,0.000000,0.000000:
0000
0000
0000
0000
,
0000
0000
0000
0000
,
0010
0000
0000
0000
,
1000
0000
0000
0000
,
1000
0000
0000
0000
,
0001
0000
0000
0000
,
0100
0000
0100
0000
,
0100
0000
0000
0000
,
0010
0000
0010
0000
,
0010
0000
0000
0000
,
1001
0000
0000
0000
,
0100
0000
0000
0000
,
1001
0000
0000
0000
,
0010
0000
0000
0000
,
1000
0000
0001
0000
,
1000
0000
0001
0000
,
0100
0000
0010
0000
,
0100
0000
0010
0000
,
1001
0000
0000
0000
,
0001
0000
0000
0000
,
0100
0000
0000
0000
,
0010
0000
1000
0000
,
0001
0000
0000
0000
,
1000
0000
0000
0000
,
0010
0000
0000
0000
,
0100
0000
0000
0000
,
0001
0000
0000
0000
,
1001
0000
0000
0000
,
0010
0000
0100
0000
,
0010
0000
0000
0000
,
1000
0000
0000
0000
,
1001
0000
0001
0000
,
0001
0000
0000
0000
,
0100
0000
0010
0000
,
0100
0000
0000
0000
,
0010
0000
1000
0000
,
0001
0000
1000
0000
,
0100
0000
1000
0000
,
0001
0000
1000
0000
,
1001
0000
0000
0000
,
0001
0000
0000
0000
,
1000
0000
0000
0000
,
0010
0000
0000
0000
,
1001
0000
0000
0000
;

//---------------dance-single - Alex----------------
#NOTES:
     dance-single:
     Alex:
     Easy:
     3:
     0.145883,0.166750,0.077558,0.000000,0.000000,158.000000,146.000000,12.000000,0.000000,0.000000,0.000000,0.145883,0.166750,0.077558,0.000000,0.000000,158.000000,146.000000,12.000000,0.000000,0.000000,0.000000:
0000
0000
0000
0000
,
0000
0000
0000
0000
,
0100
0001
0001
0000
,
1000
0010
0010
0000
,
0100
0010
0010
0000
,
1000
0000
0001
0000
1000
1000
1001
0000
,
0001
0100
0001
0000
,
1000
0010
1000
0000
,
0001
1000
0001
0000
,
1000
0000
0100
0000
1100
0000
0000
0100
,
0100
0000
0010
0010
0010
0000
1000
1000
,
1000
0000
0000
0000
0000
0000
0000
0001
,
1000
0000
0001
0001
0001
0000
0100
0100
,
0100
0000
0000
0000
0000
0000
0000
0010
,
0100
0001
1000
0010
,
1001
0000
1001
0000
,
0001
1000
0001
1000
,
0010
0000
0100
0000
0010
0000
0100
0010
,
0100
0001
1000
0000
,
0010
1000
0100
0000
,
0010
0001
0001
0000
,
0100
0010
0100
1001
,
0010
0000
0000
0000
,
1000
1000
0001
0000
,
0100
0010
0010
0000
,
0010
1000
0001
0000
,
1000
0000
0100
0000
1000
1000
1000
0000
,
1010
0010
1000
0001
,
0100
0001
1000
0010
,
0110
0000
0000
0000
0100
0100
0100
0000
,
1001
0000
0000
0000
0001
0000
1000
0010
,
0010
0000
0100
0100
0100
0000
0001
0001
,
0001
0000
0000
0000
0000
0000
0000
1000
,
1000
0000
0001
1000
1000
0000
0010
0100
,
0100
0000
0000
0000
,
1001
0001
1000
0010
,
0110
0000
0110
0000
,
0010
1000
0010
0100
,
0001
0000
0010
0000
0100
0000
0000
0100
,
0001
1000
0001
0000
,
1000
0100
1000
0000
,
0001
0010
0001
0000
,
0100
0000
0010
0000
0100
0100
0100
0000
,
1001
0000
0000
0000
;

//---------------dance-single - Alex----------------
#NOTES:
     dance-single:
     Alex:
     Medium:
     5:
     0.227134,0.241036,0.122800,0.025853,0.006463,246.000000,227.000000,19.000000,4.000000,0.000000,0.000000,0.227134,0.241036,0.122800,0.025853,0.006463,246.000000,227.000000,19.000000,4.000000,0.000000,0.000000:
0000
0000
0000
0000
,
0000
0000
0000
0000
0000
0000
0000
0001
,
1000
0000
0100
0010
0001
0000
1000
0010
,
0100
0000
0001
1000
0100
0000
0010
0001
,
0100
0000
0010
0010
1000
0000
0001
0001
,
1000
0000
1000
1000
0001
1001
1001
1001
,
0000
0000
0010
0000
0100
0000
0001
1000
,
0001
0000
0010
0000
0100
0000
1000
0010
,
0100
0000
0001
0000
0010
0000
0001
1000
,
0001
0000
1001
0000
1000
0001
1000
0001
,
1000
0000
0010
0100
0001
0000
1000
0100
,
0020
0000
0000
0000
0030
0000
0000
0001
,
0100
0000
0010
1000
0001
0000
0010
0001
,
2000
0000
0000
0000
3000
0000
0000
0010
,
0100
0001
1000
0000
0100
0010
0001
1000
,
1001
0000
0000
0010
0110
0000
0100
0100
,
0010
0000
1000
0001
0001
1000
0000
0001
,
0100
0010
0100
0001
0000
1001
0000
0010
,
0010
0000
1000
0001
0100
0000
0010
1000
,
0100
0000
0010
0001
0100
0000
0010
1000
,
0001
0000
1000
0100
1000
0000
0010
0100
,
0010
0000
0100
0001
1000
1001
1001
1001
,
0000
0000
0000
0000
0000
0000
0000
0000
0000
0000
0000
0000
0010
0100
0010
0000
,
0000
1000
0001
0010
0000
0001
1000
0010
,
0000
0100
0001
1000
0000
0100
0010
0001
,
0000
1000
0010
1000
0000
0001
0100
0001
,
0000
0010
0100
0010
0000
1001
1001
1001
,
0001
0000
1000
0000
0001
0100
0001
0000
,
1000
0000
0010
0000
1000
0100
1000
0000
,
0001
0000
1000
0000
0010
0100
0001
0000
,
1000
0000
0100
0000
0010
0001
0100
0010
,
1000
0000
0001
1000
0100
0000
0010
0001
,
0200
0000
0000
0000
0300
0000
0000
0010
,
1000
0000
0001
0001
0100
0000
0010
0010
,
2000
0000
0000
0000
3000
0000
0000
0001
,
1000
0010
0100
0000
0001
0010
0001
1000
,
1001
0000
0000
0001
1001
0000
1000
0010
,
1000
0000
0001
0100
0001
1000
0000
0010
,
0010
0100
0100
0001
0000
1001
0000
0010
,
0100
0000
0001
0010
0001
0000
1000
0100
,
1000
0000
0001
0100
0001
0000
1000
0010
,
0100
0000
0001
1000
0100
0000
0010
0001
,
0100
0000
0010
1000
0001
1001
1001
1001
,
0000
0000
0000
0000
0000
0000
0000
0000
0000
0000
0000
0000
0100
0010
0100
0000
;

//---------------dance-single - Alex----------------
#NOTES:
     dance-single:
     Alex:
     Hard:
     7:
     0.391483,0.397000,0.161579,0.109874,0.581685,424.000000,399.000000,25.000000,17.000000,41.000000,0.000000,0.391483,0.397000,0.161579,0.109874,0.581685,424.000000,399.000000,25.000000,17.000000,41.000000,0.000000:
// measure 0
0000
0000
0000
0000
,  // measure 1
0000
0000
0000
0000
0000
0000
0000
0001
,  // measure 2
1001
0000
0000
0000
0001
0100
0100
0010
1000
0000
0000
0000
1000
1000
0100
0010
,  // measure 3
0001
0000
0000
0000
0001
1000
0010
0100
0001
0000
0000
0000
1000
0100
1000
0010
,  // measure 4
1000
0000
0000
0000
0001
0010
0001
0100
0001
0000
0000
0000
0010
0100
1000
0001
,  // measure 5
0100
0000
0000
0000
0010
1000
0001
0010
0001
0000
1001
0000
1001
0000
1001
0000
,  // measure 6
0000
0000
0000
0000
0001
0100
0001
0000
1000
0010
1000
0000
0010
0100
0001
1000
,  // measure 7
0100
0000
0000
0000
0010
0001
0100
0000
0010
1000
0001
0000
1000
0100
1000
0001
,  // measure 8
1000
0000
0010
0000
0100
0000
0001
0000
0010
0000
0100
0000
1000
0001
0100
0000
,  // measure 9
1001
0000
0000
0000
0001
0010
0001
0000
0100
0010
0100
0001
0010
0100
1000
0001
,  // measure 10
0200
0000
0000
0300
0010
1000
0001
0010
0000
0002
0000
0003
1000
0010
0100
0001
,  // measure 11
0000
2000
0000
0000
0000
0000
3000
0000
0100
0000
0010
0000
0001
0000
0100
0010
,  // measure 12
2000
0000
0000
3000
0001
0100
0001
1000
0000
0020
0000
0030
0100
0001
0010
0100
,  // measure 13
0000
2000
0000
0000
3000
0001
0100
0010
0000
0200
0000
0000
0300
0001
0010
0001
,  // measure 14
0100
0010
1000
0001
0100
0000
0010
1000
0001
0000
0001
1000
0000
1000
0010
0100
,  // measure 15
0002
0000
0000
0003
0000
0100
0001
0010
0002
0000
0003
0000
0001
1000
0001
0100
,  // measure 16
0001
0000
1001
0000
0001
1000
0010
0100
0001
0000
1001
0000
0000
0001
1000
0010
,  // measure 17
0100
0001
1000
0100
0010
0001
0100
0000
0000
0000
0110
0000
0000
0000
0010
0000
,  // measure 18
1001
0000
0000
0000
0001
0100
0001
1000
0010
0000
0000
0000
0010
1000
0100
0010
,  // measure 19
0001
0000
0000
0000
1000
0010
0100
0001
1000
0000
0000
0000
0001
1000
1000
0001
,  // measure 20
0100
0000
0000
0000
0010
0010
1000
0001
0100
0000
0000
0000
0001
0010
0001
0100
,  // measure 21
0100
0000
0000
0000
0000
0000
0000
0000
0000
0000
0000
0000
0010
0000
0000
1000
0000
0000
0100
0000
0000
1000
0000
0000
0010
0000
0000
0000
0000
0000
1010
0000
0000
0000
0000
0000
1010
0000
0000
0000
0000
0000
1010
0000
0000
0000
0000
M000
,  // measure 22
000M
0000
0M00
000M
M000
0000
0000
00M0
0M00
0000
0000
0000
M00M
0000
0M0M
0000
0000
00M0
0M00
0000
000M
0000
0000
00M0
0M00
0000
M000
0000
000M
0M00
0000
00M0
M000
000M
0000
0000
0100
0000
0000
0100
0000
0000
0100
0000
0000
0000
0000
0000
,  // measure 23
0000
0000
0001
1000
0010
0100
0001
0000
0000
1000
0100
0010
0001
1000
0010
0000
,  // measure 24
0000
0000
0010
0100
0001
0000
1000
0001
0100
0000
0001
0010
0001
0100
0010
0000
,  // measure 25
0000
0000
0010
1000
0100
0010
0001
1000
0010
0000
0010
0000
0100
0000
0001
0000
,  // measure 26
0000
0000
1000
0100
1000
0001
0100
0010
0100
0000
1001
0000
1001
0000
1001
0000
,  // measure 27
0001
0100
0001
0000
1000
0010
1000
0000
0001
0010
0100
1000
0001
0100
0010
0000
,  // measure 28
1000
0000
0001
0000
0001
0000
0100
0000
0010
0100
0001
0010
0100
0000
1001
0000
,  // measure 29
1001
0000
0001
0100
0001
0000
1000
0000
1000
0000
0010
1000
0100
0010
0001
0100
,  // measure 30
0010
0000
0000
0000
1001
0000
0000
0000
0001
1000
0001
0000
1000
0010
0100
0001
,  // measure 31
0020
0000
0000
0030
0100
1000
0001
0100
0000
0020
0000
0030
1000
0001
0010
0001
,  // measure 32
0000
2000
0000
0000
0000
3000
0000
0000
0001
0000
0100
0000
0010
0000
1000
0100
,  // measure 33
0020
0000
0000
0030
0001
0100
0001
0010
0000
0200
0000
0300
1000
0010
0100
0001
,  // measure 34
0000
2000
0000
0000
0000
0000
0000
0000
3000
0000
0000
0000
0000
0001
0100
0001
,  // measure 35
1000
0010
0100
0001
1000
0000
0100
0010
0001
0000
0001
0100
0000
0100
0010
1000
,  // measure 36
0002
0000
0000
0003
0000
0100
0010
1000
0002
0000
0003
0000
0100
0100
0001
1000
,  // measure 37
0010
0000
1010
0000
0010
1000
0001
0100
0010
0000
1001
0000
0000
0001
0010
0001
,  // measure 38
0100
0010
1000
0100
0010
0001
1000
0000
0000
0000
1001
0000
0000
0000
0001
0000
,  // measure 39
1001
0000
0000
0000
1000
0010
1000
0001
1000
0000
0000
0000
0001
0100
0001
0010
,  // measure 40
0001
0000
0000
0000
0100
0100
0010
0010
1000
0000
0001
0000
0100
0000
0010
0000
,  // measure 41
1000
0000
0000
0000
0001
0010
0001
0100
0010
0000
0000
0000
1000
0100
0010
0001
,  // measure 42
1000
0000
0000
0000
0010
0100
0001
1000
0100
0000
1001
0000
1001
0000
1001
0000
,  // measure 43
00M0
0000
0000
0000
0000
0000
0000
0000
M000
0000
0000
0000
0M00
0000
0000
0000
0000
0000
000M
0000
0000
0000
0000
0000
M00M
0000
0000
0000
0000
0000
000M
0000
0000
0000
0000
0000
0000
0000
0000
0000
0000
0000
0M0M
0000
0000
0000
0000
0000
00M0
0000
0000
0000
0000
0000
0000
0000
0000
0000
0000
0000
M000
0000
0000
0000
0000
0000
0000
0000
0000
0000
0000
0000
000M
0000
0000
0000
0000
0000
0000
0000
0000
0000
0000
0000
0M00
0000
0000
0000
0000
0000
M000
0000
0000
0000
0000
0000
0M00
0000
0000
0000
0000
0000
000M
0000
0000
0000
0000
0000
00M0
0000
0000
0000
0000
0000
000M
0000
0000
0000
0000
0000
0000
0000
0000
0000
0000
0000
M000
0000
0000
0000
0000
0000
0000
0000
0000
0000
0000
0000
0000
0000
0000
0000
0000
0000
0010
0000
0000
0000
0000
0000
0000
0000
0000
0000
0000
0000
0010
0000
0000
0000
0000
0000
0000
0000
0000
0000
0000
0000
0010
0000
0000
0000
0000
0000
0000
0000
0000
0000
0000
0000
0000
0000
0000
0000
0000
0000
0000
0000
0000
0000
0000
0000
;
