#TITLE:Tomboy;
#SUBTITLE:;
#ARTIST:(G)I-DLE;
#TITLETRANSLIT:;
#SUBTITLETRANSLIT:;
#ARTISTTRANSLIT:;
#GENRE:;
#CREDIT:;
#MUSIC:Tomboy.ogg;
#BANNER:Tomboy.png;
#BACKGROUND:Tomboy-BG.png;
#CDTITLE:;
#SAMPLESTART:54.303;
#SAMPLELENGTH:14.486;
#SELECTABLE:YES;
#OFFSET:0.314;
#BPMS:0.000=124.000;
#STOPS:;
#BGCHANGES:10.000=Tomboy.avi=1.000=1=0=0=StretchNoLoop==CrossFade==,
256.000=Tomboy-BG.png=1.000=1=0=1===CrossFade==,
99999.000=-nosongbg-=1.000=0=0=0=StretchNoLoop====
;
#FGCHANGES:;

//--------------- dance-single - Alex ----------------
#NOTES:
     dance-single:
     Alex:
     Beginner:
     1:
     0.065612,0.123885,0.024173,0,0,57,54,3,0,0,0,0.065612,0.123885,0.024173,0,0,57,54,3,0,0,0:
0000
0000
0000
0000
,
0000
0000
0000
0000
,
0000
0000
0000
0000
,
0000
0000
0000
0000
,
0000
0000
1000
0000
,
0000
0000
0000
0000
,
0000
0000
0001
0000
,
0000
0000
0000
0000
,
0000
0000
1000
0000
,
0000
0000
0000
0000
,
0000
0000
0010
0000
,
0000
0000
0010
0000
,
0000
0000
0100
0000
,
0000
0000
0001
0000
,
0000
0000
0001
0000
,
0000
0000
0100
0000
,
0000
0000
0010
0000
,
0000
0000
1000
0000
,
0000
0000
0001
0000
,
0000
0000
1000
0000
,
0000
0000
0010
0000
,
0000
0000
0000
0000
,
0000
0000
0100
0000
,
0000
0000
0000
0000
,
0000
0000
0001
0000
,
0001
0000
0001
0000
,
0000
0000
1000
0000
,
1000
0000
1000
0000
,
0000
0000
1001
0000
,
0000
0000
0010
0000
,
0000
0000
1000
0000
,
0000
0000
0001
0000
,
0000
0000
1000
0000
,
0000
0000
0010
0000
,
0000
0000
0100
0000
,
0000
0000
0100
0000
,
0000
0000
0001
0000
,
0000
0000
0010
0000
,
0000
0000
0001
0000
,
0000
0000
1000
0000
,
0000
0000
0001
0000
,
0000
0000
1000
0000
,
0000
0000
0010
0000
,
0000
0000
0100
0000
,
0000
0000
0100
0000
,
0000
0000
0010
0000
,
0000
0000
0000
0000
,
0000
0000
0100
0000
,
0000
0000
0000
0000
,
0000
0000
0001
0000
,
0000
0000
1000
0000
,
0000
0000
0001
0000
,
0000
0000
1000
0000
,
0000
0000
1001
0000
,
0000
0000
0010
0000
,
0000
0000
0100
0000
,
0000
0000
0001
0000
,
0001
0000
0001
0000
,
0000
0000
1000
0000
,
0000
0000
0010
0000
,
0000
0000
0100
0000
,
0000
0000
1001
0000
;

//--------------- dance-single - Alex ----------------
#NOTES:
     dance-single:
     Alex:
     Easy:
     3:
     0.151943,0.246763,0.120863,0.072518,0,132,117,15,9,0,0,0.151943,0.246763,0.120863,0.072518,0,132,117,15,9,0,0:
0000
0000
0000
0000
,
0000
0000
0000
0000
,
0000
0000
0000
0000
,
0000
0000
0000
0000
,
0000
0000
0010
0000
,
0100
0000
0010
0000
,
0000
0000
1000
0000
,
0001
0000
1000
0000
,
0000
0000
0010
0000
,
1000
0000
0001
0000
,
0000
0000
1001
0000
,
1001
0000
2002
0000
,
3003
0000
0001
0000
,
1000
0000
0020
0000
,
0030
0000
0100
0000
,
0001
0000
2000
0000
,
3000
0000
0001
0000
,
0100
0000
0020
0000
,
0030
0000
1010
0000
,
1001
0000
0010
0010
,
0100
0100
1001
0000
,
0001
0000
1000
0000
,
0001
0000
1000
0000
,
0010
0000
1000
0000
,
0001
0000
0100
0100
,
0100
0100
0100
0100
,
0200
0300
0010
0010
,
0010
0010
0010
0000
,
0000
0000
1001
0000
,
0001
0000
1000
0000
,
0001
0000
0001
0000
,
0100
0000
0010
0000
,
1000
0001
1001
0000
,
1000
0000
0010
0000
,
1000
0000
0001
0000
,
0001
0000
1000
0000
,
0001
0001
0001
0000
,
0000
0000
1001
0000
,
0000
0000
0110
0000
,
0000
0000
0100
0000
,
0100
0000
0100
0000
,
0000
0000
0010
0000
,
0010
0000
1001
0000
,
0010
0000
0100
0000
,
0010
0000
1001
0000
,
0100
0100
0100
0000
,
0010
0000
0200
0000
,
0300
0000
0010
0000
,
1000
0000
0002
0000
,
0003
0000
1000
1000
,
1000
1000
1000
1000
,
2000
3000
0001
0001
,
0001
0001
0001
0000
,
0000
0000
1001
0000
,
0010
0000
1000
0000
,
0001
0000
0100
0000
,
0100
0000
0010
0000
,
1000
1000
1001
0000
,
0001
0000
1000
0000
,
0010
0000
0100
0000
,
0010
0000
1000
1000
,
1000
1001
0000
0000
;

//--------------- dance-single - Alex ----------------
#NOTES:
     dance-single:
     Alex:
     Medium:
     5:
     0.253238,0.308202,0.201439,0.136979,0,220,195,25,17,6,0,0.253238,0.308202,0.201439,0.136979,0,220,195,25,17,6,0:
0000
0000
0000
0000
,
0000
0000
0000
0000
,
0000
0000
0000
0000
,
0000
0000
0000
0000
,
0000
0000
0001
0000
,
1000
0000
0001
1000
,
0010
0100
0001
0000
,
1000
0000
0001
0010
,
0100
1000
0001
0000
,
1000
0000
0010
1000
,
0001
0100
0110
0000
,
1001
0000
0010
0100
,
0001
1001
0000
1000
,
0001
0010
0100
1000
,
0020
0000
0030
0100
,
0001
0010
0001
1000
,
0020
0000
0030
0100
,
0001
1000
0100
0010
,
0002
0003
1001
0000
,
1001
0000
0001
1000
,
0010
1000
1001
0001
,
0010
0100
1000
0010
,
0020
0030
0100
0001
,
0010
0001
1000
0010
,
2000
3000
0001
1000
,
0001
1000
0001
1000
,
0002
1003
0010
0100
,
0010
0100
0110
M00M
,
0000
1001
1001
0000
,
0001
0100
0020
0030
,
1000
0100
0020
0030
,
0001
1000
0010
0100
,
0001
1000
1001
0000
,
0001
0010
0002
0003
,
0100
0010
0100
0100
,
0001
1000
0001
1000
,
1000
0010
1010
0000
,
0MM0
0000
0001
0100
,
0010
0010
0100
0001
,
1000
1000
0001
0010
,
0100
1000
0001
0100
,
0010
1000
1001
0010
,
1001
0001
0100
0010
,
1000
0100
1100
1000
,
1010
0010
0100
0001
,
2002
3003
0001
0100
,
0010
0100
0001
1000
,
0200
0300
1000
0010
,
1000
0001
0010
0001
,
0200
0300
0010
1000
,
0001
0100
0010
1000
,
0002
0103
0010
0010
,
1000
0001
1001
0MM0
,
0000
1001
1001
0000
,
0001
1000
0020
0030
,
0100
0001
2000
3000
,
0001
0010
0001
0100
,
0010
1000
1010
0000
,
0010
1000
0200
0300
,
0010
0001
0100
0100
,
0010
1000
0001
1000
,
0001
1000
0000
1001
,
0000
1001
0000
1001
,
0000
1001
0000
1001
;

//--------------- dance-single - Alex ----------------
#NOTES:
     dance-single:
     Alex:
     Hard:
     8:
     0.389065,0.410936,0.145036,0.29813,0.040288,338,320,18,37,27,0,0.389065,0.410936,0.145036,0.29813,0.040288,338,320,18,37,27,0:
0000
0000
0000
0000
,
0000
0000
0000
0000
,
0000
0000
0000
0000
,
0000
0000
0000
0000
,
0000
0000
0000
0000
0020
0000
0030
0100
,
0002
0000
0003
1000
0100
0010
0001
1000
,
0020
0000
0030
1000
0002
0000
0003
0100
,
0002
0000
0003
1000
0100
1000
0010
1000
,
0002
0000
0003
0000
0200
0000
0300
0010
,
2000
0000
3000
0001
0100
0010
0100
0001
,
1000
0000
0000
0001
0100
0000
0010
0000
0000
1000
0010
0000
,
1000
0000
0000
0001
1000
0000
1000
0001
0000
0001
1000
0000
,
1001
0000
2002
0000
3003
0000
0001
0100
,
0010
0100
0001
1000
0100
0000
0010
0000
,
0002
0000
0000
0000
0003
0000
1000
0010
,
1000
0001
1000
0010
0100
0000
0001
0000
,
2000
0000
0000
0000
3000
0000
0001
1000
,
0010
0100
0001
1000
0100
0000
0010
0000
,
0002
0000
0000
0000
0003
0000
0100
0000
0010
0000
0000
1000
0000
0000
0001
0000
,
0100
0000
0000
0020
0000
0000
0030
0000
1000
0000
0100
0000
0010
0000
0001
0000
,
0100
0010
1000
0001
0200
0000
0310
1000
,
0001
0010
0001
1000
0020
0000
2030
0000
,
3002
0000
0103
0010
2000
0000
3001
0010
,
0100
1000
0001
0100
0020
0000
2030
0000
,
3200
0000
0310
0001
0100
0010
1000
0010
,
0100
0001
0010
0100
1000
0001
0100
0010
,
2000
3000
0001
0100
0010
1000
0100
0010
,
0001
1000
0010
0100
M00M
0000
1001
0000
,
MMMM
0000
0110
0000
1001
0000
0000
0001
,
0100
0010
1000
0100
0020
0000
0030
0001
,
1000
0010
1000
0001
0020
0000
0030
0001
,
0100
0010
1000
0100
0010
0000
0001
0100
,
0010
0100
0001
0000
1001
0000
0000
0001
,
1000
0010
1000
0001
0200
0000
0300
0010
,
1000
0001
0010
0100
0000
1000
0010
0010
,
1000
0001
0100
0000
0010
1000
0001
0000
,
0010
0001
1000
0000
1001
0000
0M00
00M0
,
0M00
00M0
0M00
0000
0000
0001
0100
0010
,
1000
0000
0000
0001
0000
0000
0100
0000
0000
0000
0010
0000
1000
0000
0100
0000
,
1000
0000
0000
1000
0000
0000
0001
0000
0000
0000
0001
0000
0100
0000
0010
0000
,
1000
0000
0000
0001
0000
0000
0010
0000
0000
0000
0001
0000
0100
0000
0010
0000
,
0100
0001
1000
0000
1001
0000
0010
0000
,
1001
0100
1001
0001
,
0010
0000
0100
1000
1010
0000
0100
0000
,
0011
0001
1001
0001
,
0100
0000
1000
0100
0001
0000
1000
0010
,
1000
0001
0010
0001
0200
0000
0320
0000
,
2030
0000
3001
0010
2000
0000
3010
0100
,
0001
0100
0010
1000
0002
0000
0023
0000
,
0230
0000
1300
0001
0100
0010
1000
0010
,
0100
0001
0010
0100
0010
0001
0100
0010
,
2000
3000
0001
1000
0010
1000
0001
0001
,
0010
0001
0100
0010
M00M
0000
1001
0000
,
MMMM
0000
0110
0000
1001
0000
0000
0001
,
1000
0010
1000
0001
0020
0000
0030
0001
,
1000
0010
0100
0001
2000
0000
3000
0001
,
0010
0100
1000
0001
0100
0000
0010
1000
,
0100
0010
0001
0000
1001
0000
0000
0001
,
1000
0010
1000
0001
0200
0000
0300
0010
,
1000
0100
0010
0001
0000
0001
1000
0010
,
0100
0001
0010
0000
0100
1000
0001
0000
,
0100
0010
1001
0000
0000
0000
M00M
0000
,
0000
M00M
0000
M00M
,
0000
M00M
0000
M00M
;

//--------------- dance-single - Alex ----------------
#NOTES:
     dance-single:
     Alex:
     Challenge:
     9:
     0.497267,0.642087,0.290072,0.322303,0.233669,432,396,36,40,31,0,0.497267,0.642087,0.290072,0.322303,0.233669,432,396,36,40,31,0:
0000
0000
0000
0000
,
0000
0000
0000
0000
,
0000
0000
0000
0000
,
0000
0000
0000
0000
,
0000
0000
0000
0000
0020
0030
1000
0001
,
0200
0300
0001
0010
0100
0010
0001
0100
,
0020
0030
1000
0100
0020
0030
0001
1000
,
0020
0030
1000
0001
0010
0001
0100
0010
,
2000
3000
0100
1000
0002
0003
0100
0001
,
0020
0030
0001
0100
0010
0100
0001
1000
,
0200
0000
0000
0300
0000
0000
0010
0000
0001
0000
0000
0000
1001
0000
0000
0000
0000
0000
0010
0000
0100
0000
0000
0000
,
1001
0000
0000
1000
0100
0000
0001
0100
0000
1000
0010
0000
,
0001
0100
2020
3030
1001
0000
0001
0100
,
1000
0100
0001
0010
1000
0010
0001
0100
,
0020
0000
2030
0000
3200
0000
0310
0001
,
0100
0010
0100
1000
0100
0010
0001
1000
,
0020
0000
0230
0000
2300
0000
3001
0010
,
0001
1000
0010
0001
0010
1000
0001
0100
,
0020
0000
0000
0000
0130
0000
0001
0000
1000
0000
0000
1001
0000
0000
0001
0000
,
0100
0000
0000
0110
0000
0000
0010
0000
1000
0000
0100
0000
0010
0000
0001
0000
,
0100
0010
1000
0001
1MM1
0000
0001
0100
,
1000
0100
0001
1000
0020
0000
2030
0000
,
3002
0000
0103
1000
1M1M
0000
0010
0100
,
0001
0010
0001
0100
0020
0000
2030
0000
,
3002
0000
0000
0000
0103
0000
0010
0000
1000
0100
0000
0100
1000
0000
1000
0010
,
0000
0010
1000
0000
1000
0001
0000
0001
0010
0000
0010
0001
0000
0001
0100
0000
,
0020
0000
0030
0000
0100
0000
0001
0000
1000
0001
0000
0001
0100
0000
0100
0010
,
0000
0010
1000
0000
1000
0001
0000
1001
0000
0000
0000
0000
MMMM
0000
0000
0000
,
0000
0000
1001
0000
0110
0000
0010
1000
,
0100
0010
0001
0100
0010
2000
3000
0001
,
0100
0010
0100
0001
0010
0200
0300
0010
,
0001
1000
0010
1000
0001
0010
0100
0000
,
1000
0010
0100
0000
1001
0000
0001
1000
,
0010
1000
0001
0010
0001
0200
0300
0001
,
0010
0100
1000
0020
0030
1000
1000
0001
,
0001
0100
0110
0000
0010
1000
0001
0000
,
0010
0001
0100
0000
1001
0000
M000
000M
,
M000
0000
000M
0000
M000
0000
0000
0000
0000
0000
0001
0100
0010
0100
0001
1000
,
0100
0010
0000
0011
0000
0000
1100
0000
0000
0000
0010
0100
0001
1000
0100
1000
,
0001
1000
0000
1010
0000
0000
0101
0000
0000
0000
0001
0000
0100
0000
0010
1000
,
0100
0010
0000
0001
0000
0000
1001
0000
0000
0000
0001
0000
0100
0000
0010
0000
,
1000
0000
0000
0100
0000
0000
0010
0000
0000
0001
0000
0000
1001
0000
0000
0000
0000
0000
0001
0000
0100
0000
0010
0000
,
1010
0000
0000
0000
0010
0100
0000
0100
0001
0000
1000
0000
0100
1000
0000
1000
,
0001
0000
0000
0001
1000
0010
1010
0000
0000
0001
0100
0001
,
0011
0010
0001
0100
1000
0100
0001
0010
,
1000
0000
1000
0001
1MM1
0000
0001
0100
,
0010
1000
0100
0010
0002
0000
2003
0000
,
3020
0000
0130
0001
MM11
0000
0001
0100
,
0010
1000
0100
0010
0002
0000
2003
0000
,
3020
0000
0000
0000
0130
0000
0001
0000
1000
0001
0000
0001
1000
0000
1000
0010
,
0000
0010
1000
0000
1000
0001
0000
0001
0010
0000
0010
0001
0000
0001
0100
0000
,
0020
0000
0030
0000
1000
0000
0001
0000
0100
0001
0000
0001
1000
0000
1000
0010
,
0000
0010
1000
0000
1000
0001
0000
1001
0000
0000
0000
0000
MMMM
0000
0000
0000
,
0000
0000
1001
0000
1001
0000
0001
0010
,
0001
0100
0010
1000
0100
0002
0003
0100
,
1000
0010
1000
0001
0010
0002
0003
0100
,
0100
0001
1000
0010
0100
0001
0010
0000
,
0001
1000
0010
0000
1010
0000
0010
1000
,
0010
0010
1000
0001
0100
0020
0030
0100
,
0001
0010
0100
2000
3000
0001
1000
0010
,
0100
0001
1001
0000
0001
0010
0100
0000
,
1000
0010
0100
0000
1001
0000
M11M
0000
,
0000
M11M
0000
M11M
,
0000
M11M
0000
M11M
;
