#TITLE:Tick-Tack;
#SUBTITLE:;
#ARTIST:Illit;
#TITLETRANSLIT:;
#SUBTITLETRANSLIT:;
#ARTISTTRANSLIT:;
#GENRE:;
#CREDIT:;
#MUSIC:Tick-Tack.ogg;
#BANNER:Tick-Tack.png;
#BACKGROUND:Tick-Tack-BG.png;
#CDTITLE:;
#SAMPLESTART:51.752;
#SAMPLELENGTH:15.721;
#SELECTABLE:YES;
#OFFSET:-0.140;
#BPMS:0.000=130.000;
#STOPS:;
#BGCHANGES:8.000=Tick-Tack.avi=1.000=1=0=0=StretchNoLoop==CrossFade==,
99999.000=-nosongbg-=1.000=0=0=0=StretchNoLoop====
;
#FGCHANGES:;

//--------------- dance-single - Alex ----------------
#NOTES:
     dance-single:
     Alex:
     Beginner:
     1:
     0.086574,0.133796,0.039352,0,0,77,72,5,0,0,0,0.086574,0.133796,0.039352,0,0,77,72,5,0,0,0:
0000
0000
0000
0000
,
0000
0000
0000
0000
,
0000
0000
0000
0000
,
0000
0000
0000
0000
,
0100
0000
0000
0000
,
0010
0000
0000
0000
,
0010
0000
0000
0000
,
1000
0000
0000
0000
,
0001
0000
0000
0000
,
0001
0000
0000
0000
,
1000
0000
0000
0000
,
1001
0000
0000
0000
,
0010
0000
0000
0000
,
1000
0000
0000
0000
,
0001
0000
0000
0000
,
1000
0000
0000
0000
,
0100
0000
0000
0000
,
0100
0000
0000
0000
,
1000
0000
0000
0000
,
0001
0000
0001
0000
,
0001
0000
0000
0000
,
1000
0000
0000
0000
,
0010
0000
0000
0000
,
1000
0000
1000
0000
,
1000
0000
0000
0000
,
0001
0000
0000
0000
,
1000
0000
0000
0000
,
1001
0000
0000
0000
,
0010
0000
0000
0000
,
0100
0000
0000
0000
,
0010
0000
0000
0000
,
1000
0000
0000
0000
,
1000
0000
0000
0000
,
0001
0000
0000
0000
,
0001
0000
0000
0000
,
0100
0000
0100
0000
,
0100
0000
0000
0000
,
0001
0000
0000
0000
,
0001
0000
0000
0000
,
1000
0000
0000
0000
,
0010
0000
0000
0000
,
0010
0000
0000
0000
,
1000
0000
0000
0000
,
0100
0000
0100
0000
,
0100
0000
0000
0000
,
0010
0000
0000
0000
,
1000
0000
0000
0000
,
0001
0000
0001
0000
,
0001
0000
0000
0000
,
1000
0000
0000
0000
,
0001
0000
0000
0000
,
1001
0000
0000
0000
,
0010
0000
0000
0000
,
1000
0000
0000
0000
,
1000
0000
0000
0000
,
0001
0000
0000
0000
,
0001
0000
0000
0000
,
0100
0000
0000
0000
,
0100
0000
0000
0000
,
0001
0000
0001
0000
,
0001
0000
0000
0000
,
1000
0000
0000
0000
,
0001
0000
0000
0000
,
1001
0000
0000
0000
,
0010
0000
0000
0000
,
1000
0000
0000
0000
,
0100
0000
0000
0000
,
1000
0000
1000
0000
,
1001
0000
0000
0000
;

//--------------- dance-single - Alex ----------------
#NOTES:
     dance-single:
     Alex:
     Easy:
     3:
     0.192262,0.213287,0.157407,0.188889,0,171,151,20,24,0,0,0.192262,0.213287,0.157407,0.188889,0,171,151,20,24,0,0:
0000
0000
0000
0000
,
0000
0000
0000
0000
,
0000
0000
0000
0000
,
0000
0000
0000
0000
,
0010
0100
0010
0000
,
1000
0001
1000
0000
,
0001
0100
0001
0000
,
0010
0010
0010
0000
,
0001
1000
0001
0000
,
0100
0010
0100
0000
,
0001
1000
0001
0000
,
1000
1000
1000
0000
,
1001
0000
0001
0000
,
1000
0000
0010
0000
,
1000
0000
0001
0000
,
0100
0100
0100
0100
,
0010
0000
0100
0000
,
0001
0000
0010
0000
,
0001
0000
1000
0000
,
0001
0001
0001
0001
,
2002
0000
3003
0000
,
0220
0000
0330
0000
,
2002
0000
3003
0000
,
0001
1000
0001
1000
,
2002
0000
3003
0000
,
0220
0000
0330
0000
,
2002
0000
3003
0000
,
1001
0000
0000
0000
,
0010
0100
0010
0000
,
1000
0001
1000
0000
,
0001
0010
0001
0000
,
1000
1000
1000
0000
,
0001
0100
0001
0000
,
0100
0010
0100
0000
,
0001
1000
0100
0000
,
1000
1000
1000
0000
,
1010
0000
0010
0000
,
0010
0000
1000
0000
,
0001
0000
0100
0000
,
0001
0000
0100
0100
,
1001
0000
0001
0000
,
1000
0000
1000
0000
,
0010
0000
1000
0000
,
0001
0001
1000
1000
,
2002
0000
3003
0000
,
0022
0000
0033
0000
,
0202
0000
0303
0000
,
0100
0100
0100
0100
,
0220
0000
0330
0000
,
2002
0000
3003
0000
,
0220
0000
0330
0000
,
0110
0000
0000
0000
,
0100
0001
0100
0000
,
0001
1000
0001
0000
,
1000
0010
1000
0000
,
0001
0001
0001
0000
,
0100
0001
0100
0000
,
0010
1000
0010
0000
,
1000
0001
1000
0000
,
0010
0010
0010
0000
,
1001
0000
0001
0000
,
1000
0000
0001
0000
,
0100
0000
0010
0000
,
1001
0000
0001
1000
,
0001
0000
1000
0000
,
0001
0000
1000
0000
,
0010
0000
0010
0000
,
1001
0000
0010
0010
;

//--------------- dance-single - Alex ----------------
#NOTES:
     dance-single:
     Alex:
     Medium:
     5:
     0.350793,0.401388,0.299074,0.078704,0,312,274,38,10,0,0,0.350793,0.401388,0.299074,0.078704,0,312,274,38,10,0,0:
0000
0000
0000
0000
,
0000
0000
0000
0000
,
0000
0000
0000
0000
,
0000
0000
0000
0000
,
1000
0000
0010
0000
1000
0010
1000
0000
,
0001
0000
0100
0000
0001
0100
0001
0000
,
0010
0000
0100
0000
1000
0010
1000
0000
,
0001
0100
0010
0100
,
0001
0000
0001
0000
1000
0001
1000
0000
,
0001
0000
0010
0000
0001
0010
0001
0000
,
0100
0000
0010
0000
1000
0100
1000
0000
,
0010
0100
0001
1000
,
1001
0001
0100
0010
,
0100
0001
1000
0200
,
1300
1000
0010
0100
,
0001
0010
0001
2000
,
3001
0100
0010
0100
,
0001
0010
0100
0020
,
0031
0100
0010
1000
,
1010
0100
1001
0001
,
1000
0001
0011
0011
,
0001
0100
0110
0110
,
0010
1000
1001
1001
,
0001
1000
0100
1000
,
1001
0000
0010
0100
,
0101
0000
0010
1000
,
1100
0000
0100
1000
,
2002
3003
1001
1001
,
0001
0000
0100
0000
0010
1000
0010
0000
,
1000
0000
0001
0000
0010
0001
0010
0000
,
0001
0000
0100
0000
0010
0100
0010
0000
,
1000
1000
0001
0001
,
0100
0000
0010
0000
1000
0100
1000
0000
,
0001
0000
0010
0000
0001
0010
0001
0000
,
0100
0000
0010
0000
0100
0010
0100
0000
,
0001
1000
1001
1001
,
0010
0100
0001
0100
,
0010
1000
0200
1300
,
0001
0001
1000
1000
,
0010
0100
1001
1001
,
0001
0100
0010
0100
,
0001
0010
0200
0310
,
0001
0100
0010
1000
,
1001
1001
0110
0110
,
0010
1000
1001
1001
,
0001
0100
0110
0110
,
0010
0010
1010
1010
,
1000
0001
0010
0001
,
1001
0000
0001
0100
,
0110
0000
0010
0100
,
0101
0000
0001
1000
,
2002
3003
0110
0110
,
0010
0000
1000
0000
0001
0010
0001
0000
,
1000
0000
0010
0000
1000
0010
1000
0000
,
0001
0000
0100
0000
0010
0100
0010
0000
,
0100
0100
0001
0001
,
1000
0000
0100
0000
1000
0100
1000
0000
,
0010
0000
1000
0000
0001
0010
0001
0000
,
0100
0000
0100
0000
0001
1000
0001
0000
,
0100
0010
1000
0001
,
1001
0000
0001
0100
0001
0100
0001
0000
,
1000
0000
0010
1000
0010
1000
0010
0000
,
1000
0001
0010
0100
,
1001
0000
0001
1000
,
0010
0000
0100
0001
0100
0001
0100
0000
,
0010
0000
1000
0010
1000
0010
1000
0000
,
0001
0010
0100
1000
,
1001
0000
0000
0001
1000
0001
2000
0000
,
3000
0000
0000
0000
;

//--------------- dance-single - Alex ----------------
#NOTES:
     dance-single:
     Alex:
     Hard:
     8:
     0.462103,0.454907,0.118055,0.094444,0.043287,411,396,15,12,0,0,0.462103,0.454907,0.118055,0.094444,0.043287,411,396,15,12,0,0:
0000
0000
0000
0000
,
0000
0000
0000
0000
,
0000
0000
0000
0000
,
0000
0000
0000
0000
,
0001
1000
0010
1000
0001
0100
0001
0000
,
1000
0100
0010
0100
1000
0001
0100
0000
,
0010
1000
0001
0010
0100
1000
0001
0000
,
1000
1000
0001
0001
1000
0010
0100
0001
,
1000
1000
0100
0100
1000
0010
1000
0000
,
0001
0010
0001
0100
0001
0010
0100
0000
,
0100
1000
0010
0100
0001
1000
0100
0000
,
0010
0001
0100
0010
0100
0100
0001
0001
,
1001
0001
1000
0010
,
0100
0001
0010
0100
1000
0010
0200
0000
,
0310
0010
1000
0001
,
1000
0100
1000
0001
1000
0010
2000
0000
,
3001
0010
0001
0100
,
0010
0010
0100
0100
0002
0000
2003
0000
,
3010
0100
0001
1000
0100
0010
0001
0000
,
0101
0100
1010
1000
,
0001
0000
1000
0100
1000
0100
1000
0000
,
0010
0000
0100
0001
0100
0001
0100
0000
,
0001
0000
0010
0100
1000
0001
0100
0010
,
1000
1010
0100
0101
,
0001
0000
1000
0100
0010
0001
0200
0000
,
0300
0000
0010
1000
0001
0010
0002
0000
,
0003
0000
0100
0001
1000
0100
0010
0001
,
1000
0000
0001
0000
1000
0000
0000
0001
0000
1000
0000
0001
1000
0000
0010
0000
,
0100
0001
0100
0010
0100
0001
1000
0000
,
0100
0010
0001
1000
0010
1000
0001
0000
,
0010
0001
0100
0010
0100
0001
0010
0000
,
0100
0100
1000
1000
0010
1000
0001
0001
,
1000
0010
1000
0001
0100
0001
1000
0000
,
0100
0010
0001
0100
0010
0100
0001
0000
,
1000
0010
0100
0010
1000
0001
0010
0000
,
0001
0000
0100
0000
0010
0000
0000
0100
0000
0001
0000
1000
0010
0000
0010
0000
,
1000
0001
0100
0010
,
1000
0001
0010
0100
2000
0000
3100
0000
,
1000
0010
1000
0001
,
0100
0001
0100
0010
0110
0000
1001
0000
,
0001
1000
0100
1000
,
0001
1000
0001
0100
0002
0000
0103
0000
,
0010
1000
0001
0010
,
0110
0010
1001
0001
,
1000
0000
0001
0100
0001
0100
0001
0000
,
1000
0000
0010
1000
0010
1000
0010
0000
,
1000
0000
0100
1000
0100
1000
0100
0000
,
1010
0100
0101
0001
,
1000
0000
0001
0010
0100
1000
0002
0000
,
0003
0000
1000
0010
1000
0001
0200
0000
,
0300
0000
0010
1000
0001
0010
0100
1000
,
0010
0000
0100
0000
0010
0000
0000
1000
0000
0001
1000
0000
0001
0000
1000
0000
,
0001
0100
0001
1000
0010
1000
0001
0000
,
0010
0100
1000
0001
0100
0010
0100
0000
,
0001
0001
1000
1000
0100
1000
0010
0000
,
1000
0001
0010
0100
1000
0001
0100
0010
,
0010
0100
0001
0010
0100
1000
0001
0000
,
1000
0100
1000
0001
1000
0010
1000
0000
,
0001
0010
0001
0100
0001
0010
0100
0000
,
1000
0000
1000
0000
0001
0000
0000
0100
0000
0001
0000
0100
0001
0000
0100
0000
,
0101
0000
0001
1000
1000
0010
0010
0000
,
1000
0000
0001
0010
0100
1000
0001
0000
,
1001
0000
1000
1000
0010
0100
0100
0000
,
1001
0000
0000
0001
1000
0010
0200
0000
,
0310
0000
1000
0001
0010
0001
1000
0000
,
0001
0000
0100
0001
1000
0010
0100
0000
,
0001
0000
1000
0100
0010
0001
0100
0000
,
0110
0000
0000
0010
1000
0001
0020
0000
,
0030
0000
0000
0000
;

//--------------- dance-single - Alex ----------------
#NOTES:
     dance-single:
     Alex:
     Challenge:
     9:
     0.612764,0.615462,0.511573,0.362037,0.487962,545,480,65,46,0,14,0.612764,0.615462,0.511573,0.362037,0.487962,545,480,65,46,0,14:
0000
0000
0000
0000
,
0000
0000
0000
0000
,
0000
0000
0000
0000
,
0001
0000
1000
0000
0010
1000
0000
0001
0000
0100
0000
0001
1000
0000
0100
0000
,
1100
0000
0100
0000
1000
0010
0000
1000
0000
0001
0000
0100
0001
0000
0100
0000
,
0100
0000
0001
0000
0010
0100
0000
0010
0000
0001
0000
0100
0001
0000
0001
0000
,
0100
0000
0010
0000
1000
0001
0000
1000
0000
0010
0000
1000
0010
0000
0010
0000
,
0100
0000
0001
0000
1000
0100
0000
1000
0000
0001
0000
0100
0010
0000
0100
0000
,
0101
0000
0001
0000
1000
0010
0000
1000
0000
0001
0000
0010
0001
0000
0100
0000
,
0100
0000
0010
0000
1000
0100
0000
0010
0000
0001
0000
1000
0010
0000
0010
0000
,
1000
0000
0001
0000
0010
0001
0000
0001
0000
0100
0000
0010
0100
0000
0100
0000
,
0010
0000
1001
0000
0001
1000
0000
1010
0000
0101
0000
0001
1000
0000
0100
0000
,
1100
1000
0010
1000
0001
0010
0100
1000
,
0001
0100
0010
0100
0001
1000
0020
0030
,
0100
0100
0001
1000
0100
0010
0100
1000
,
0001
0100
0010
0100
0001
0010
0002
0003
,
0100
0100
0001
0001
1000
0010
0100
0001
,
1000
0100
0001
0100
2000
0000
3002
0000
,
0023
0230
2300
3020
,
0231
1320
2031
3012
,
0103
0010
0100
0001
1000
0100
1100
0000
,
0100
1000
0010
0100
0001
1000
1001
0000
,
0001
0010
0001
0100
0010
0100
0001
1000
,
1002
0213
0312
2103
,
3010
0100
0001
0010
0001
1000
2002
0000
,
3003
0000
0010
0100
0001
0010
0022
0000
,
0033
0000
0010
1000
0100
0010
0001
1000
,
1001
0000
0001
0000
1000
0010
0000
0100
0000
0001
0000
1000
0100
0000
1000
0000
,
1010
0000
0010
0000
0100
0001
0000
0100
0000
0100
0000
0001
1000
0000
0010
0000
,
1010
0000
0010
0000
1000
0001
0000
1000
0000
0001
0000
0100
0001
0000
0010
0000
,
0011
0000
0001
0000
0100
0010
0000
0100
0000
0100
0000
0001
1000
0000
0100
0000
,
1000
0000
0010
0000
0100
0001
0000
0010
0000
0001
0000
0100
1000
0000
0100
0000
,
0101
0000
0001
0000
0010
0001
0000
0001
0000
0100
0000
0010
1000
0000
0001
0000
,
1001
0000
0001
0000
1000
0010
0000
0010
0000
1000
0000
0001
0100
0000
0100
0000
,
0101
0000
0001
0000
0010
0100
0000
0010
0000
0001
0000
0100
0001
0000
0001
0000
,
0101
0000
0100
0000
0010
1000
0000
0010
0000
1001
0000
1000
0001
0000
1001
0000
,
0010
0000
0001
0000
1000
0000
0010
0000
1010
0000
0000
0000
0010
0000
0000
0010
,
0100
0000
0100
0001
0000
0001
1000
0000
1002
0000
0000
0000
0103
0000
0000
0000
,
2000
3020
0032
0203
,
2300
3010
0110
1001
,
0001
0010
0001
0100
0101
0000
1000
0000
,
0010
1000
0001
0000
0100
0000
0001
0000
1000
0000
0000
0000
0011
0000
0000
0000
,
0002
0203
2300
3020
,
0231
2310
3210
0312
,
0103
0010
0100
0001
1000
0100
1100
0000
,
0100
1000
0010
1000
0001
0100
0101
0000
,
0001
0010
0100
1000
0001
0100
0010
1000
,
1002
2103
3120
0231
,
0310
0000
1000
0001
0010
0001
2002
0000
,
3003
0000
0001
0100
0010
1000
2200
0000
,
3300
0000
0010
0001
0100
0010
0100
0001
,
1000
0000
0001
0000
0100
0001
0000
0100
0000
0010
0000
1000
0001
0000
0010
0000
,
0011
0000
0001
0000
0100
0001
0000
0100
0000
0100
0000
0001
1000
0000
0010
0000
,
1000
0000
0001
0000
0010
0100
0000
0010
0000
0001
0000
1000
0010
0000
1000
0000
,
0001
0000
0100
0000
0010
0100
0000
0001
0000
0001
0000
1000
0100
0000
1000
0000
,
0010
0000
0010
0000
1000
0001
0000
1000
0000
0010
0000
1000
0010
0000
0100
0000
,
0001
0000
0010
0000
0100
0010
0000
0001
0000
0100
0000
0001
1000
0000
0010
0000
,
0100
0000
0100
0000
0001
1000
0000
0001
0000
1000
0000
0001
0010
0000
0001
0000
,
0100
0000
0100
0000
0001
1000
0000
1000
0000
0010
0000
1000
0100
0000
0010
0000
,
0011
0000
0001
0000
0100
0010
0000
0100
0000
1001
0000
0010
0100
0000
1001
0000
,
0100
0000
0000
0000
0001
1000
0001
1000
0001
0000
0100
0000
0001
0000
0000
0000
,
0101
0000
0000
0000
0001
0100
0000
0100
0010
0000
1000
0000
0010
0000
0000
0000
,
1010
0000
0000
0000
1000
0100
1000
0100
1000
0000
0010
0000
1000
0000
0000
0000
,
1001
0000
0000
0101
0110
1010
2002
3003
,
1001
0000
0000
0000
0010
0100
0010
0100
0010
0000
0100
0000
0001
0000
0000
0000
,
0101
0000
0000
0000
0001
1000
0000
1000
0001
0000
0100
0000
0001
0000
0000
0000
,
0101
0000
0000
0000
0010
0100
0000
0100
0010
0000
1000
0000
0010
0000
0000
0000
,
1010
0000
0000
1010
0101
0011
2002
0000
,
3003
0000
0000
0000
;
