#TITLE:Thunderous;
#SUBTITLE:;
#ARTIST:Stray Kids;
#TITLETRANSLIT:;
#SUBTITLETRANSLIT:;
#ARTISTTRANSLIT:;
#GENRE:;
#CREDIT:;
#BANNER:Thunderous.png;
#BACKGROUND:Thunderous-BG.png;
#LYRICSPATH:;
#CDTITLE:;
#MUSIC:Thunderous.ogg;
#OFFSET:0.112000;
#SAMPLESTART:54.960999;
#SAMPLELENGTH:19.855000;
#SELECTABLE:YES;
#BPMS:0.000000=172.000000
;
#STOPS:
;
#BGCHANGES:18.000=Thunderous.avi=1.000=1=0=0=StretchNoLoop==CrossFade==,
355.000=Thunderous-BG.png=1.000=1=0=1===CrossFade==,
99999=-nosongbg-=1.000=0=0=0 // don't automatically add -songbackground-
;
#KEYSOUNDS:;
#ATTACKS:;

//---------------dance-single - Alex----------------
#NOTES:
     dance-single:
     Alex:
     Beginner:
     1:
     0.076351,0.176490,0.071793,0.000000,0.000000,67.000000,58.000000,9.000000,0.000000,0.000000,0.000000,0.076351,0.176490,0.071793,0.000000,0.000000,67.000000,58.000000,9.000000,0.000000,0.000000,0.000000:
0000
0000
0000
0000
,
0000
0000
0000
0000
,
0000
0000
0000
0000
,
0000
0000
0000
0000
,
0000
0000
0000
0000
,
0000
0000
0000
0000
,
0000
0000
0000
0000
,
0000
0000
0000
0000
,
0000
0000
1001
0000
,
0000
0000
1000
0000
,
0000
0000
0001
0000
,
0000
0000
1000
0000
,
0000
0000
0010
0000
,
0000
0000
0000
0000
,
0000
0000
0100
0000
,
0000
0000
0000
0000
,
0000
0000
0001
0000
,
0000
0000
0000
0000
,
0000
0000
0001
0000
,
0000
0000
0000
0000
,
0000
0000
1000
0000
,
0000
0000
1000
0000
,
0000
0000
1000
0000
,
0000
0000
0010
0000
,
0000
0000
1001
0000
,
0000
0000
0000
0000
,
0000
0000
1000
0000
,
0000
0000
0000
0000
,
0000
0000
0001
0000
,
0000
0000
0000
0000
,
0000
0000
0100
0000
,
0000
0000
0000
0000
,
0000
0000
0010
0000
,
0000
0000
0010
0000
,
0000
0000
0010
0000
,
0000
0000
0000
0000
,
0000
0000
1000
0000
,
0000
0000
0001
0000
,
0000
0000
1000
0000
,
0000
0000
0001
0000
,
0000
0000
1001
0000
,
0000
0000
0000
0000
,
0000
0000
1001
0000
,
0000
0000
0100
0000
,
0000
0000
0110
0000
,
0000
0000
0000
0000
,
0000
0000
0110
0000
,
0000
0000
0100
0000
,
0000
0000
0100
0000
,
0000
0000
0000
0000
,
0000
0000
0001
0000
,
0000
0000
0000
0000
,
0000
0000
1000
0000
,
0000
0000
0000
0000
,
0000
0000
0010
0000
,
0000
0000
0100
0000
,
0000
0000
0010
0000
,
0000
0000
0000
0000
,
0000
0000
1000
0000
,
0000
0000
0000
0000
,
0000
0000
0001
0000
,
0000
0000
0000
0000
,
0000
0000
1000
0000
,
0000
0000
0000
0000
,
0000
0000
0001
0000
,
0000
0000
1000
0000
,
0000
0000
0001
0000
,
0000
0000
1000
0000
,
0000
0000
0010
0000
,
0000
0000
0100
0000
,
0000
0000
0010
0000
,
0000
0000
0010
0000
,
0000
0000
1001
0000
,
0000
0000
0000
0000
,
0000
0000
1001
0000
,
0000
0000
0000
0000
,
0000
0000
0110
0000
,
0000
0000
0010
0000
,
0000
0000
0010
0000
,
0000
0000
0010
0000
,
0000
0000
1000
0000
,
0000
0000
0000
0000
,
0000
0000
0001
0000
,
0000
0000
0000
0000
,
0000
0000
1000
0000
,
0000
0000
0000
0000
,
0000
0000
0001
0000
,
0000
0000
1000
0000
,
0000
0000
0001
0000
;

//---------------dance-single - Alex----------------
#NOTES:
     dance-single:
     Alex:
     Easy:
     2:
     0.157260,0.247086,0.119654,0.000000,0.000000,138.000000,123.000000,15.000000,0.000000,0.000000,0.000000,0.157260,0.247086,0.119654,0.000000,0.000000,138.000000,123.000000,15.000000,0.000000,0.000000,0.000000:
0000
0000
0000
0000
,
0000
0000
0000
0000
,
0000
0000
0000
0000
,
0000
0000
0000
0000
,
0000
0000
0000
0000
,
0000
0000
0000
0000
,
0000
0000
1000
0000
,
0000
0000
0001
0000
,
0000
0000
1000
0000
,
0000
0000
0010
0000
,
0000
0000
0100
0000
,
0100
0000
0100
0000
,
0000
0000
0010
0000
,
0000
0000
1000
0000
,
0000
0000
0001
0000
,
1000
0000
0001
0000
,
0000
0000
1001
0000
,
0000
0000
0010
0000
,
0000
0000
0100
0000
,
0000
0000
0001
0000
,
1000
0000
0001
0000
,
0000
0000
1000
0000
,
1000
0000
0010
0010
,
0000
0000
0100
0100
,
0000
0000
1001
0000
,
0000
0000
0010
0000
,
0100
0000
0001
0000
,
1000
0000
1000
0000
,
0001
0000
1001
0000
,
0000
0000
0001
0000
,
0000
0000
1000
0000
,
1000
0000
0010
0000
,
0100
0000
0101
0000
,
0000
0000
0110
0000
,
0000
0000
1010
0000
,
0000
0000
0010
1000
,
0010
0000
1000
0000
,
1000
0000
0001
0000
,
0001
0000
0100
0000
,
0100
0000
0010
0010
,
0010
0000
1001
0000
,
0000
0000
0010
0000
,
0000
0000
0100
0000
,
0100
0000
0001
0001
,
0001
0000
1001
0000
,
0000
0000
1000
0000
,
0000
0000
0010
0010
,
0000
0000
1000
0000
,
1000
0000
0001
0000
,
0000
0000
1000
0000
,
0000
0000
0010
0000
,
0000
0000
0100
0000
,
0100
0000
0100
0000
,
0000
0000
0001
0000
,
0000
0000
0001
0000
,
0000
0000
1000
0000
,
0001
0000
1001
0000
,
0000
0000
0100
0000
,
0000
0000
0001
0000
,
0000
0000
1000
0000
,
0000
0000
0001
0000
,
0000
0000
0001
0000
,
0000
0000
1000
0000
,
0000
0000
0010
0000
,
0000
0000
0100
0000
,
0100
0000
0010
0000
,
0010
0000
1000
0000
,
0001
0000
1000
0000
,
0001
0000
1001
0000
,
0000
0000
0110
0000
,
0000
0000
1000
0000
,
1000
0000
0010
0010
,
0010
0000
1001
0000
,
0000
0000
0100
0000
,
0000
0000
1001
0000
,
0000
0000
0010
0010
,
0010
0000
1001
0000
,
1000
0000
0010
0000
,
1000
0000
0001
0001
,
0000
0000
0100
0000
,
0100
0000
0010
0000
,
0100
0000
0001
0000
,
0000
0000
1000
0000
,
0100
0000
1000
0000
,
0000
0000
0001
0000
,
0000
0000
1000
0000
,
0000
0000
0010
0000
,
0000
0000
0100
0000
,
0000
0000
1001
0000
;

//---------------dance-single - Alex----------------
#NOTES:
     dance-single:
     Alex:
     Medium:
     5:
     0.288310,0.388279,0.295148,0.000000,0.000000,253.000000,216.000000,37.000000,0.000000,0.000000,0.000000,0.288310,0.388279,0.295148,0.000000,0.000000,253.000000,216.000000,37.000000,0.000000,0.000000,0.000000:
0000
0000
0000
0000
,
0000
0000
0000
0000
,
0000
0000
0000
0000
,
0000
0000
0000
0000
,
0000
0000
0000
0000
,
0000
0000
0000
0000
,
0000
0000
0010
0000
,
0100
0000
0010
0100
,
0010
0000
1000
0001
,
0010
0000
0001
1000
,
0100
0000
0010
0001
,
0100
0010
0100
0000
,
1001
0000
0010
0000
,
1000
0000
0001
0001
,
1000
0000
0100
0000
,
0010
0000
0001
0100
,
0010
0100
0001
0000
,
1000
0000
0010
1000
,
0010
0000
0100
0000
,
0001
0000
1000
0100
,
1000
0100
1000
0000
,
1000
0000
0010
0000
,
0010
0000
1001
1001
,
0000
0000
0110
0110
,
0000
0000
0010
0000
,
0000
0000
0100
0000
,
0010
0000
1000
0001
,
0010
0001
1000
0010
,
0010
0000
1001
0000
,
0000
0001
0100
0000
,
0000
0001
1000
0010
,
0100
0001
1000
0100
,
0010
0001
1000
0000
,
1001
0000
0001
0000
,
0101
0000
0100
0000
,
0110
0000
0010
0010
,
0010
0000
1000
0000
,
0001
0000
1000
0000
,
0010
0000
1000
0001
,
1000
0001
1001
1001
,
1001
0000
0010
0100
,
0001
0000
1000
0100
,
0010
0000
0001
0100
,
0001
0000
1001
1001
,
1001
0000
0001
0010
,
0001
0000
0100
0001
,
0100
0010
0110
0110
,
0000
0000
1001
0000
,
1001
0000
0010
0100
,
0001
0000
1000
0100
,
1000
0000
0001
0100
,
0001
0000
0010
0001
,
0010
0001
1000
0000
,
0010
0000
0100
0000
,
0001
0000
1000
1000
,
0001
0001
1000
0010
,
0100
0001
1001
0000
,
0000
0000
1001
0000
,
0000
0000
0110
0000
,
0000
0000
0110
0000
,
0000
0000
0101
0000
,
0000
0000
1010
0000
,
0000
0000
1100
0000
,
0100
0000
0011
0000
,
0100
0010
0100
0000
,
0001
1000
0010
0000
,
1000
0001
0100
0001
,
1000
0010
0010
0000
,
0100
0001
1001
0000
,
0010
0000
1001
0000
,
0100
0000
1001
0000
,
1001
0000
0010
0010
,
0010
0000
0100
0100
,
0001
0000
1000
1000
,
1000
0000
0010
0010
,
0100
0000
0101
0101
,
0101
0000
0001
0010
,
0001
0000
1000
0010
,
1000
0010
0100
0100
,
0000
0000
1001
0000
,
1001
0000
0001
0100
,
0001
0000
0010
0100
,
1000
0000
0010
0100
,
0001
0000
1000
0010
,
1000
0001
0010
0000
,
0001
0000
1000
0000
,
1000
0000
0001
0000
,
0100
0000
0010
0010
,
0100
0000
1001
0000
;

//---------------dance-single - Alex----------------
#NOTES:
     dance-single:
     Alex:
     Hard:
     7:
     0.496851,0.564769,0.271217,0.000000,0.366940,436.000000,402.000000,34.000000,0.000000,0.000000,0.000000,0.496851,0.564769,0.271217,0.000000,0.366940,436.000000,402.000000,34.000000,0.000000,0.000000,0.000000:
// measure 0
0000
0000
0000
0000
,  // measure 1
0000
0000
0000
0000
,  // measure 2
0000
0000
0000
0000
,  // measure 3
0000
0000
0000
0000
,  // measure 4
0000
0000
0000
0000
,  // measure 5
0000
0000
0000
0000
,  // measure 6
0000
0000
0001
0000
,  // measure 7
1000
0000
0000
0000
0010
0100
0001
0100
,  // measure 8
0010
1000
0100
0000
0010
0001
1000
0010
,  // measure 9
0000
0000
0100
0001
0100
0001
0010
0001
,  // measure 10
0000
0000
1000
0010
1000
0001
1000
0010
,  // measure 11
1000
0001
0010
0100
1000
0001
0100
0010
,  // measure 12
0000
1001
0000
0010
,  // measure 13
0100
0000
0000
0001
0000
1000
0010
0000
0000
0100
0000
0001
,  // measure 14
0100
0000
0100
0001
0000
0000
1000
0000
0000
0000
0000
0000
,  // measure 15
0010
0000
0000
1000
0000
0001
0010
0000
0000
0001
0000
0100
,  // measure 16
0010
0000
0010
0100
0000
0000
1001
0000
0000
0001
0000
0000
,  // measure 17
0100
0000
0010
0100
0000
0000
0001
0000
0000
1000
0000
0000
,  // measure 18
0100
0000
1000
0100
0000
0100
1000
0000
0000
0010
0000
0000
,  // measure 19
1000
0000
0001
0100
0000
0000
0001
0000
0000
0010
0000
0001
,  // measure 20
0010
0000
0010
0001
0000
0000
0101
0000
0000
0001
0000
0000
,  // measure 21
0100
0000
0010
0100
0000
0000
0001
0000
1000
0001
0000
0001
,  // measure 22
1000
0010
1001
1001
,  // measure 23
0000
0000
0110
0110
,  // measure 24
0000
0000
1001
0000
,  // measure 25
0000
0000
0001
0000
0100
0000
0001
0000
1000
0000
0010
0000
,  // measure 26
0100
0000
0001
0000
1000
0000
0100
0000
0000
0010
0000
0000
,  // measure 27
0001
0000
0100
0010
0000
0010
0000
1000
,  // measure 28
0001
0100
0010
0000
,  // measure 29
0000
0000
0000
0100
0000
0001
0100
0000
0000
0000
0000
0000
,  // measure 30
0000
0000
0010
0000
1000
0000
0010
0000
0100
0000
0001
0000
,  // measure 31
1000
0000
0100
0000
0010
0000
0001
0000
1000
0000
0010
0000
,  // measure 32
0100
0001
0010
0011
,  // measure 33
0001
1000
0010
1010
,  // measure 34
0010
0100
0001
0101
,  // measure 35
0001
1000
0100
1100
,  // measure 36
1000
0010
0000
0010
1000
0000
0001
0000
,  // measure 37
0100
0001
0010
0001
0000
0100
0000
0100
,  // measure 38
0010
1000
0001
0010
0100
0000
1000
0000
,  // measure 39
0010
0100
1001
1001
,  // measure 40
1001
0000
0000
0001
0000
1000
0010
0000
0000
0100
0000
0000
,  // measure 41
0001
0000
0010
0001
0000
0000
1000
0000
0000
0010
0000
0000
,  // measure 42
0100
0000
0001
1000
0000
0000
1100
0000
0000
0010
0000
0000
,  // measure 43
0001
0000
0100
0001
0000
0000
0101
0000
0000
0101
0000
0000
,  // measure 44
0101
0000
0000
0010
0000
0100
0010
0000
0000
1000
0000
0000
,  // measure 45
0001
0000
1000
0001
0000
0000
1000
0000
0000
0010
0000
0000
,  // measure 46
0100
0000
0001
0010
0000
0010
0001
0000
0000
0101
0000
0000
,  // measure 47
0000
0000
0000
0000
0000
0000
0100
0000
0100
0000
0100
0000
,  // measure 48
0100
0000
0100
0000
0100
0000
0100
0000
0000
0010
0000
1000
,  // measure 49
0010
0000
0010
1000
0000
0000
0001
0000
0000
0100
0000
0000
,  // measure 50
0001
0000
0010
0000
0100
0000
1000
0000
0000
0001
0000
1000
,  // measure 51
0001
0000
0001
0100
0000
0100
0010
0000
0000
1000
0000
0000
,  // measure 52
0100
0000
0010
0000
0001
0000
0100
0000
0000
0010
0000
1000
,  // measure 53
0010
0000
0010
1000
0000
1000
0001
0000
0000
0100
0000
0000
,  // measure 54
1000
0000
0000
0100
0000
0001
0010
0000
0000
0001
0000
0000
,  // measure 55
1000
0000
0000
1010
0000
0010
1000
0000
1000
0001
0000
0001
,  // measure 56
0100
0010
1001
0000
,  // measure 57
0001
0100
1000
0100
,  // measure 58
0001
0010
1000
0010
,  // measure 59
0001
1000
0100
0001
,  // measure 60
1000
1000
1001
0100
,  // measure 61
1000
0010
0100
0100
,  // measure 62
0110
0010
1000
0001
,  // measure 63
0010
0001
0101
0100
,  // measure 64
0010
0000
0010
1000
0000
1000
0001
0000
0000
0100
0000
0001
,  // measure 65
0010
0000
0010
0001
0000
0001
0100
0000
0000
0010
0000
0000
,  // measure 66
1000
0000
0000
0100
0000
0100
1000
0000
0000
0010
0000
0000
,  // measure 67
0100
0000
0000
0001
0000
0001
1000
0000
0000
0010
0000
0000
,  // measure 68
0100
0000
0000
0001
0000
0000
0001
0000
1001
0000
0000
0000
,  // measure 69
1000
0000
1010
0000
0000
0000
0010
0000
0110
0000
0000
0000
,  // measure 70
0100
0000
0101
0000
0000
0000
0001
0000
0000
0010
0000
0000
,  // measure 71
0100
1000
1001
1001
,  // measure 72
1001
0000
0000
0010
0000
0100
0010
0000
0000
0100
0000
0000
,  // measure 73
0001
0000
1000
0001
0000
0000
1000
0000
0000
1000
0000
0000
,  // measure 74
0001
0000
0100
0001
0000
0000
0100
0000
0000
0010
0000
0000
,  // measure 75
1000
0000
0001
0010
0000
0000
0001
0000
0000
0001
0000
0000
,  // measure 76
0001
0000
0000
1000
0000
0010
1000
0000
0000
0001
0000
0000
,  // measure 77
0100
0000
0001
0100
0000
0000
0010
0000
0000
1000
0000
0000
,  // measure 78
0100
0000
0010
0001
0000
0001
0100
0000
0000
0110
0000
0000
,  // measure 79
0000
0000
0000
0000
0000
0000
0010
0000
0010
0000
0010
0000
,  // measure 80
0010
0000
0010
0000
0010
0000
0010
0000
0000
0100
0000
0001
,  // measure 81
0100
0001
1000
0010
,  // measure 82
1000
0000
0010
0000
0100
0000
0001
0000
0000
1000
0000
0100
,  // measure 83
1000
0000
0000
0010
0000
0100
0001
0000
0000
1000
0000
0010
,  // measure 84
1000
0001
0010
0100
,  // measure 85
0010
0000
0001
0010
0000
0000
0001
0000
0000
1000
0000
0000
,  // measure 86
0010
0000
0100
0001
0000
0001
0100
0000
0000
0010
0000
0000
,  // measure 87
1000
0000
0000
0100
0000
0000
0010
0000
0001
1000
0000
1000
,  // measure 88
0010
0100
1001
0000
;
