#TITLE:Thunder;
#SUBTITLE:;
#ARTIST:Seventeen;
#TITLETRANSLIT:;
#SUBTITLETRANSLIT:;
#ARTISTTRANSLIT:;
#GENRE:;
#CREDIT:;
#MUSIC:Thunder.ogg;
#BANNER:Thunder.png;
#BACKGROUND:Thunder-BG.png;
#CDTITLE:;
#SAMPLESTART:48.012;
#SAMPLELENGTH:19.577;
#SELECTABLE:YES;
#OFFSET:-0.070;
#BPMS:0.000=130.000;
#STOPS:;
#BGCHANGES:;
#FGCHANGES:;

//--------------- dance-single - Alex ----------------
#NOTES:
     dance-single:
     Alex:
     Beginner:
     1:
     0,0,0,0,0:
0000
0000
0000
0000
,
0000
0000
0000
0000
,
0000
0000
0000
0000
,
0000
0000
0000
0000
,
1001
0000
0000
0000
,
0001
0000
0000
0000
,
1000
0000
0000
0000
,
0001
0000
0000
0000
,
0100
0000
0000
0000
,
0001
0000
0000
0000
,
1000
0000
0000
0000
,
0010
0000
0000
0000
,
1000
0000
0000
0000
,
1000
0000
1000
0000
,
1000
0000
0000
0000
,
0001
0000
0001
0000
,
0001
0000
0000
0000
,
1000
0000
0000
0000
,
0010
0000
0000
0000
,
0010
0000
0000
0000
,
1001
0000
0000
0000
,
0100
0000
0000
0000
,
0010
0000
0010
0000
,
0010
0000
0000
0000
,
0100
0000
0000
0000
,
0001
0000
0000
0000
,
0000
1000
0000
1000
,
0000
1000
0000
0000
,
1001
0000
0000
0000
,
0010
0000
0010
0000
,
0010
0000
0000
0000
,
0100
0000
0100
0000
,
0100
0000
0000
0000
,
0001
0000
0001
0000
,
0001
0000
0000
0000
,
1001
0000
0000
0000
,
0001
0000
0000
0000
,
1000
0000
0000
0000
,
0001
0000
0000
0000
,
0100
0000
0100
0000
,
0100
0000
0000
0000
,
0010
0000
0000
0000
,
0010
0000
0000
0000
,
1000
0000
0001
0000
,
1000
0000
0000
0000
,
0000
0000
0000
0000
,
0000
0000
0000
0000
,
0000
0000
0000
0000
,
0110
0000
0000
0000
,
0010
0000
0000
0000
,
0100
0000
0000
0000
,
0001
0000
0000
0000
,
1000
0000
1000
0000
,
1000
0000
0000
0000
,
0001
0000
0001
0000
,
0001
0000
0000
0000
,
0010
0000
0000
0000
,
0001
0000
0000
0000
,
0100
0000
0000
0000
,
0100
0000
0000
0000
,
0010
0000
0000
0000
,
1000
0000
0000
0000
,
0000
0001
0000
0001
,
0000
0001
0000
0000
,
1001
0000
0000
0000
,
0010
0000
0010
0000
,
0010
0000
0000
0000
,
1000
0000
1000
0000
,
1000
0000
0000
0000
,
0001
0000
0001
0000
,
0001
0000
0000
0000
,
1001
0000
0000
0000
,
0010
0000
0000
0000
,
0100
0000
0000
0000
,
0001
0000
0000
0000
,
1000
0000
0000
0000
,
1000
0000
0000
0000
,
0010
0000
0000
0000
,
0010
0000
0000
0000
,
0100
0000
0100
0000
,
0100
0000
0000
0000
,
0001
0000
0000
0000
,
0010
0000
0000
0000
,
0001
0000
0001
0000
,
0001
0000
0000
0000
,
1000
0000
0000
0000
,
0010
0000
0000
0000
,
0100
0000
0000
1001
;

//--------------- dance-single - Alex ----------------
#NOTES:
     dance-single:
     Alex:
     Easy:
     4:
     0,0,0,0,0:
0000
0000
0000
0000
,
0000
0000
0000
0000
,
0000
0000
0000
0000
,
0000
0000
0000
0010
,
0100
0000
0000
0001
,
1000
0000
0000
0001
,
0100
0001
1000
0010
,
0200
0000
0000
0300
0000
0000
0001
0000
,
1000
0000
0000
0001
,
0010
0000
0000
0001
,
0200
0000
0000
0310
0000
0000
0000
0000
,
2000
0000
0000
3010
0000
0000
0000
0000
,
0010
0000
1000
0010
,
1000
0000
0001
0010
,
0001
0000
0100
0001
,
0100
0000
0010
1000
,
0001
0001
1000
1000
,
0010
0010
0100
0000
,
0001
0001
0010
0010
,
0001
0001
1000
0010
,
2020
0000
0000
3030
0000
0000
0100
0000
,
2002
0000
0000
3003
0000
0000
0001
0000
,
1000
0001
1000
0010
,
0220
0000
0000
0330
0000
0000
0100
0000
,
0100
0000
0000
0010
,
0010
0000
0000
0000
,
1000
1000
0001
0001
,
1000
0000
2002
0000
0000
3003
0000
0000
,
0001
0000
1000
0000
,
0001
1000
0001
0100
,
0010
0000
0010
0000
,
1000
0100
1000
0100
,
1000
0000
0001
0000
,
1000
1000
0001
0001
,
0100
0000
0010
0000
,
2002
0000
3003
0000
,
0001
1000
0001
1000
,
0001
0000
1000
0000
,
0010
0100
0010
0100
,
0010
0000
0110
0000
,
1000
1000
0100
0100
,
1000
0000
0001
0000
,
0100
0100
0010
0010
,
1000
0010
1000
0010
,
1001
0000
0000
0000
,
0000
0000
0100
0100
,
0100
0000
0000
0000
,
0000
0000
0000
0000
,
0010
0000
0100
0000
,
0001
0000
1000
0100
,
1000
0000
0001
0000
,
1000
0000
0010
0100
,
0010
0010
0100
0100
,
0001
1000
0001
0000
,
1000
0100
1000
0100
,
1000
0001
1000
0001
,
2002
0000
0000
3003
0000
0000
0010
0000
,
0220
0000
0000
0330
0000
0000
0100
0000
,
0100
0001
0001
1000
,
2200
0000
0000
3300
0000
0000
0010
0000
,
0010
0000
0000
0100
,
0100
0000
0000
0000
,
1000
0001
1000
0001
,
0100
0000
0220
0000
0000
0330
0000
0000
,
0100
0000
0100
0000
,
0001
0001
1000
0010
,
1000
0000
0001
0000
,
1000
0100
0010
0100
,
1000
0000
0001
0000
,
0100
0100
0001
0001
,
1000
0010
0100
0001
,
2002
0000
3003
0000
,
0001
1000
0001
1000
,
0010
0000
0110
0000
,
0100
0100
0001
0001
,
0010
0000
1001
0000
,
1000
0001
1000
0010
,
0100
0000
1001
0000
,
0001
0001
1000
1000
,
0010
0100
2002
3003
,
0001
0000
1000
0000
,
0001
0000
1000
0100
,
1000
0000
0001
0000
,
0100
0100
0010
0010
,
1000
0000
0001
0000
,
0010
0001
0010
0000
,
0001
0001
1000
1000
,
0001
0100
0010
2000
,
3000
0000
0000
0000
;

//--------------- dance-single - Alex ----------------
#NOTES:
     dance-single:
     Alex:
     Medium:
     6:
     0,0,0,0,0:
0000
0000
0000
0000
,
0000
0000
0000
0000
,
0000
0000
0000
0000
,
0000
0000
0000
0000
0000
0001
1000
0001
,
1000
0000
0010
0000
0100
0000
0001
0010
,
0001
0000
0100
0000
0010
0000
1000
0100
,
0010
0001
0100
0010
,
0010
0000
1000
0000
0001
0000
1000
0100
,
1000
0000
0001
0000
0100
0000
0010
0100
,
0010
0000
0100
0000
0001
0000
0010
0100
,
2000
0000
0000
3010
0000
0000
0100
0000
,
0002
0000
0000
0013
0000
0000
0000
0000
,
0001
0000
1000
0000
0001
0100
0001
0000
,
0100
0100
0010
0010
,
1000
0000
0001
0000
1000
0100
1000
0000
,
0001
0100
0010
1000
,
0001
0010
0001
0000
0001
1000
0001
0000
,
1000
0010
1000
0000
1001
0000
0000
0000
,
0001
0100
0001
0000
0100
0010
0100
0000
,
0010
1000
0010
0000
1000
0000
0100
0000
,
2200
3300
0000
0001
,
0202
0303
0000
0010
,
1000
0001
0100
0010
,
0200
0000
0000
0300
0000
0001
0010
0001
,
0010
0002
0000
0003
0000
1000
0010
1000
,
0010
2000
0000
3000
0000
0000
0000
0000
,
0010
1000
0001
0100
,
0010
0100
0220
0330
,
1001
0000
1001
0000
,
0001
1000
0001
1000
0001
1000
0001
0000
,
0110
0000
0110
0000
,
0100
0010
0100
0010
0100
0010
0100
0000
,
1001
0000
1001
0000
,
0001
1000
0001
1000
0001
1000
0001
1000
,
0001
1000
0010
0100
,
0001
0010
0200
0300
,
1000
0010
1000
0001
,
0100
0010
0100
0010
0200
0000
0300
0000
,
0001
0010
0100
0010
,
0001
1000
0001
1000
0002
0000
0003
0000
,
1000
0010
1000
1000
,
0001
1000
0001
1000
0002
0000
0003
0000
,
0100
0100
0001
0010
,
0100
1000
0100
1000
0100
1000
0200
0000
,
0300
0000
0000
0000
,
0000
0000
0000
0000
0001
1000
0001
1000
,
0001
0000
0000
0000
,
0000
0000
0000
0000
,
1000
0000
0010
0000
1000
0010
1000
0000
,
0001
0010
0100
1000
,
0001
0000
0100
0000
0010
0100
0010
0000
,
0100
0001
1000
0100
,
0010
0001
0010
0000
0001
0100
0001
0000
,
1000
0010
1000
0000
1001
0000
0000
0000
,
0001
0100
0001
0000
0010
0100
0010
0000
,
0001
0100
0001
0000
1000
0000
0010
0000
,
2020
0000
0000
3030
0000
0000
0100
0000
,
2002
0000
0000
3003
0000
0000
0001
0000
,
1000
0010
0100
0001
,
0022
0000
0000
0033
0000
0001
0100
0001
,
0100
0020
0000
0030
0000
0100
0001
1000
,
0001
2000
0000
3000
0000
0000
0000
0000
,
0001
1000
0010
0100
,
0001
1000
2002
3003
,
1001
0000
1001
0000
,
0001
1000
0001
1000
0001
1000
0001
0000
,
0110
0000
0110
0000
,
0100
0010
0100
0010
0100
0010
0100
0000
,
0110
0000
0110
0000
,
1000
0001
1000
0001
1000
0001
1000
0001
,
1000
0001
0100
0010
,
1000
0001
2000
3000
,
0001
0100
0010
0100
,
0001
1000
0001
1000
0002
0000
0003
0000
,
1000
0010
0100
0001
,
1000
0100
1000
0100
2000
0000
3000
0000
,
0001
0100
0001
0100
,
0010
0100
0010
0100
0020
0000
0030
0000
,
0100
0001
1000
0001
,
1000
0010
1000
0010
1000
0010
1000
0000
,
1010
0000
0101
0000
,
1010
0000
0010
0100
,
0110
0000
1001
0000
,
0001
1000
0001
0000
1000
0001
1000
0001
,
1000
0000
1001
0000
,
0110
0000
0110
0000
,
0010
0100
0001
1000
,
0100
0010
0001
1001
;

//--------------- dance-single - Alex ----------------
#NOTES:
     dance-single:
     Alex:
     Hard:
     7:
     0,0,0,0,0:
0000
0000
0000
0000
,
0000
0000
0000
0000
,
0000
0000
0000
0000
,
0000
0000
0000
0000
0000
0001
0100
0010
,
2000
0000
3000
0000
0000
0001
1000
0100
,
0020
0000
0030
0000
0000
0001
1000
0010
,
0100
0001
1000
0100
0010
0001
0100
0010
,
2000
0000
3000
0000
0000
0001
1000
0001
,
0200
0000
0000
0300
0000
0010
1000
0001
,
2000
0000
0000
3000
0000
0001
0100
0010
,
0200
0000
0300
1001
0000
0001
1000
0010
,
0200
0000
0300
1001
0000
0000
0000
0000
,
0000
0001
0000
1000
0010
0100
0001
0020
,
0000
0030
0000
0001
0100
0010
1000
0100
,
0020
0000
0030
0001
1000
0010
1000
0002
,
0000
0003
0000
0100
0001
0100
0010
1000
,
0100
1000
0010
0000
0100
0001
1000
0000
,
0010
1000
0001
0100
0020
0000
0030
0000
,
0100
0001
0100
0000
0010
1000
0010
0000
,
1000
0001
1000
0000
0001
1000
0100
0010
,
0002
0000
0003
0000
0000
0100
0010
1000
,
0002
0000
0003
0000
0000
0000
0010
0100
,
1000
0000
0001
0010
0100
0000
1000
0010
,
0200
0000
0300
0000
0000
0001
1000
0010
,
1000
0002
0000
0003
0000
0001
0100
0010
,
1000
0200
0000
0300
0000
0000
0000
0000
,
1000
0010
0000
0010
1000
0001
0100
0010
,
2000
3002
0203
0320
,
0130
0000
0000
0010
0100
0000
0000
0001
,
0010
0100
0010
0001
0100
0010
1000
0001
,
1000
0000
0000
0001
1000
0000
0000
0010
,
1000
0001
0100
0010
1000
0001
0010
0001
,
1000
0000
0000
0010
1000
0000
0000
0001
,
0010
0100
0010
0001
0100
0010
0100
0001
,
1000
0001
0100
0010
,
1010
0101
2002
3003
,
0001
0010
0100
1000
,
0001
0100
0010
1000
0200
0000
0300
0000
,
1000
0010
1000
0001
,
1000
0010
1000
0010
1000
0001
1000
0000
,
0001
0100
0010
0100
,
0001
0010
0100
1000
0002
0000
0003
0000
,
0001
1000
0010
0100
,
0001
0010
0100
1000
0010
0100
0001
0000
,
M00M
0000
M00M
0000
,
M00M
0000
0000
0000
0010
0100
0010
0100
,
M01M
0000
M00M
0000
,
M00M
0000
M00M
0000
,
0000
0001
0000
0100
0010
0100
0001
2000
,
0000
3000
0000
0001
1000
0100
0010
0001
,
0200
0000
0300
0010
1000
0001
0100
0020
,
0000
0030
0000
0100
0001
0100
0010
1000
,
0001
1000
0001
0000
1000
0010
1000
0000
,
0001
0010
0001
0100
0020
0000
0030
0000
,
0100
0001
0100
0000
0010
1000
0010
0000
,
1000
0100
1000
0000
0001
0100
0010
1000
,
0002
0000
0003
0000
0000
0001
0100
0010
,
0200
0000
0300
0000
0000
0000
0001
1000
,
0010
0000
1000
0001
1000
0000
0001
0100
,
0002
0000
0003
0000
0000
0010
0100
1000
,
0001
0200
0000
0300
0000
0010
1000
0001
,
1000
0020
0000
0030
0000
0000
0000
0000
,
0100
0010
0000
0010
1000
0001
0010
0100
,
2000
3020
0230
0302
,
1003
0000
0000
0001
1000
0000
0000
0001
,
0100
0001
0100
0010
0100
0001
0100
0001
,
1000
0000
0000
0001
0010
0000
0000
0001
,
1000
0010
0100
0001
1000
0100
0010
0001
,
0100
0000
0000
0010
0100
0000
0000
0001
,
0010
0100
0010
0001
0100
0010
0100
0001
,
1000
0010
0100
0001
,
0011
1100
2002
3003
,
0001
0100
0010
1000
,
0001
0010
0100
1000
0002
0000
0003
0000
,
1000
0010
1000
0001
,
1000
0100
0010
0100
2000
0000
3000
0000
,
0001
1000
0001
0100
,
0010
1000
0001
0100
0020
0000
0030
0000
,
0100
0001
0010
0100
,
1000
0001
1000
0001
0100
0001
1000
0000
,
1001
0000
1001
0000
,
0110
0000
0000
0000
0010
0100
0001
1000
,
0010
0000
1010
0000
,
0010
1000
0001
0000
0001
1000
0010
0100
,
0101
0000
0101
0000
,
1010
0000
1010
0000
,
0001
1000
0000
1000
0001
0100
0001
1000
,
0020
0230
0302
2003
,
3000
0000
0000
0000
;

//--------------- dance-single - Alex ----------------
#NOTES:
     dance-single:
     Alex:
     Challenge:
     9:
     0,0,0,0,0:
0000
0000
0000
0000
,
0000
0000
0000
0000
,
0000
0000
0000
0000
,
0000
0000
0000
0000
0000
0000
0000
0000
0001
1000
0001
1000
0001
0000
0100
0000
,
0110
0000
0010
1000
0100
0010
0001
1000
,
1001
0000
0001
0100
0010
0100
0001
0010
,
0100
0100
1000
1000
0010
0100
0001
1000
,
0020
0030
1000
0001
0100
0010
1000
0001
,
1001
0000
0001
0010
0000
0010
0001
0100
,
0110
0000
0010
1000
0000
1000
0010
0100
,
0202
0000
M0M0
0000
0303
0000
1M1M
0000
0000
0000
0010
1000
0010
0000
1000
0001
,
2000
0MM0
3000
1MM1
0000
0000
0110
0000
,
0010
0000
0100
0000
0000
0000
0100
0000
0001
0100
0001
0000
1000
0000
0020
0000
,
0030
0100
0001
1000
0100
0010
0001
1000
,
1010
0000
0000
0000
0010
0000
1000
0000
0001
1000
0001
0000
1000
0000
0020
0000
,
0030
0100
0001
0010
0100
0010
0001
1000
,
1010
0000
0010
0000
1000
0001
1000
0000
0001
0100
0001
0000
1000
0010
1000
0000
,
0001
0010
0001
0000
1000
0000
0001
0000
1001
0000
0000
0000
0110
0000
0000
0000
,
0010
0100
0001
0000
1000
0100
0010
0000
0001
1000
0010
0000
0100
0001
0010
0000
,
0001
0010
0001
0000
1000
0100
1000
0000
0010
0000
0100
0000
0001
0000
1000
0000
,
1020
0M00
0100
0M00
0130
0001
0010
0001
,
0102
00M0
0010
0M00
0103
1000
0010
1000
,
2010
0M00
3100
001M
0012
M000
0103
0010
,
1002
00M0
1003
0010
1000
0001
0010
0100
,
1000
22MM
3300
0010
0001
0100
0010
0100
,
0001
2MM2
3003
0001
0000
1000
0000
0010
,
0100
0002
0003
1000
0100
0010
0001
1000
,
0020
0000
2030
0000
3002
0000
0103
0010
,
0110
0000
0000
0000
0001
0000
1000
0000
1010
0000
0000
0101
0000
0000
0001
0000
,
0010
0100
1000
0001
0100
0010
1000
0100
,
1100
0000
0000
0000
0010
0000
1000
0000
1001
0000
0000
0011
0000
0000
0001
0000
,
0100
0010
0001
1000
0100
0001
0100
1000
,
1010
0000
0000
0000
0010
0000
0100
0000
0101
0000
0000
1010
0000
0000
0001
0000
,
0010
1000
0010
0001
0100
0001
1000
0010
,
1000
0100
0010
0001
1000
0010
0100
0001
,
0022
0000
0033
0000
2200
0000
3300
0000
0001
1000
0000
1000
0001
0000
0100
0000
,
0010
1000
1100
1000
0010
1000
1001
0001
,
0100
0010
1000
0100
0020
0030
0001
0100
,
0100
0010
1010
1000
0010
0100
0101
0001
,
1000
0001
0000
1000
0001
0000
0100
0000
0001
0000
0010
0000
0100
0000
1000
0000
,
0010
0100
0101
0001
1000
0010
1010
0010
,
1000
0001
0100
0010
2000
3000
0001
0100
,
0010
1000
1001
0001
1000
0100
1100
0100
,
1000
0010
0000
1000
0010
0000
0100
0000
0001
0000
0010
0000
0002
0000
0003
0000
,
1000
0010
0100
0001
1000
0100
0010
0001
,
0200
0000
0300
0000
0020
0000
0030
0000
1000
0001
0000
0001
0100
0000
0110
0000
,
0010
1000
0100
0010
0100
1000
0001
0100
,
0020
0000
0000
0000
2030
0000
0000
0000
3001
0100
0001
0100
0001
0000
0100
0000
,
0010
0000
0200
0000
0300
0000
0001
0000
1000
0010
1000
0000
0001
0000
0200
0000
,
0300
0001
0010
0100
0010
0001
0100
0010
,
1010
0000
0000
0000
0010
0000
1000
0000
0001
1000
0001
0000
1000
0000
0020
0000
,
0030
1000
0001
0100
0010
0100
0001
1000
,
1000
0001
0100
0000
0001
0010
0001
0000
1000
0010
1000
0000
0001
0100
0001
0000
,
2000
0000
0000
0000
3010
0100
0001
0000
2002
0000
0000
0000
3003
0000
0000
0000
,
0001
0010
0001
0000
0100
0010
0100
0000
0001
1000
0001
0000
1000
0100
0010
0000
,
0002
0000
0000
0000
0103
0010
0100
0000
0001
0000
1000
0000
0010
0000
0100
0000
,
0102
00M0
0010
0M00
0103
0010
1000
0100
,
2100
0M00
0010
000M
3001
0100
0010
010M
,
0102
0M00
1003
0010
1M20
0000
1030
010M
,
0012
0M00
1000
00M0
0103
0001
0010
0100
,
1000
2MM2
3003
0001
0100
0010
0100
0001
,
0010
MM22
0033
0001
0000
1000
0000
0010
,
1000
0002
0003
1000
0001
0100
0010
0100
,
0002
0000
0000
0000
0023
0000
0000
0000
0130
0010
0100
0010
0100
0000
0010
0000
,
0011
0000
0000
0000
0001
0000
0100
0000
0110
0000
0000
0101
0000
0000
0001
0000
,
1000
0010
1000
0001
0100
0001
0010
0100
,
1100
0000
0000
0000
0010
0000
0001
0000
0101
0000
0000
0110
0000
0000
0010
0000
,
1000
0001
0010
0001
1000
0010
1000
0001
,
1001
0000
0000
0000
0001
0000
0100
0000
0110
0000
0000
1010
0000
0000
0010
0000
,
1000
0100
1000
0010
0010
1000
0001
0100
,
0010
1000
0100
0001
0100
1000
0010
0100
,
0002
0000
0000
0000
2003
0000
0000
0000
3010
0100
0000
0010
0100
0000
0001
0000
,
0010
0001
1001
0000
0001
1000
1100
0000
,
0100
1000
0010
0100
0002
0003
0010
0001
,
0100
0010
1010
0000
0010
1000
1001
0000
,
0001
0100
0000
0001
0100
0000
0010
0000
0100
0000
0001
0000
0010
0000
0100
0000
,
1000
0001
1001
0000
0001
1000
1010
0000
,
0010
1000
0001
0010
0002
0003
0100
0100
,
0001
1000
1010
0000
0010
1000
1001
0000
,
0001
1000
0000
0001
1000
0000
0010
0000
0100
0000
0001
0000
0020
0000
0030
0000
,
0001
0100
0010
0100
0001
0010
0100
1000
,
0002
2003
3020
0230
,
0301
0010
0100
0010
0001
0100
0010
1000
,
0100
1000
0000
0100
1000
0000
0000
0000
0010
0100
0000
0010
0100
0000
1001
0000
,
0001
0010
0001
0100
0010
1000
0100
0010
,
0200
2300
3020
0230
,
0301
0010
0000
0010
0001
0100
0010
1000
,
2002
3003
0220
0330
2002
3003
0220
0000
,
0330
0000
0000
0000
;
