#TITLE:That That;
#SUBTITLE:feat.Suga of BTS;
#ARTIST:PSY;
#TITLETRANSLIT:;
#SUBTITLETRANSLIT:;
#ARTISTTRANSLIT:;
#GENRE:;
#CREDIT:;
#MUSIC:That That.ogg;
#BANNER:That That.png;
#BACKGROUND:That That-BG.png;
#CDTITLE:;
#SAMPLESTART:31.382;
#SAMPLELENGTH:16.788;
#SELECTABLE:YES;
#OFFSET:-0.055;
#BPMS:0.000=130.000;
#STOPS:;
#BGCHANGES:2.750=That That.avi=1.000=1=0=0=StretchNoLoop==CrossFade==,
99999.000=-nosongbg-=1.000=0=0=0=StretchNoLoop====
;
#FGCHANGES:;

//--------------- dance-single - Alex ----------------
#NOTES:
     dance-single:
     Alex:
     Beginner:
     1:
     0.085049,0.130904,0.043037,0.05021,0,83,77,6,7,0,0,0.085049,0.130904,0.043037,0.05021,0,83,77,6,7,0,0:
0000
0000
0000
0000
,
0000
0000
0000
0000
,
0000
0000
0000
0000
,
0000
0000
0000
0000
,
0000
0000
0000
0000
,
0010
0000
0000
0000
,
1000
0000
0000
0000
,
0001
0000
0000
0000
,
1001
0000
0000
0000
,
0100
0000
0000
0000
,
0100
0000
0000
0000
,
0001
0000
0000
0000
,
1000
0000
0000
0000
,
0010
0000
0000
0000
,
0010
0000
0000
0000
,
1000
0000
0000
0000
,
1000
0000
0000
0000
,
0001
0000
0000
0000
,
0100
0000
0000
0000
,
0001
0000
0000
0000
,
1000
0000
1000
0000
,
1000
0000
0000
0000
,
0010
0000
0000
0000
,
0010
0000
0000
0000
,
0200
0000
0300
0000
,
0110
0000
0000
0000
,
0010
0000
0010
0000
,
0010
0000
0000
0000
,
0100
0000
0100
0000
,
0100
0000
0000
0000
,
0001
0000
0001
0000
,
0001
0000
0000
0000
,
1000
0000
0000
0000
,
0001
0000
0000
0000
,
1000
0000
0000
0000
,
0010
0000
0000
0000
,
0100
0000
0000
0000
,
0001
0000
0001
0000
,
0001
0000
0000
0000
,
1000
0000
1000
0000
,
1000
0000
0000
0000
,
1001
0000
0000
0000
,
0100
0000
0000
0000
,
0010
0000
0000
0000
,
0000
0000
0000
0000
,
0100
0000
0000
0000
,
1000
0000
0000
0000
,
0001
0000
0000
0000
,
1001
0000
0000
0000
,
0001
0000
0000
0000
,
0001
0000
0000
0000
,
1000
0000
0000
0000
,
1000
0000
0000
0000
,
0010
0000
0000
0000
,
1000
0000
0000
0000
,
0001
0000
0000
0000
,
1000
0000
0000
0000
,
0100
0000
0000
0000
,
0100
0000
0100
0000
,
0100
0000
0000
0000
,
0010
0000
0000
0000
,
0001
0000
0000
0000
,
1000
0000
1000
0000
,
1000
0000
0000
0000
,
1001
0000
0000
0000
,
0020
0000
0030
0000
,
0200
0000
0300
0000
,
0002
0000
0003
0000
,
1001
0000
0000
0000
,
2000
0000
3000
0000
,
0020
0000
0030
0000
,
2000
0000
3000
0000
,
0001
0000
0100
0000
,
0001
0000
0000
0000
;

//--------------- dance-single - Alex ----------------
#NOTES:
     dance-single:
     Alex:
     Easy:
     2:
     0.144481,0.184521,0.071728,0.093247,0,141,131,10,13,0,0,0.144481,0.184521,0.071728,0.093247,0,141,131,10,13,0,0:
0000
0000
0000
0000
,
0000
0000
0000
0000
,
0000
0000
0000
0000
,
0000
0000
0000
0000
,
0000
0000
0000
0100
,
0100
0000
0000
0010
,
0010
0000
0000
1000
,
1000
0000
0000
0000
,
1001
0000
0000
0000
,
0001
0000
0001
0000
,
0100
0000
0100
0000
,
0001
0000
1000
0000
,
0001
0000
0001
0000
,
0200
0000
0300
0000
,
0020
0000
0030
0000
,
1000
0000
0001
0000
,
2002
0000
3003
0000
,
0010
0010
0010
0000
,
0100
0000
0100
0000
,
0001
0001
0001
0000
,
1000
0000
1000
0000
,
0010
0010
0010
0000
,
0010
0000
1000
0000
,
0001
0001
0001
0000
,
0200
0000
0300
0000
,
0001
0000
1000
0000
,
0002
0000
0003
0000
,
1000
0000
0010
0000
,
2000
0000
3000
0000
,
0010
0000
0100
0000
,
0020
0000
0030
0000
,
0100
0000
0100
0000
,
0001
0000
1000
0000
,
0010
0000
0100
0000
,
0100
0000
0010
0010
,
0010
0000
1000
0000
,
0001
0000
1000
1000
,
0010
0010
0010
0010
,
0000
0000
0100
0000
,
0001
0001
0001
0001
,
0000
0000
0000
0100
,
0100
0000
0000
0001
,
0001
0000
0000
1000
,
1000
0000
0000
0000
,
1001
0000
0000
0010
,
0010
0000
0000
1000
,
1000
0000
0000
0001
,
0001
0000
0000
0000
,
1001
0000
0000
0000
,
0010
0000
0010
0000
,
0100
0000
0100
0000
,
0001
0000
1000
0000
,
1000
0000
0001
0000
,
0200
0000
0300
0000
,
0002
0000
0003
0000
,
2000
0000
3000
0000
,
0020
0000
0030
0000
,
0100
0100
0100
0000
,
0001
0000
1000
0000
,
0010
0010
0010
0000
,
0100
0000
0100
0000
,
0001
0001
0001
0000
,
1000
0000
1000
0000
,
0010
0010
0010
0000
,
0200
0000
0300
0000
,
1001
0000
0000
0000
,
0110
0000
0000
0000
,
1001
0000
0000
0000
,
0010
0010
0010
0000
,
0110
0000
0000
0000
,
1001
0000
0000
0000
,
0110
0000
0000
0000
,
0100
0100
0100
0000
,
0001
1000
0001
0000
;

//--------------- dance-single - Alex ----------------
#NOTES:
     dance-single:
     Alex:
     Medium:
     5:
     0.249,0.34443,0.10042,0.27974,0.017932,243,229,14,39,0,0,0.249,0.34443,0.10042,0.27974,0.017932,243,229,14,39,0,0:
0000
0000
0000
0000
,
0000
0000
0000
0000
,
0000
0000
0000
0000
,
0000
0000
0000
0000
,
0000
0000
0000
0000
,
0001
1000
0001
0000
,
1000
0001
1000
0000
,
0010
0100
0010
0000
,
2002
0000
3003
0000
,
0001
0100
0001
0001
,
1000
0010
0100
0100
,
0001
1000
0100
0010
,
0100
1000
0001
0100
,
0020
0000
0030
0200
0000
0300
0002
0000
,
0003
2000
0000
3000
0020
0000
0030
0000
,
2000
0000
3000
0002
0000
0003
0200
0000
,
0300
0002
0000
0003
0020
0000
0030
0000
,
0001
0100
0101
0000
,
0001
1000
0010
1000
,
0001
0001
1001
0000
,
0100
0000
0000
0100
0000
0000
0200
0000
0000
0000
0300
0000
0000
0000
0000
0000
,
0010
0100
0101
0000
,
0001
0001
1000
1000
,
0010
1000
1010
0000
,
0010
0000
0000
0010
0000
0000
0020
0000
0000
0000
0030
0000
0000
0000
0000
0000
,
0100
0010
0100
0001
,
1000
1000
0001
0001
,
0010
0100
1000
0001
,
0100
0010
0100
0001
,
0001
1000
0100
1000
,
0010
0010
1000
0001
,
0010
0100
1000
0001
,
0100
0010
0100
0001
,
1000
0100
0010
0100
,
1000
0001
1000
1000
,
0001
0100
0010
0100
,
0001
0010
0100
1000
,
1010
0101
1001
0110
,
0000
0010
0100
0001
,
0011
1100
1001
0110
,
0000
0000
0010
0000
0100
0000
0001
1000
,
0200
0000
0300
0000
,
2000
0000
3000
0000
,
0002
0000
0000
0000
,
0003
0000
0000
0000
0000
0000
0010
0100
,
0002
0000
0003
0000
,
2000
0000
3000
0000
,
0020
0000
0030
0000
,
1001
0000
0000
0000
,
0001
0100
0001
0100
,
0010
1000
0001
1000
,
0100
0010
0100
1000
,
1000
0001
0100
0010
,
0200
0000
0300
0002
0000
0003
2000
0000
,
3000
0020
0000
0030
0200
0000
0300
0000
,
0002
0000
0003
0020
0000
0030
0002
0000
,
0003
2000
0000
3000
0020
0000
0030
0000
,
0100
0001
1000
0000
,
0001
0010
0100
0010
,
0001
1000
1000
0000
,
0001
0000
0000
0001
0000
0000
0002
0000
0000
0000
0003
0000
0000
0000
0000
0000
,
0100
0010
0100
0000
,
0001
1000
0100
0010
,
0100
1000
1000
0000
,
0001
0000
0000
1000
0000
0000
0002
0000
0000
0000
0003
0000
0000
0000
0000
0000
,
1000
0010
1000
0010
2000
0000
3000
0000
,
0001
0100
0001
0100
0002
0000
0003
0000
,
0010
0100
0010
0100
0020
0000
0030
0000
,
0001
0100
0001
0100
,
0010
0100
0010
0100
0020
0000
0030
0000
,
1000
0010
1000
0010
2000
0000
3000
0000
,
0001
1000
0001
1000
0002
0000
0003
0000
,
0100
0010
0100
0100
,
0010
0000
0000
0010
0000
0000
0010
0000
0100
0000
0020
0000
0000
0000
0030
0000
;

//--------------- dance-single - Alex ----------------
#NOTES:
     dance-single:
     Alex:
     Hard:
     7:
     0.390407,0.423914,0.10042,0.157802,0.150629,381,367,14,22,0,0,0.390407,0.423914,0.10042,0.157802,0.150629,381,367,14,22,0,0:
0000
0000
0000
0000
,
0000
0000
0000
0000
,
0000
0000
0000
0000
,
0000
0000
0000
0000
,
0000
0000
0000
0000
0000
0000
0001
1000
,
0010
0200
0000
0000
0300
0000
0001
0010
,
0100
2000
0000
0000
3000
0001
1000
0010
,
0020
0000
0030
0000
,
1001
0000
0000
0000
0000
0000
0000
0000
0000
0000
0001
0100
0001
0000
0100
0000
,
0001
0000
0000
1000
0000
0000
0010
0000
0000
0100
0000
0000
0001
0000
1000
0000
,
0100
0000
0000
0010
0000
0000
0001
0000
0000
1000
0000
0000
0010
0000
0100
0000
,
0001
0000
0000
1000
0000
0000
0010
0000
0000
0100
0000
0000
0001
0000
0010
0000
,
0001
0000
0000
0100
0000
0000
0010
0000
0000
1000
0000
0000
0001
0000
1000
0000
,
0100
0000
1000
0010
0000
0010
0100
0000
,
0100
0001
0000
0001
2000
0000
3000
0000
,
0001
0000
0010
0001
0000
0001
0010
0000
,
0001
0100
0000
0100
0020
0000
0030
0000
,
0010
0000
0000
1000
0000
0000
0001
0000
0100
0000
0001
0000
1000
0000
0000
0000
,
0100
0000
0000
0100
0000
0000
1000
0000
0010
0000
0100
0000
0001
0000
0010
0000
,
0001
0000
0000
0100
0000
0000
0001
0000
1000
0000
0010
0000
0100
0000
0000
0000
,
0001
0000
0000
1000
0000
0000
2002
0000
0000
0000
0000
0000
3003
0000
0000
0000
,
0001
0000
0000
1000
0000
0000
0001
0000
0100
0000
0001
0000
1000
0000
0000
0000
,
0010
0000
0000
0010
0000
0000
1000
0000
0001
0000
0100
0000
0010
0000
1000
0000
,
0001
0000
0000
0001
0000
0000
0010
0000
0100
0000
1000
0000
0001
0000
0000
0000
,
0100
0000
0000
0010
0000
0000
0220
0000
0000
0000
0000
0000
0330
0000
0000
0000
,
0010
0001
0010
0000
0001
1000
0001
0000
,
1000
0000
0000
1000
0000
0000
0010
0000
1000
0000
0001
0000
0100
0000
0000
0000
,
0010
0100
0010
0000
1000
0001
1000
0000
,
0001
0000
0000
0001
0000
0000
0100
0000
0001
0000
1000
0000
0010
0000
0000
0000
,
0100
0001
0100
0000
0010
1000
0010
0000
,
1000
0000
0000
0001
0000
0000
1000
0000
0001
0000
0100
0000
0010
0000
0000
0000
,
0100
0001
0010
0000
0001
1000
0010
0000
,
0100
0010
0100
0001
0010
0001
1000
0000
,
0001
0100
0001
1000
0100
1000
0001
0000
,
0100
0010
0100
0001
0010
0100
1000
0000
,
0001
0000
0000
0001
0000
0000
0100
0000
0001
0000
1000
0000
0010
0000
0000
0000
,
0100
0000
0000
0100
0000
0000
0010
0000
1000
0000
0001
0000
0100
0000
0000
0000
,
1001
0110
1001
1001
,
0001
0100
0001
0000
1000
0010
1000
0000
,
1010
0101
1010
0101
,
0000
0010
0100
0001
1000
0100
0010
0001
,
0100
0200
0000
0000
0300
0000
0010
1000
,
0001
0200
0000
0000
0300
0001
0010
0100
,
2000
0000
3000
0010
,
0010
0000
0000
0000
0000
0000
0100
0001
,
0010
0002
0000
0000
0003
0000
1000
0010
,
1000
0002
0000
0000
0003
0100
0001
0010
,
0200
0000
0000
0300
,
1001
0000
0000
0000
0000
0000
0000
0000
0000
0000
0001
1000
0001
0000
1000
0000
,
0010
0000
0000
0100
0000
0000
0001
0000
0000
1000
0000
0000
0100
0000
0010
0000
,
0001
0000
0000
0100
0000
0000
0010
0000
0000
0100
0000
0000
0001
0000
0010
0000
,
0001
0000
0000
0001
0000
0000
1000
0000
0000
0010
0000
0000
1000
0000
0010
0000
,
0100
0000
0000
0100
0000
0000
0001
0000
0000
1000
0000
0000
0010
0000
0100
0000
,
0001
0000
1000
0001
0000
0001
0100
0000
,
0100
0010
0000
0010
0200
0000
0300
0000
,
0001
0000
1000
0010
0000
0010
1000
0000
,
1000
0001
0000
0001
0200
0000
0300
0000
,
0001
0000
0000
1000
0000
0000
0001
0000
0100
0000
0001
0000
1000
0000
0000
0000
,
0010
0000
0000
0010
0000
0000
0100
0000
0001
0000
1000
0000
0100
0000
0000
0000
,
1000
0000
0000
1000
0000
0000
0010
0000
1000
0000
0001
0000
0100
0000
0000
0000
,
0001
0000
0000
0010
0000
0000
0022
0000
0000
0000
0000
0000
0033
0000
0000
0000
,
0001
0000
0000
0001
0000
0000
0100
0000
0001
0000
1000
0000
0010
0000
0000
0000
,
1000
0000
0000
1000
0000
0000
0001
0000
1000
0000
0100
0000
1000
0000
0000
0000
,
0001
0000
0000
0001
0000
0000
0100
0000
0010
0000
0100
0000
0001
0000
0000
0000
,
1000
0000
0000
0010
0000
0000
2020
0000
0000
0000
0000
0000
3030
0000
0000
0000
,
0010
1000
0001
0100
0010
0000
0010
0000
,
0100
0001
0010
0001
1000
0000
1000
0000
,
0001
0100
0001
1000
0010
0000
0100
0000
,
0001
0000
0000
0001
0000
0000
1000
0000
0010
0000
0100
0000
0001
0000
1000
0000
,
0100
0100
1000
1000
0010
0000
0100
0000
,
0001
0001
0010
0010
0001
0000
0010
0000
,
0001
1000
0010
1000
0001
0000
0100
0000
,
0010
0000
0000
0010
0000
0000
1000
0000
0001
0000
0100
0000
0010
0000
1000
0000
,
0001
0000
0000
0001
0000
0000
1000
0000
0010
0000
0200
0000
0000
0000
0300
0000
;

//--------------- dance-single - Alex ----------------
#NOTES:
     dance-single:
     Alex:
     Challenge:
     10:
     0.630184,0.715355,0.545135,0.487752,0.498512,615,539,76,68,0,0,0.630184,0.715355,0.545135,0.487752,0.498512,615,539,76,68,0,0:
0000
0000
0000
0000
,
0000
0000
0000
0000
,
0000
0000
0000
0000
,
0000
0000
0000
0000
,
0000
0000
0000
0000
0000
0000
0010
1000
,
0001
0100
0000
0101
0000
0001
1000
0100
,
1000
0001
0000
1001
0000
0010
0100
0001
,
0010
0000
0001
0100
0000
0100
0010
0000
,
2002
0000
0000
0000
0000
0000
0000
0000
3003
0000
0001
1000
0001
0000
1000
0000
,
0010
0000
0000
1010
0000
0000
0101
0000
0000
0001
0000
0000
0010
0100
1000
0001
,
0100
0000
0000
0110
0000
0000
0101
0000
0000
1001
0000
0000
0001
1000
0010
0100
,
0001
0000
0000
0011
0000
0000
0101
0000
0000
0110
0000
0000
0010
1000
0100
1000
,
0010
0000
0000
1010
0000
0000
0101
0000
0000
1001
0000
0000
0001
1000
0010
0100
,
0002
0000
0023
0230
0000
2300
3020
0000
,
0230
0302
0000
2003
3001
0100
1000
0100
,
0002
0000
0023
0230
0000
2300
3020
0000
,
2030
3002
0000
0203
0320
0000
0130
0100
,
0101
0000
0001
0100
0000
0001
0100
0000
0010
0000
1000
0000
0001
0000
0000
0000
,
0010
0000
0001
1000
0000
0010
0100
0000
0001
0000
1000
0000
0100
0000
1000
0000
,
0010
0000
0010
0100
0000
0001
0100
0000
0010
0000
1000
0000
0001
0000
0000
0000
,
0011
0000
0000
1100
0000
0000
1001
0000
0001
0000
1000
0010
1000
0000
0001
0000
,
0100
0000
0010
0100
0000
0010
0100
0000
0001
0000
1000
0000
0010
0000
0000
0000
,
0100
0000
0001
0010
0000
0001
0010
0000
0001
0000
0100
0000
1000
0000
0100
0000
,
0001
0000
1000
0010
0000
1000
0010
0000
0100
0000
0001
0000
0010
0000
0000
0000
,
0011
0000
0000
1100
0000
0000
1001
0000
0000
0000
0010
0100
0000
0100
0020
0000
,
0030
0000
1000
0001
0100
0000
0001
0010
0100
1000
0001
0100
0010
0000
1000
0000
,
1010
0000
0000
0101
0000
0000
0001
0000
0010
0000
0100
0000
1000
0000
0010
0000
,
0000
0000
0010
0100
0010
0000
0100
0001
0100
0001
0010
0100
0010
0000
0001
0000
,
1000
0000
0000
1010
0000
0000
1001
0000
0001
0000
0010
0000
0100
0000
1000
0000
,
0000
0000
1000
0010
0100
0000
0001
0010
0100
0010
0001
0100
0010
0000
1000
0000
,
0010
0000
0000
0110
0000
0000
1001
0000
0001
0000
1000
0000
0100
0000
1000
0000
,
0000
0000
0010
1000
0001
0100
0010
1000
0001
0010
0001
1000
0010
0100
0001
1000
,
0100
0000
1000
0010
0000
0010
1000
0000
0001
0000
0100
0000
0010
0000
0100
0001
,
0010
0000
0001
1000
0010
0000
0100
0000
0100
0000
0001
0000
1000
0000
0010
1000
,
0010
0000
0100
0001
0100
0000
0001
0000
1000
0000
0100
0010
0001
0100
0010
0100
,
0001
1000
0010
0100
0001
0010
0001
1000
0010
0000
0010
1000
0100
0000
1000
0010
,
0100
0000
0001
0100
0000
0100
0001
0000
1000
0000
0010
0000
0100
0000
0001
1000
,
2020
0000
0000
3030
2002
0000
0000
3003
0220
0000
0000
0330
0202
0000
0000
0303
,
0010
0000
0100
1000
0001
0000
0100
0010
0000
0010
0100
0001
0100
0010
1000
0001
,
0022
0000
0000
0033
2200
0000
0000
3300
2020
0000
0000
3030
0202
0000
0000
0303
,
0010
0000
1000
0001
0100
0000
0010
0000
1000
0000
0001
0000
0010
0000
0001
0000
,
1000
2020
0000
0000
3030
0000
0001
0100
,
0010
0220
0000
0000
0330
0100
0001
1000
,
2200
0000
3300
0011
,
2002
0000
0000
0000
3003
0000
0001
0100
,
0010
0100
0000
0101
0000
0001
1000
0100
,
0010
0001
0000
1001
0000
0001
1000
0010
,
0100
0000
0001
0100
0000
0100
0001
0000
,
2002
0000
0000
0000
0000
0000
0000
0000
3003
0000
0001
1000
0010
0000
0100
0000
,
0001
0000
0000
0101
0000
0000
0110
0000
0000
1010
0000
0000
0010
1000
0100
1000
,
0010
0000
0000
1001
0000
0000
0101
0000
0000
0011
0000
0000
0001
0100
0010
1000
,
0100
0000
0000
1100
0000
0000
0110
0000
0000
0011
0000
0000
0001
0100
0010
0100
,
0001
0000
0000
0101
0000
0000
1010
0000
0000
1001
0000
0000
0001
1000
0100
0010
,
0002
0000
2003
3020
0000
0230
0302
0000
,
0023
0230
0000
2300
3020
0000
0130
0001
,
2000
0000
3002
0023
0000
0032
0203
0000
,
0320
0230
0000
0302
2003
0000
3001
0100
,
0010
0000
0100
0010
0000
0010
0100
0000
0001
0000
1000
0000
0100
0000
0000
0000
,
1000
0000
0001
0100
0000
0100
0001
0000
1001
0000
0010
0000
1001
0000
0100
0000
,
0001
0000
0010
0100
0000
0010
0001
0000
0100
0000
0010
0000
0100
0000
0000
0000
,
0011
0000
0000
1100
0000
0000
1001
0000
0001
0000
0100
0000
1000
0000
0100
0000
,
0001
0000
0100
0001
0000
0001
0100
0000
0010
0000
1000
0000
0001
0000
0000
0000
,
0010
0000
0001
0100
0000
0100
0010
0000
1010
0000
0100
0000
0011
0000
0100
0000
,
1000
0000
0100
0001
0000
0100
1000
0000
1000
0000
0010
0000
0100
0000
0000
0000
,
0101
0000
0000
0011
0000
0000
2002
0000
0000
0000
0000
0000
3003
0000
0000
0000
,
0001
1000
0001
1000
0001
1000
0001
1000
0001
0000
1000
0000
0010
0000
0100
0000
,
0001
0010
0001
0010
0001
0010
0001
0010
0001
0000
0100
0000
0010
0000
1000
0000
,
0100
1000
0100
1000
0100
1000
0100
1000
0100
0000
1000
0000
0010
0000
0100
0000
,
0101
0000
0000
0110
0000
0000
1010
0000
0010
0000
0100
0000
0001
0000
0100
0000
,
0001
0010
0100
0010
0001
0100
0010
0100
0001
0000
1000
0000
0100
0000
0010
0000
,
0001
1000
0010
1000
0001
0100
0001
1000
0100
0000
0010
0000
0001
0000
0100
0000
,
0010
0100
0001
0010
0001
0100
0010
0100
0001
0000
1000
0000
0100
0000
0010
0000
,
0011
0000
0000
0101
0000
0000
0110
0000
0010
0000
1000
0000
0001
0000
0100
0000
,
0101
0000
0000
1001
0000
0000
1100
0000
0110
0000
2002
0000
0000
0000
3003
0000
;
