#TITLE:TASTE;
#SUBTITLE:;
#ARTIST:Stray Kids;
#TITLETRANSLIT:;
#SUBTITLETRANSLIT:;
#ARTISTTRANSLIT:;
#GENRE:;
#CREDIT:;
#MUSIC:TASTE.ogg;
#BANNER:TASTE.png;
#BACKGROUND:TASTE-BG.png;
#CDTITLE:;
#SAMPLESTART:45.453;
#SAMPLELENGTH:13.714;
#SELECTABLE:YES;
#OFFSET:-0.261;
#BPMS:0.000=140.000
,51.000=4480.000
,60.000=18.100
,61.000=140.000
,63.000=2240.000
,65.000=70.000
,65.250=280.000
,66.000=140.000
,69.000=2240.000
,72.500=38.500
,73.000=140.000
,83.000=2240.000
,85.000=70.000
,85.250=280.000
,86.000=140.000
,115.000=231.500
,118.000=140.000
,259.000=4480.000
,268.000=18.100
,269.000=140.000
,271.000=2240.000
,273.000=70.000
,273.250=280.000
,274.000=140.000
,277.000=2240.000
,280.500=38.500
,281.000=140.000
,291.000=2240.000
,293.000=70.000
,293.250=280.000
,294.000=140.000
;
#STOPS:115.000=0.060
,115.333=0.050
,115.667=0.060
,116.000=0.050
,116.333=0.060
,116.667=0.050
,117.000=0.060
,117.333=0.050
,117.667=0.060
;
#BGCHANGES:;
#FGCHANGES:;

//--------------- dance-single - Alex ----------------
#NOTES:
     dance-single:
     Alex:
     Easy:
     2:
     0.138111,0.236237,0.116949,0,0,124,109,15,0,0,0,0.138111,0.236237,0.116949,0,0,124,109,15,0,0,0:
0000
0000
0000
0000
,
0000
0000
0000
0000
,
0000
0000
0000
0000
,
0000
0000
0000
0000
,
0000
0000
0000
0001
,
0000
1000
0000
0001
,
0000
0000
0000
0100
,
0000
0010
0000
0100
,
0000
0000
0000
0010
,
0000
1000
0000
0001
,
0000
0000
0000
0100
,
0000
0100
0000
0010
,
0000
0000
0000
1001
,
0000
0000
0000
0000
,
0000
0000
0000
0000
,
0000
0110
0000
0000
,
0000
0000
0010
0010
,
0100
0100
0000
0000
,
0000
1001
0000
0100
,
0000
0010
0000
0010
,
0000
1000
0000
1001
,
0000
0000
0000
0100
,
0100
0010
0010
1000
,
0000
0001
0000
0100
,
0000
0000
0000
0110
,
0000
0000
0000
0011
,
0000
0000
0000
0001
,
0000
0001
0000
1000
,
0000
1000
0000
0110
,
0000
0000
0000
0010
,
0000
0010
0000
1000
,
0000
1000
0000
0001
,
0000
0001
0000
1001
,
0000
0000
0000
0100
,
0000
0000
0000
0010
,
0000
0010
0000
1000
,
0000
0000
0000
0001
,
0000
0000
0000
0100
,
0000
0000
0000
0010
,
0000
0100
0000
0010
,
0000
0010
0000
1001
,
0000
0000
0000
0110
,
0000
0000
0000
0010
,
0000
1000
0000
0010
,
0000
0100
0000
0001
,
0000
0000
0000
0010
,
0000
0000
0000
0001
,
0000
0000
0000
1000
,
0000
0001
0000
1000
,
0000
0000
0000
0010
,
0000
0000
0000
0100
,
0000
0100
0000
0010
,
0000
0010
0000
1000
,
0000
0000
0000
0001
,
0000
0000
0000
0010
,
0000
0000
0000
0001
,
0000
0100
0000
0010
,
0000
1000
0000
0001
,
0000
0000
0000
1000
,
0000
0100
0000
1000
,
0000
0000
0000
0010
,
0000
0100
0000
0010
,
0000
0000
0000
0100
,
0000
0010
0000
0010
,
0000
1000
0000
1001
,
0000
0000
0000
0000
,
0000
0000
0000
0000
,
0000
0110
0000
0000
,
0000
0000
0010
1000
,
1000
0001
0000
0000
,
0000
1001
0000
0100
,
0000
0010
0000
1000
,
0000
1000
0000
1010
,
0000
0000
0000
0010
,
0010
0100
0100
0001
,
0000
1000
0000
1001
;

//--------------- dance-single - Alex ----------------
#NOTES:
     dance-single:
     Alex:
     Medium:
     5:
     0.275109,0.53855,0.272881,0.148135,0,247,212,35,19,0,0,0.275109,0.53855,0.272881,0.148135,0,247,212,35,19,0,0:
0000
0000
0000
0000
,
0000
0000
0000
0000
,
0000
0000
0000
0000
,
0000
0000
0000
0000
,
0000
0000
0000
0010
,
0100
0010
1000
0001
,
0100
0001
1000
0100
,
0010
0001
0100
0010
,
1000
0100
0100
0110
,
0010
0001
0100
0110
,
0010
1000
0001
1001
,
1001
0110
0110
0011
,
0011
1100
1100
1001
,
0000
0000
0000
0000
,
0000
0000
0000
0000
,
0000
0010
0100
0020
,
0000
0030
0000
0000
1000
0000
0001
0000
,
1000
0002
0000
0000
,
0003
1000
0010
0100
,
0010
1000
0001
0010
,
0010
0001
0100
0020
,
0000
0030
0000
0000
0100
0000
0010
0000
,
1000
0100
0010
0001
,
1000
0010
0200
0000
,
0300
0010
1000
0001
,
0001
0100
0100
0010
,
1000
0200
0300
0010
,
0001
0200
0300
0010
,
1000
0001
0100
0220
,
0000
0330
1000
0001
,
0100
0002
0003
1000
,
0010
0100
0010
1000
,
0001
0010
0010
0110
,
0000
0000
0000
1001
,
0000
0000
0000
0001
,
0100
0010
0100
0002
,
0000
0003
0000
1001
,
0000
0000
0000
0110
,
0000
0000
0000
0010
,
0000
0100
0000
0010
,
0100
0020
0030
1000
,
0001
1000
0001
0100
,
0010
0100
0010
1000
,
0100
1000
0010
0100
,
0001
0001
0010
0100
,
0010
0001
0100
0010
,
1000
0001
0100
0020
,
0030
1000
0001
0200
,
0300
0020
0030
1001
,
0000
1001
0000
0001
,
1000
0001
0000
0110
,
0000
0110
0000
0010
,
0100
0010
0000
1010
,
0000
1010
0000
1000
,
0010
1000
0000
0101
,
0000
0101
0000
0001
,
0100
0002
0003
0100
,
0100
0010
1000
0001
,
0010
0100
0010
0001
,
0100
0010
1000
0100
,
1000
0010
0010
0110
,
0100
0001
1000
1001
,
0001
0100
0010
1010
,
1010
0101
0101
0011
,
0011
1100
1100
1001
,
0000
0000
0000
0000
,
0000
0000
0000
0000
,
0000
0010
0100
0020
,
0000
0030
0000
0000
0100
0000
0001
0000
,
1000
0200
0000
0000
,
0300
0010
0010
0001
,
0100
0010
1000
0001
,
0001
0100
0010
2000
,
0000
3000
0000
0000
0010
0000
0100
0000
,
0010
1000
1000
0001
,
0100
0010
0200
0000
,
0000
0000
0000
0300
;

//--------------- dance-single - Alex ----------------
#NOTES:
     dance-single:
     Alex:
     Hard:
     7:
     0.376465,0.44733,0.124746,0.210508,0.074068,338,322,16,27,0,0,0.376465,0.44733,0.124746,0.210508,0.074068,338,322,16,27,0,0:
0000
0000
0000
0000
,
0000
0000
0000
0000
,
0000
0000
0000
0000
,
0000
0000
0000
0000
,
0000
1000
0010
0110
,
0100
0010
0100
0000
0001
0010
0001
0000
,
1000
0000
0010
0000
0100
0000
0001
0100
,
0001
0000
1000
0010
0100
0001
1000
0000
,
0100
0000
0110
0000
0000
0000
0010
0001
,
0100
0000
0010
0000
1000
0000
0001
1000
,
0100
0000
0010
0000
0001
0000
0100
0010
,
0100
0010
1000
0010
1000
0001
0100
0000
,
0001
1000
0001
1001
,
0000
0000
0000
0000
,
0000
0000
0000
0000
,
0000
0000
1000
0001
1000
0001
1000
0000
,
0000
0000
0000
0000
0010
0100
0010
0100
,
0010
0110
0000
0000
,
0000
0000
1000
0001
1000
0001
1000
0000
,
0010
0100
0010
0100
0010
0000
1010
0000
,
0101
0000
0001
0010
0001
0010
0001
0000
,
0000
0000
0000
0000
0100
0001
0100
0001
,
0100
0010
1000
0001
,
0100
0010
0000
0010
0200
0000
0000
0000
,
0300
0000
0000
0000
0010
0000
0000
0010
0000
0000
0010
0000
0100
0000
0000
0001
,
0000
0000
0100
0000
0010
0000
0000
1000
0000
0000
1000
0000
0010
0000
0000
0010
,
0000
0100
0200
0000
0300
0001
0100
0001
,
1000
0010
0200
0000
0300
0000
0010
1000
,
0100
0000
0010
0000
0001
0000
0000
1000
0000
0000
0001
0000
2002
0000
0000
0000
,
0000
0000
0000
0000
0000
0000
3003
0000
0010
0000
0100
0000
0010
0000
0000
0010
,
0000
0100
0020
0000
0030
0000
1000
0010
,
1000
0010
0200
0000
0300
0000
0001
0010
,
0001
0010
0001
0000
0100
0000
0110
0000
,
0000
0010
1000
0002
,
0003
0200
0300
0010
,
1000
0000
0100
0000
0010
0000
0010
0001
,
0100
0010
1000
0020
0000
0030
0200
0000
,
0300
0001
0010
0200
,
0300
0000
2000
0000
3000
0000
0010
1000
,
0010
1000
0010
1000
0010
1000
2020
0000
,
3030
0202
0303
0001
,
1000
0000
0001
0000
0001
0100
0001
0000
,
1000
0000
0010
0000
0100
0010
1000
0010
,
0100
0000
0010
1000
0010
0000
1000
0001
,
1000
0001
0100
0001
0010
0001
0100
0000
,
0100
0000
0010
0000
1000
0010
1000
0000
,
0100
0000
0010
0000
0001
0100
0001
0000
,
0000
0010
0100
2200
,
3300
0000
0000
0000
0022
0000
0000
0000
0033
0000
0000
0000
0001
0000
0000
1000
,
0000
0000
0001
0000
0100
0000
0000
0001
0000
0000
0001
0000
0100
0000
0000
0100
,
0000
0000
0010
0000
2000
0000
0000
0000
3000
0000
0000
0000
0100
0000
0000
0100
,
0000
0000
0010
0000
0010
0000
0000
0001
0000
0000
0001
0000
1000
0000
0000
1000
,
0000
0000
0010
0000
0020
0000
0000
0000
0030
0000
0000
0000
0100
0000
0000
0100
,
0000
0000
0010
0000
0010
0000
0000
1000
0000
0000
1000
0000
0001
0000
0000
0001
,
0000
0000
1000
0000
2000
0000
0000
0000
3000
0000
0000
0000
0001
0000
0000
0001
,
0000
0000
0100
0000
0100
0000
0000
0010
0000
0000
0010
0000
0010
0000
0000
0100
,
0000
0100
0200
0000
0300
0000
0110
0000
,
0010
0001
0100
0000
0010
1000
0100
0010
,
0001
0100
0200
0000
0300
0000
0010
1000
,
0001
0000
0100
0010
1000
0010
0100
0000
,
0000
0000
0110
0000
0000
0000
0010
0100
,
0010
0000
1000
0000
1000
0000
0001
0100
,
0001
0000
1000
0000
1000
0000
0100
0010
,
0001
0000
1000
0010
0100
0001
1000
0100
,
0010
0001
0100
0000
0100
0000
0110
0000
,
0000
0000
0000
0000
,
0000
0000
0000
0000
,
0000
0000
0000
0000
1000
0000
0000
0001
0100
0000
0000
0000
0010
0000
0000
0000
0100
0000
0000
0000
0010
0000
0000
0000
0100
0000
0000
0000
0000
0000
0000
0000
,
0000
0000
0000
0000
0010
1000
0010
1000
,
0010
1010
0000
0000
,
0000
0000
0100
0001
0100
0001
0100
0000
,
0100
0010
1000
0000
0001
0000
0100
0000
,
0010
0000
1000
0100
0010
0100
1000
0000
,
0000
0000
0000
0000
1000
0010
0100
0000
,
0001
0010
0100
0010
,
0001
0100
0000
0100
0020
0000
0000
0000
,
0000
0000
0030
0000
;

//--------------- dance-single - Alex ----------------
#NOTES:
     dance-single:
     Alex:
     Challenge:
     9:
     0.60368,1.000207,0.34305,0.304067,0.491186,542,498,44,39,60,0,0.60368,1.000207,0.34305,0.304067,0.491186,542,498,44,39,60,0:
0000
0000
0000
0000
,
0000
0000
0000
0000
,
0000
0000
0000
0000
,
0000
0000
0000
0000
,
0000
0001
1000
0010
1000
0001
0101
0100
,
0010
0000
1000
0000
1100
0000
0010
0000
0001
0000
0100
0000
0110
0000
0010
0100
,
0010
0000
1000
0000
0001
0000
0100
0000
0001
0000
1000
0000
0100
0010
0100
0010
,
0100
0000
0010
0001
0010
0001
0010
0000
0001
0100
0001
0100
0001
0000
0001
0100
,
0010
0000
0010
1000
0100
0000
1100
0000
0011
0000
0110
0000
0010
0000
1000
0000
,
0001
0100
0001
1000
0100
1000
0010
0100
,
0010
0000
0010
0000
1000
0000
1000
0000
0001
0000
0010
0000
0001
0010
0001
0100
,
0010
0100
0001
0010
0001
1000
0001
0100
0001
1000
0100
1000
0010
0100
0010
1000
,
0010
0100
0001
0010
0001
1000
0001
0100
0001
1000
0010
0100
0010
0000
0000
0000
,
0000
0000
0000
0000
,
0000
0000
0000
0000
0000
0000
0000
0000
0000
0000
0000
0000
0000
0000
0000
0000
0000
0000
0000
0000
0000
0000
0000
0000
0000
0000
0000
0000
0000
0M00
00M0
M000
,
M000
000M
0M00
00M0
M000
0M0M
00M0
0000
1000
0000
0000
0000
0010
0000
0000
0000
0100
0000
0000
0000
0001
0000
0000
0000
1001
0000
0000
0000
0000
0000
0000
0000
,
0000
0000
0000
0000
0000
0000
0000
0000
0000
M000
0000
0000
00M0
0000
0000
0M00
0000
0000
M00M
0000
00M0
0000
0000
0000
1000
0000
0000
0000
0000
0000
0010
0000
0000
0000
0000
0000
0100
0000
0000
0000
0000
0000
0001
0000
0000
0000
0000
0000
,
1000
0100
1100
0000
0000
0000
0000
0000
,
0000
0M0M
M0M0
0MMM
0000
0000
1000
0000
0000
0010
0000
0000
0010
0000
0000
0100
0000
0000
0101
0000
0000
0000
0000
0000
,
0001
0100
0010
1000
0100
0010
0022
0033
,
2200
3300
0010
0100
0001
1000
1001
0000
,
0000
0000
0000
0000
0000
0000
0000
M000
0MM0
MM0M
00MM
0000
1000
0000
0000
0010
0000
0000
1000
0000
0000
0001
0000
0000
,
0100
0000
0001
0000
0101
0000
0000
0110
0000
0000
1010
0000
0010
0000
1000
0000
,
0100
0011
0100
1000
2020
3030
0001
0100
,
0010
0000
1000
0000
1001
0000
0000
0110
0000
0000
1001
0000
0001
0000
0000
0010
,
0000
0000
0001
0000
0100
0000
0000
0010
0000
0000
0001
0000
0100
0000
0000
1000
,
0000
0000
0100
0000
0002
0000
0000
0003
0100
0000
0010
0000
1000
0000
0100
0000
,
0010
0001
0200
0300
0010
1000
0001
0010
,
0001
0000
0000
0000
0000
0000
0100
0000
0000
0000
0000
0000
0110
0000
0000
0000
0000
0000
0000
0000
0000
1010
0000
0000
0000
0000
0000
0000
0000
0000
1100
0000
0000
0000
0000
0000
0010
0000
0000
0000
0001
0000
0000
0000
0100
0000
0000
0000
,
0010
0000
0000
0000
0100
0000
0000
0000
0001
0000
0000
0000
0010
0000
0000
0000
0001
0000
0000
0000
1000
0000
0000
0000
0010
0000
0000
0000
0000
0000
0100
0000
0000
0000
0000
0000
0001
0000
0000
0000
0000
0000
1000
0000
0000
0100
0000
0000
,
0000
0100
1000
0000
0020
0000
0000
0030
0100
0000
0001
0000
0010
0000
0001
0000
,
1000
0010
0200
0300
0010
1000
0100
0010
,
0001
0100
0020
0030
1000
0001
1002
0000
,
0000
0003
0200
0300
0020
0030
2000
0000
,
0000
0000
3000
0000
0200
0000
0000
0000
0000
0300
0010
0000
0001
0000
0100
0000
,
0010
0100
0001
1000
0100
2000
3000
0010
,
0100
0001
1000
1020
0000
0030
0200
0000
,
0000
0300
0000
0000
0020
0000
0030
0000
2000
0000
3000
0000
0002
0000
0000
0000
,
0000
0003
0020
0000
0030
0001
0100
0010
,
0100
0000
0001
0000
0010
0000
0100
0000
1000
0000
0001
0000
0100
0000
0000
0010
,
0000
0000
2000
0000
0000
3000
0020
0000
0000
0030
0100
0000
0001
0000
0010
0001
,
0000
0001
0100
0000
0020
0000
0030
0000
1000
0001
0100
0001
1000
0000
0010
1000
,
0000
0000
0000
1000
0000
0000
0001
0000
0000
0000
0000
0000
0200
0000
0000
0000
0000
0000
0000
0000
0000
0300
0000
0000
0010
0000
0000
0000
1000
0000
0000
0000
0001
0000
0000
0000
0100
0000
0000
0000
0000
0000
0010
0000
0000
1000
0000
0000
,
0100
0010
0001
0000
0100
0000
0010
0000
1000
0010
0000
0010
1000
0000
0001
0100
,
0010
0100
0001
0000
1000
0000
0010
0100
0010
0000
0110
0000
0010
0000
1000
0000
,
0100
0010
0001
0100
0010
0100
0001
0010
,
0100
0000
1000
0000
0001
0000
0000
1000
0000
0000
0010
0000
0200
0000
0000
0300
,
0001
0000
0010
0000
0001
0000
0000
0011
0000
0000
0001
0000
0202
0000
0000
0000
,
0303
0000
0010
0000
2020
0000
0000
0000
3030
0000
0010
0000
0100
0000
0000
0001
,
0000
0000
0010
0000
0001
0000
0000
0100
0000
0000
0010
0000
1000
0000
0000
0100
,
0000
0000
0010
0000
0002
0000
0000
0003
0100
0000
0010
0000
1000
0000
0000
0001
,
0000
0000
0100
0000
0010
0000
0000
1000
0000
0000
0100
0000
1000
0000
0000
0010
,
0000
0000
0001
0000
0020
0000
0000
0030
0100
0000
0001
0000
0010
0000
0000
0001
,
0000
0000
0100
0000
0010
0000
0000
0001
0000
0000
0100
0000
1000
0000
0000
0100
,
0000
0000
0010
0000
0200
0000
0000
0300
0010
0000
0001
0000
0100
0000
0000
0100
,
0000
0000
0010
0000
1000
0000
0000
0100
0000
0000
0001
0000
0100
0000
0000
1000
,
0000
0010
0100
0001
0010
0100
1100
1000
,
0010
0000
0100
0000
0101
0000
0001
0000
1000
0000
0010
0000
1010
0000
0010
1000
,
0010
0000
0100
0000
0001
0000
1000
0000
0100
0000
1000
0000
0010
0100
0010
0100
,
0010
0000
0010
1000
0010
1000
0010
0000
1000
0001
1000
0001
1000
0000
0001
0100
,
0001
0000
1000
0010
1000
0000
0101
0000
0110
0000
1010
0000
0010
0000
1000
0000
,
0100
0010
0001
0100
0010
0100
0001
0010
,
0001
0000
0100
0000
0100
0000
0010
0000
0010
0000
1000
0000
0001
1000
0001
0100
,
0001
0010
0001
0100
0010
0100
0001
0010
0001
1000
0100
1000
0010
0100
0010
1000
,
0010
0100
0010
1000
0100
0010
0001
0100
0010
1000
0001
0100
0001
0000
0000
0000
,
0000
0000
0000
0000
,
0000
0000
0000
0000
0000
0000
0000
0000
0000
0000
0000
0000
0000
0000
0000
0000
0000
0000
0000
0000
0000
0000
0000
0000
0000
0000
0000
0000
0000
0000
0000
M000
,
000M
0000
0000
0000
0000
0000
0M00
0000
0000
0000
0000
0000
0MM0
0000
0000
0000
0000
0000
0000
0000
0000
0000
0000
0000
2000
0000
0000
0000
3000
0000
0000
0000
0000
0000
0000
0000
0000
0000
0000
0000
0000
0000
0020
0000
0000
0030
0000
0000
0100
0000
0000
0000
0000
0000
0000
0000
0000
0000
0000
0000
0000
0000
0000
0000
0000
0000
0000
0000
0000
0000
0000
0000
0001
0000
0000
0000
0000
0000
0000
0000
0000
0000
0000
0000
0000
0000
0000
0000
0000
0000
0000
0000
0000
0000
0000
0000
0010
0000
0000
0000
0000
0000
0000
0000
0000
0000
0000
0000
0000
0000
0000
0000
0000
0000
0000
0000
0000
0000
0000
0000
0100
0000
0000
0000
0000
0000
0000
0000
0000
0000
0000
0000
0000
0000
0000
0000
0000
0000
0000
0000
0000
0000
0000
0000
1100
0000
0000
0000
0000
0000
0000
0000
0000
0000
0000
0000
0000
0000
0000
0000
0000
0000
0000
0000
0000
0000
0000
0000
0000
0000
0000
0000
0000
0000
0000
0000
0000
0000
0000
0000
0000
0000
0000
0000
0000
0000
0000
0000
0000
0000
0000
0000
,
0000
0000
0000
0000
0000
0000
0000
0000
0000
0000
MM0M
M0M0
0M00
000M
00M0
0000
1000
0000
0000
0000
0010
0000
0000
0000
0100
0000
0000
0000
0001
0000
0000
0000
,
1000
0001
1001
0000
0000
0000
0000
0000
,
0000
0000
0000
0MM0
M00M
0M00
00MM
0000
1000
0000
0000
0000
0010
0000
0000
0000
0100
0000
0000
0000
0001
0000
0000
0000
0011
0000
0000
0000
0000
0000
0000
0000
,
0001
0001
0100
0010
1000
0100
1100
0000
,
0011
0000
0001
0100
0010
1000
1001
0000
,
0000
0000
0000
0000
0000
0000
M000
00M0
0M00
M00M
0MM0
000M
1000
0000
0000
0010
0000
0000
0100
0000
0000
0001
0000
0000
,
0010
0000
0100
0000
1000
0000
0000
0010
0000
0000
0100
0000
0011
0000
0100
0000
,
0010
1010
0100
0001
2002
0000
0000
0000
,
0000
0000
0000
0000
,
0000
0000
0000
3003
;
