#TITLE:Super;
#SUBTITLE:;
#ARTIST:Seventeen;
#TITLETRANSLIT:;
#SUBTITLETRANSLIT:;
#ARTISTTRANSLIT:;
#GENRE:;
#CREDIT:;
#MUSIC:Super.ogg;
#BANNER:Super.png;
#BACKGROUND:Super-BG.png;
#CDTITLE:;
#SAMPLESTART:70.050;
#SAMPLELENGTH:15.429;
#SELECTABLE:YES;
#OFFSET:-0.579;
#BPMS:0.000=137.000;
#STOPS:;
#BGCHANGES:16.000=Super.avi=1.000=1=0=0=StretchNoLoop==CrossFade==,
293.000=Super-BG.png=1.000=1=0=1===CrossFade==,
99999.000=-nosongbg-=1.000=0=0=0=StretchNoLoop====
;
#FGCHANGES:;

//--------------- dance-single - Alex ----------------
#NOTES:
     dance-single:
     Alex:
     Beginner:
     1:
     0.087662,0.144067,0.039336,0,0,78,73,5,0,0,0,0.087662,0.144067,0.039336,0,0,78,73,5,0,0,0:
0000
0000
0000
0000
,
0000
0000
0000
0000
,
0000
0000
0000
0000
,
0000
0000
0000
0000
,
0000
0000
0000
0000
,
0000
0000
0000
0000
,
0000
0000
0000
0000
,
0000
0000
0000
0000
,
1000
0000
0000
0000
,
0001
0000
0000
0000
,
0100
0000
0000
0000
,
0001
0000
0000
0000
,
0001
0000
0000
0000
,
1000
0000
0000
0000
,
1000
0000
0000
0000
,
0010
0000
0000
0000
,
1001
0000
0000
0000
,
0001
0000
0001
0000
,
0001
0000
0000
0000
,
1000
0000
1000
0000
,
1000
0000
0000
0000
,
0100
0000
0100
0000
,
0100
0000
0000
0000
,
1000
0000
0000
0000
,
0001
0000
0000
0000
,
1000
0000
0000
0000
,
0010
0000
0000
0000
,
1000
0000
0000
0000
,
0001
0000
0000
0000
,
1000
0000
0000
0000
,
0010
0000
0000
0000
,
0100
0000
0100
0000
,
0100
0000
0000
0000
,
0000
0000
0000
0000
,
0010
0000
0000
0000
,
1000
0000
1000
0000
,
1000
0000
0000
0000
,
0000
0000
0000
0000
,
0001
0000
0000
0000
,
1000
0000
0000
0000
,
1001
0000
0000
0000
,
0010
0000
0000
0000
,
1000
0000
0000
0000
,
0001
0000
0000
0000
,
0100
0000
0000
0000
,
0001
0000
0000
0000
,
1000
0000
0000
0000
,
0010
0000
0010
0000
,
0010
0000
0000
0000
,
0110
0000
0000
0000
,
1000
0000
0000
0000
,
0001
0000
0000
0000
,
0000
0000
0000
0000
,
0001
0000
0000
0000
,
0100
0000
0000
0000
,
0010
0000
0000
0000
,
0010
0000
0000
0000
,
1000
0000
1000
0000
,
1000
0000
0000
0000
,
0001
0000
0001
0000
,
0001
0000
0000
0000
,
0100
0000
0100
0000
,
0100
0000
0000
0000
,
0010
0000
0000
0000
,
1001
0000
0000
0000
,
0001
0000
0000
0000
,
1000
0000
0000
0000
,
0100
0000
0000
0000
,
0010
0000
0000
0000
,
0001
0000
0000
0000
,
1000
0000
0001
0000
,
2000
0000
0000
0000
,
3000
0000
0000
0000
;

//--------------- dance-single - Alex ----------------
#NOTES:
     dance-single:
     Alex:
     Easy:
     3:
     0.20005,0.288626,0.11014,0.023601,0,178,164,14,3,0,0,0.20005,0.288626,0.11014,0.023601,0,178,164,14,3,0,0:
0000
0000
0000
0000
,
0000
0000
0000
0000
,
0000
0000
0000
0000
,
0000
0000
0000
0000
,
0000
0000
0000
0000
,
0000
0000
0000
0000
,
0000
0000
0000
0000
,
0000
0000
0100
0100
,
0100
0000
0010
0000
,
1000
0000
0001
0000
,
1000
0000
0100
0000
,
1000
0000
0010
0000
,
1000
0000
0001
0000
,
0010
0000
0001
0000
,
0100
0000
0010
0000
,
1000
0000
0001
0000
,
1001
0000
1000
1000
,
0001
0001
1000
0001
,
1000
0000
0001
0001
,
1000
1000
0001
1000
,
0001
0000
0100
0100
,
0010
0010
0100
0010
,
0100
0000
0000
0010
,
0010
0010
0010
0000
,
1001
0000
0001
0000
,
0010
0000
0001
0000
,
1000
0000
0100
0000
,
1000
0000
0010
0000
,
1000
1000
1000
0000
,
0001
0001
0001
0000
,
0100
0100
0100
0000
,
0220
0000
0000
0330
,
1001
0000
0001
1000
,
0000
0000
0010
0100
,
0001
0000
1000
0100
,
0000
0000
1000
0010
,
0100
0000
0001
1000
,
0000
0000
0001
0010
,
0001
0000
1000
0010
,
0000
0000
0100
0010
,
1001
0000
1001
0000
,
0010
0010
0010
0000
,
1010
0000
1010
0000
,
0100
0100
0100
0000
,
1001
0000
1001
0000
,
0001
0001
0001
0000
,
0011
0000
0011
0000
,
0001
0001
1000
1000
,
1001
0000
0000
0000
,
0001
0000
1000
0000
,
0001
0000
0100
0000
,
0010
0000
0100
0000
,
0000
0000
0100
0100
,
0100
0000
0000
0000
,
0010
0000
0000
0000
,
1000
0000
0001
0000
,
1000
0000
0001
0001
,
1000
1000
0001
1000
,
0001
0000
1000
1000
,
0010
0010
1000
0010
,
1000
0000
0001
0001
,
0100
0100
0001
0100
,
0001
0000
0000
1000
,
0010
1000
0010
0000
,
1010
0000
0010
0000
,
1000
0000
0001
0000
,
1000
0000
0100
0000
,
1000
0000
0001
0000
,
0100
0100
0100
0000
,
0001
0001
0001
0000
,
1000
1000
1000
0000
,
0010
0010
0010
0010
,
0020
0030
0000
0000
0000
0000
0000
0000
;

//--------------- dance-single - Alex ----------------
#NOTES:
     dance-single:
     Alex:
     Medium:
     5:
     0.342783,0.375213,0.125874,0.094406,0.031469,305,289,16,12,8,0,0.342783,0.375213,0.125874,0.094406,0.031469,305,289,16,12,8,0:
0000
0000
0000
0000
,
0000
0000
0000
0000
,
0000
0000
0000
0000
,
0000
0000
0000
0000
,
0001
1000
0001
1000
,
0001
0100
0010
0100
,
0001
1000
0100
0010
,
1001
0000
0000
0000
0001
0100
0001
0000
,
1000
0010
1000
0001
,
0100
0010
0100
0100
,
0001
1000
0100
1000
,
1000
0001
0010
0001
,
0100
0010
0100
0001
,
1000
0100
0010
0100
,
1000
0001
0100
0010
,
0100
0001
1001
1001
,
0000
0000
0000
0000
0001
0100
0001
0000
,
1000
0010
1000
0000
0001
0010
0001
0010
,
0002
0000
0003
0000
0100
0010
0100
0000
,
0001
1000
0001
0000
1000
0100
1000
0100
,
2000
0000
3000
0000
0010
1000
0010
0000
,
1000
0001
1000
0000
0001
0100
0001
0100
,
0002
0000
0003
0000
0000
0000
1000
0010
,
1000
0010
1000
0000
1010
0000
0000
0000
,
0010
0000
0000
0100
0000
0000
0010
0000
0100
0000
0000
0000
0000
0000
0000
0000
,
0100
0000
0000
0001
0000
0000
0100
0000
0001
0000
0000
0000
0000
0000
0000
0000
,
1000
0000
0000
0010
0000
0000
1000
0000
0010
0000
0000
0000
0000
0000
0000
0000
,
1000
0000
0000
0001
0000
0000
1000
0000
0001
0000
0000
0000
0100
0000
0001
0000
,
1000
0001
0010
0100
,
1000
0010
0100
0001
,
1000
0100
0010
0100
,
1000
0000
0001
0000
0100
0000
0010
0100
,
0020
0000
0030
0000
1000
0010
1000
0020
,
0000
0030
0000
0000
0100
0001
0100
0001
,
0200
0000
0300
0000
0001
1000
0001
0000
,
1000
0010
0100
0001
,
1001
0001
0100
0010
,
2000
0000
3000
0000
0001
0100
0001
0100
,
0001
1000
0100
0010
,
0001
0100
0010
1000
,
1001
0001
1001
1000
,
0010
0100
0001
1000
,
1100
1000
1010
0010
,
0100
0100
0001
1000
,
1001
0001
0011
0001
,
0100
0100
0001
1000
,
1010
0010
0110
0100
,
0001
0000
1000
0000
0100
0000
0010
0001
,
2000
0000
3000
0000
,
0010
0010
0100
0100
,
0001
1000
0100
1000
,
0001
0100
0010
1000
,
00M0
0M00
00M0
0M00
,
1000
0001
1000
0001
,
2000
0000
3010
0000
,
0010
0100
0010
0100
,
0110
0000
0000
0000
0001
0100
0001
0000
,
1000
0100
1000
0000
0010
1000
0010
1000
,
0020
0000
0030
0000
0100
0001
0100
0000
,
0001
0010
0001
0000
1000
0100
1000
0100
,
2000
0000
3000
0000
0010
1000
0010
0000
,
1000
0001
1000
0000
0001
0100
0001
0100
,
0002
0000
0003
0000
0000
0000
1000
0100
,
0010
0001
1000
0000
1001
0000
0000
0000
,
0001
0000
0000
1000
0000
0000
0001
0000
1000
0000
0000
0000
0000
0000
0000
0000
,
0010
0000
0000
0100
0000
0000
0001
0000
1000
0000
0000
0000
0000
0000
0000
0000
,
0100
0000
0000
0010
0000
0000
0001
0000
0100
0000
0000
0000
0000
0000
0000
0000
,
0010
0000
0000
1000
0000
0000
0010
0000
1000
0000
0000
0000
0001
0000
0100
0000
,
0010
1000
0100
0010
,
0100
1000
0001
0100
,
0100
0010
1000
0001
,
0010
0000
0001
0000
0100
0000
0010
1000
,
0002
0003
0000
0000
0000
0000
0000
0000
;

//--------------- dance-single - Alex ----------------
#NOTES:
     dance-single:
     Alex:
     Hard:
     8:
     0.449551,0.489828,0.094406,0.22028,0.121941,400,388,12,28,14,0,0.449551,0.489828,0.094406,0.22028,0.121941,400,388,12,28,14,0:
0000
0000
0000
0000
,
0000
0000
0000
0000
,
0000
0000
0000
0000
,
0000
0000
0000
0000
,
0001
0100
0010
1000
,
0100
0010
0001
1000
,
0010
0100
0001
1000
,
0001
0000
0010
0100
1000
0001
0020
0000
,
0031
0000
0000
0100
0000
0000
0010
0000
1000
0000
0100
0000
0010
0000
0000
0000
,
0001
0000
0000
0000
0100
0000
0000
0000
0010
0000
0000
1000
0000
0000
0001
0000
,
0100
0000
0000
0010
0000
0000
1000
0000
0001
0000
0010
0000
0100
0000
0000
0000
,
1000
0000
0000
0000
0001
0000
0000
0000
0100
0000
0000
0010
0000
0000
1000
0000
,
0100
0000
0000
0100
0000
0000
1000
0000
0010
0000
1000
0000
0001
0000
0000
0000
,
0100
0000
0000
0000
0001
0000
0000
0000
0010
0000
0000
0100
0000
0000
0010
0000
,
0001
0100
0010
0000
1000
0100
0010
0000
,
0001
1000
0010
0100
0001
1000
0001
0000
,
1000
0000
0000
0000
1010
0000
0000
0000
0010
0000
0000
0100
0000
0000
0001
0000
,
1000
0000
0000
0100
0000
0000
1000
0000
0001
0000
0100
0000
0010
0000
1000
0000
,
0001
0000
0000
0000
0010
0000
0000
0000
0100
0000
0000
1000
0000
0000
0001
0000
,
0100
0000
0000
0010
0000
0000
1000
0000
0001
0000
0010
0000
0001
0000
0100
0000
,
0010
0000
0000
0000
1000
0000
0000
0000
0001
0000
0000
0001
0000
0000
0100
0000
,
0010
0000
0000
0010
0000
0000
1000
0000
0100
0000
0010
0000
0001
1000
0000
0000
,
0010
0000
0100
0000
0001
0000
1000
0100
,
1000
0001
0100
0010
2000
0000
3000
0000
,
0001
0000
0000
0001
0000
0000
1000
0000
0010
0000
0000
0000
0100
0000
0001
0000
,
1000
0000
0000
0100
0000
0000
0010
0000
0001
0000
0000
0000
0100
0000
0010
0000
,
0100
0000
0000
0001
0000
0000
1000
0000
0001
0000
0000
0000
0100
0000
0100
0000
,
0001
0000
0000
0010
0000
0000
0001
0000
0100
0000
0000
0000
0010
0000
1000
0000
,
0200
2300
3020
0032
,
0013
1000
0200
0000
0320
0000
0031
0100
,
0010
1000
0100
0010
0001
1000
0010
0000
,
0100
0001
0010
0100
1000
0010
0100
0001
,
1001
0000
0000
0000
0001
0100
0010
2000
,
0000
3000
0000
0000
0001
0100
0010
1000
,
1001
0000
0000
0000
0001
0010
0001
0000
,
0100
0010
0100
0001
0010
0100
1000
0001
,
1002
0203
0320
2030
,
3200
0000
0000
0300
0010
0001
1000
0010
,
0200
0000
0302
0000
0013
0100
1000
0000
,
0001
0100
0010
0100
0001
1000
0100
1000
,
1100
0000
1000
0010
0100
0000
0001
0010
,
0100
1000
0001
0100
0010
0000
1000
0001
,
0011
0000
0001
0100
0010
0000
0100
0001
,
0010
0001
0100
0010
1000
0000
0001
1000
,
1100
0000
0100
1000
0010
0000
0010
0100
,
0001
0100
0010
1000
0001
0000
0010
0100
,
1000
0000
0001
0100
0010
0000
1001
0000
,
0001
0100
0010
1000
0100
0010
0001
1000
,
1001
0000
MMMM
0000
,
0001
0100
0001
1000
0010
0100
0001
1000
,
0100
0010
0100
1000
0001
0100
0010
0100
,
0001
0010
0100
1000
0001
0100
0010
1000
,
M00M
M00M
0010
0000
0010
0000
0010
0000
,
1000
0000
0000
0001
0000
0000
1000
0000
0010
0000
0000
0100
0000
0000
0001
0000
,
0020
0030
0001
1000
,
0001
0000
0000
0100
0000
0000
0010
0000
1000
0000
0001
0000
0000
1000
0000
0000
,
2002
0000
0000
0000
3003
0000
0000
0000
1000
0000
0000
0010
0000
0000
1000
0000
,
0001
0000
0000
0100
0000
0000
0001
0000
1000
0000
0100
0000
0010
0000
0001
0000
,
0200
0000
0000
0000
0300
0000
0000
0000
0001
0000
0000
0100
0000
0000
0001
0000
,
1000
0000
0000
0010
0000
0000
1000
0000
0001
0000
0010
0000
0001
0000
0100
0000
,
0020
0000
0000
0000
0030
0000
0000
0000
1000
0000
0000
0001
0000
0000
1000
0000
,
0010
0000
0000
1000
0000
0000
0001
0000
0100
0000
0010
0000
1000
0000
0100
0000
,
0020
0000
0030
0000
0000
0000
0001
0100
,
0010
0100
0001
1000
0200
0000
0300
0000
,
1000
0000
0000
0001
0000
0000
1000
0000
0010
0000
0000
0000
0100
0000
0001
0000
,
1000
0000
0000
0001
0000
0000
0001
0000
0010
0000
0000
0000
0001
0000
0100
0000
,
0010
0000
0000
0010
0000
0000
1000
0000
0001
0000
0000
0000
1000
0000
0100
0000
,
0010
0000
0000
0001
0000
0000
0100
0000
0010
0000
0000
0000
1000
0000
0001
0000
,
0020
0230
2300
3020
,
0130
0001
0020
0000
0032
0000
0103
0010
,
1000
0100
0010
0001
0100
0010
1000
0000
,
0001
0010
0100
1000
0001
0100
0010
1000
,
1MM1
0000
0000
0000
;

//--------------- dance-single - Alex ----------------
#NOTES:
     dance-single:
     Alex:
     Challenge:
     9:
     0.650725,0.749148,0.802448,0.503497,0.259616,579,477,102,64,28,0,0.650725,0.749148,0.802448,0.503497,0.259616,579,477,102,64,28,0:
0000
0000
0000
0000
,
0000
0000
0000
0000
,
0MM0
00M0
00M0
00M0
00M0
00M0
00M0
0000
,
MMMM
000M
000M
000M
000M
000M
000M
0000
,
1000
0010
0100
0001
,
0010
0100
1000
0001
,
0100
0010
1000
0100
,
0010
0001
0100
0010
1000
0001
0010
0001
,
0011
0000
0001
0010
0000
0001
0010
0000
0100
0000
1000
0000
1001
0000
0000
0000
,
0010
0000
0000
0000
0010
0000
0000
0000
0100
0000
0000
0001
0000
0000
1000
0000
,
0001
1000
0000
0001
0000
1000
0010
0000
0100
0000
0001
0000
1000
0000
0100
0000
,
1100
0000
0000
0000
1000
0000
0000
0000
0010
0000
0000
0001
0000
0000
0100
0000
,
0001
0100
0000
0001
0000
0100
0001
0000
0100
0000
0010
0000
1000
0000
0001
0000
,
0011
0000
0000
0000
0001
0000
0000
0000
0100
0000
0000
1000
0000
0000
0100
0000
,
0010
0001
1000
0010
1000
0001
0011
0000
,
0001
0100
0010
1000
0100
0010
0011
0000
,
0001
0000
0100
0000
0010
0000
1000
0000
0001
0100
0000
0001
0100
0000
0010
0000
,
1000
0010
0000
1000
0010
0000
0100
0000
0002
0000
2003
0000
3200
0000
0320
0000
,
0032
0000
0000
0000
0103
0000
0000
0000
0010
1000
0000
0010
1000
0000
0001
0000
,
0100
0001
0000
0100
0001
0000
0100
0000
0020
0000
0230
0000
2300
0000
3002
0000
,
0203
0000
0000
0000
0310
0000
0000
0000
0010
1000
0000
0010
1000
0000
0001
0000
,
1000
0100
0000
1000
0100
0000
0010
0000
0002
0000
0203
0000
0320
0000
0230
0000
,
0302
0000
0010
0000
0100
0003
1000
0100
,
0001
0100
1000
0010
0100
0001
1000
0000
,
1001
0000
0000
1010
0000
0000
0101
0000
0011
0000
0000
0000
0101
0000
0110
0000
,
1010
0000
0000
1100
0000
0000
0011
0000
0011
0000
0000
0000
0101
0000
0110
0000
,
0101
0000
0000
1001
0000
0000
1010
0000
1001
0000
0000
0000
0011
0000
0101
0000
,
0110
0000
0000
1010
0000
0000
1100
0000
0011
0000
0000
0000
0101
0000
0110
0000
,
2020
3030
0202
0303
0022
0033
2200
3300
,
0101
0110
2020
3030
0022
0033
0101
0110
,
0010
1000
0100
0010
0100
1000
0010
0100
,
0001
0001
1000
1000
0010
0100
0001
1000
,
1002
0000
0000
0003
0100
0010
1000
0200
,
0000
0300
0011
0000
0001
0100
1000
0100
,
0002
0000
0003
0000
1000
0010
1020
0000
,
0130
1000
0100
0010
0001
1000
0010
0100
,
0102
0000
0003
0000
0100
0010
1000
0002
,
0000
0000
0103
0000
1000
0100
0010
0001
,
1002
0000
0003
0000
0100
0010
0120
0000
,
0130
0000
0001
0000
1000
0000
0100
0000
0010
0000
0001
0100
0010
0000
0100
0000
,
0001
0000
1000
0100
0010
0000
0001
0000
1000
0000
0010
1000
0001
0000
0100
0000
,
0010
0000
0000
0000
1000
0000
0000
0000
0100
0000
0000
0000
1000
0000
0000
0000
0000
0000
0001
0000
0000
0000
0000
0000
0100
0000
0000
0000
0000
0000
0010
0000
0000
0100
0000
0000
0001
0000
0000
0000
0000
0000
1000
0000
0000
0000
0000
0000
,
0001
0000
0010
0100
1000
0000
0001
0000
0100
0000
0010
0100
0010
0000
1000
0000
,
0001
0100
0000
0001
0100
0000
0010
0000
1000
0000
0001
1000
0001
0000
1000
0000
,
0010
0000
1000
0010
1000
0000
0010
0000
0100
0000
0001
0100
0001
0000
1000
0000
,
0001
0000
0000
0000
0010
0000
0000
0000
0100
0000
0000
0000
1000
0000
0000
0000
0000
0000
0001
0000
0000
0000
0000
0000
0100
0000
0000
0000
0000
0000
0010
0000
0000
0100
0000
0000
0001
0000
0000
0000
0000
0000
1000
0000
0000
0000
0000
0000
,
0100
0000
0010
0001
0100
0000
0010
0000
0100
0000
0000
0000
1001
0000
0000
0000
,
0001
1001
1000
1010
0010
0110
0100
0101
,
2002
0000
3003
0000
0001
0000
0100
0000
0010
0000
1000
0100
1000
0000
0010
0000
,
1010
0010
0110
0100
0101
0001
0011
0100
,
1100
1000
1001
0001
0101
0100
0110
0010
,
1010
1000
1001
0001
0011
0001
0101
0010
,
MMMM
MMMM
0110
0000
0101
0000
1001
0000
,
0001
0000
0000
0100
0000
0000
1000
0000
0100
0000
0001
0100
0001
0000
1000
0000
,
0010
0000
0000
0010
0100
0000
0001
0000
1000
0000
0000
0100
0010
0000
0001
0000
,
0100
0000
0000
0100
0000
0000
0001
0000
1000
0000
0010
0000
0100
0000
0001
0000
,
1001
0000
0000
0000
0001
0000
0100
0000
0001
0100
0000
0001
0100
0000
0010
0000
,
1000
0010
0000
1000
0010
0000
1000
0000
0002
0000
0023
0000
0230
0000
2300
0000
,
3002
0000
0000
0000
1003
0000
0000
0000
1000
0010
0000
1000
0010
0000
1000
0000
,
0001
0100
0000
0001
0100
0000
0010
0000
0200
0000
0302
0000
0023
0000
0230
0000
,
0320
0000
0000
0000
0031
0000
0000
0000
0001
1000
0000
0001
1000
0000
0010
0000
,
0100
0001
0000
0100
0001
0000
1000
0000
0200
0000
2300
0000
3020
0000
0032
0000
,
0023
0000
0130
0000
1000
0000
0001
0100
,
0010
0100
0001
1000
0100
1000
0001
0000
,
0101
0000
0000
0110
0000
0000
1010
0000
1100
0000
0000
0000
0011
0000
0101
0000
,
0110
0000
0000
0101
0000
0000
1001
0000
1010
0000
0000
0000
1010
0000
1100
0000
,
0110
0000
0000
0101
0000
0000
0110
0000
1001
0000
0000
0000
0011
0000
0101
0000
,
0110
0000
0000
1010
0000
0000
1100
0000
0011
0000
0000
0000
0101
0000
0110
0000
,
0202
0303
0022
0033
2002
3003
2020
3030
,
0110
0101
0022
0033
2002
3003
1010
0010
,
1000
0100
0001
0100
1000
0010
0100
0001
,
0010
0010
0100
0100
0001
0010
1000
0100
,
11MM
0000
0000
0000
;
