#TITLE:Super Board;
#SUBTITLE:;
#ARTIST:Stray Kids;
#TITLETRANSLIT:;
#SUBTITLETRANSLIT:;
#ARTISTTRANSLIT:;
#GENRE:;
#CREDIT:;
#MUSIC:Super Board.ogg;
#BANNER:Super Board.png;
#BACKGROUND:Super Board-BG.png;
#CDTITLE:;
#SAMPLESTART:40.141;
#SAMPLELENGTH:25.716;
#SELECTABLE:YES;
#OFFSET:0.048;
#BPMS:0.000=103.000
,146.667=92.000
,146.750=85.000
,146.833=75.000
,146.875=50.000
,146.917=8.500
,147.000=154.500
,147.750=51.500
,148.000=154.500
,148.375=51.500
,148.500=154.500
,148.875=51.500
,149.000=154.500
,149.375=51.500
,149.500=154.500
,149.875=51.500
,150.000=154.500
,150.375=51.500
,150.500=154.500
,150.875=51.500
,151.000=154.500
,151.375=51.500
,151.500=154.500
,151.875=51.500
,152.000=154.500
,152.375=51.500
,152.500=154.500
,152.875=51.500
,153.000=154.500
,153.375=51.500
,153.500=154.500
,153.875=51.500
,154.000=154.500
,154.375=51.500
,154.500=154.500
,154.875=51.500
,155.000=154.500
,155.375=51.500
,155.500=154.500
,155.875=51.500
,156.000=154.500
,156.375=51.500
,156.500=154.500
,156.875=51.500
,157.000=154.500
,157.375=51.500
,157.500=154.500
,157.875=51.500
,158.000=154.500
,158.375=51.500
,158.500=154.500
,158.875=51.500
,159.000=154.500
,159.375=51.500
,159.500=154.500
,159.875=51.500
,160.000=154.500
,160.375=51.500
,160.500=154.500
,160.875=51.500
,161.000=154.500
,161.375=51.500
,161.500=154.500
,161.875=51.500
,162.000=154.500
,162.375=51.500
,162.500=154.500
,162.875=51.500
,163.000=103.000
;
#STOPS:;
#DISPLAYBPM:103.000;
#BGCHANGES:2.500=Super Board.avi=1.000=1=0=0=StretchNoLoop==CrossFade==,
99999.000=-nosongbg-=1.000=0=0=0=StretchNoLoop====
;
#FGCHANGES:;

//--------------- dance-single - Alex ----------------
#NOTES:
     dance-single:
     Alex:
     Beginner:
     1:
     0.064828,0.104886,0.051373,0,0,53,47,6,0,0,0,0.064828,0.104886,0.051373,0,0,53,47,6,0,0,0:
0000
0000
0000
0000
,
0000
0000
0000
0000
,
0000
0000
0000
0000
,
0000
0000
0000
0000
,
0000
0000
0000
0000
,
0000
1000
0000
0000
,
0000
0001
0000
0000
,
0000
0001
0000
0000
,
0000
0100
0000
0000
,
0000
0010
0000
0000
,
0000
0010
0000
0000
,
0000
0100
0000
0000
,
0000
0001
0000
0000
,
0000
1000
0000
0000
,
0000
1000
0000
0000
,
0000
0010
0000
0000
,
0000
0100
0000
0000
,
0000
1001
0000
0000
,
0000
0010
0000
0000
,
0000
1000
0000
0000
,
0000
0001
0000
0000
,
0000
1001
0000
0000
,
0000
0001
0000
0000
,
0000
0100
0000
0000
,
0000
0100
0000
0000
,
0000
0110
0000
0000
,
0000
0010
0000
0000
,
0000
1000
0000
0000
,
0000
1000
0000
0000
,
0000
1001
0000
0000
,
0000
0001
0000
0000
,
0000
0100
0000
0000
,
0000
0100
0000
0000
,
0000
0010
0000
0000
,
0000
0010
0000
0000
,
0000
0100
0000
0100
,
0000
0110
0000
0000
,
0010
0000
0000
0000
,
0100
0000
0000
0000
,
0001
0000
0000
0000
,
1000
0000
0001
0000
,
1000
0000
0000
0000
,
0010
0000
0000
0000
,
1000
0000
0000
0000
,
0001
0000
0000
0000
,
1000
0000
0000
0000
,
0010
0000
0000
0000
,
0100
0000
0000
0000
,
0001
0000
0000
0000
,
1001
0000
0000
0000
;

//--------------- dance-single - Alex ----------------
#NOTES:
     dance-single:
     Alex:
     Easy:
     3:
     0.140664,0.167818,0.068497,0.051373,0,115,107,8,6,0,0,0.140664,0.167818,0.068497,0.051373,0,115,107,8,6,0,0:
0000
0000
0000
0000
,
0000
0000
0000
0000
,
0000
0000
0000
0000
,
0000
0000
0000
0000
,
0000
0000
0000
0000
,
0000
0010
0000
0010
,
0000
1000
0000
0001
,
0000
1000
0000
0100
,
0000
0010
0000
1001
,
0000
0010
0000
0100
,
0000
0001
0000
0001
,
0000
1000
0000
1000
,
0000
0010
0000
0100
,
0000
1001
0000
0001
,
0000
1000
0000
1000
,
0000
0010
0000
0010
,
0000
0220
0000
0330
,
0000
0000
0100
0100
,
0100
0000
0010
0010
,
0010
0000
1000
1000
,
1000
0000
0001
0000
,
1001
0000
0001
0001
,
0001
0000
0100
0100
,
0100
0000
0010
0010
,
0010
0000
1000
0000
,
1001
0000
1000
1000
,
0001
0000
0001
0001
,
1000
0000
0010
0010
,
0100
0000
0010
0000
,
1001
0001
0000
1000
,
0000
0010
0000
0100
,
0000
0001
0000
1000
,
0000
0100
0100
0100
,
0000
1000
0000
0010
,
0000
0100
0000
0001
,
0000
1000
1000
0010
,
0010
0100
0100
0000
,
0000
0010
0000
0010
0000
0010
0000
0010
,
0000
0200
0000
0000
0000
0000
0000
0300
,
0000
0001
0000
0001
0000
0001
0000
0001
,
0000
2000
0000
0000
0000
0000
0000
3000
,
0000
0100
0100
0001
,
0000
0001
0001
1000
,
0000
1000
1000
0010
,
0000
0010
0000
0110
,
0000
0100
0100
0001
,
0000
0001
0001
1000
,
0000
1000
1000
0100
,
0000
0010
0000
2002
,
3003
0000
0000
0000
;

//--------------- dance-single - Alex ----------------
#NOTES:
     dance-single:
     Alex:
     Medium:
     5:
     0.200599,0.251727,0.085622,0.136995,0,164,154,10,16,0,0,0.200599,0.251727,0.085622,0.136995,0,164,154,10,16,0,0:
0000
0000
0000
0000
,
0000
0000
0000
0000
,
0000
0000
0000
0000
,
0000
0000
0000
0000
,
0000
0000
0000
0000
,
0000
0000
1000
0001
,
0020
0030
0000
0000
0001
0000
1000
0000
,
0200
0300
0000
0000
1000
0000
0010
0000
,
0200
0300
0000
0000
1001
0000
0000
0000
,
0110
0000
0010
0100
,
0010
0000
1000
0001
,
1000
0000
0001
0010
,
0001
0000
1000
0100
,
1000
0000
0010
0100
,
0001
0000
1000
0001
,
1000
0000
0001
1000
0001
0000
1000
0001
,
1000
0010
0100
0220
,
0000
0330
0010
0100
,
0020
0030
0000
0000
1000
0000
0001
0000
,
2000
3000
0000
0000
0001
0000
0100
0000
,
0002
0003
0000
0000
1001
0000
0000
0000
,
0110
0010
0010
0100
,
0001
0010
0001
0001
,
1000
0010
0100
0001
,
1000
0100
0010
2002
,
0000
3003
0001
0100
,
0100
0010
1000
0100
,
0010
0001
0100
0100
,
0010
1000
0001
2002
,
3003
0001
1000
0001
,
0000
1000
0001
1000
,
0000
0010
0100
0010
,
0000
0100
0010
0100
,
0000
0001
0010
0001
,
0000
1000
0100
1000
,
0000
0010
0100
0001
,
1000
0001
1001
0000
,
0000
0010
0000
0100
0000
0010
0000
0100
,
0000
0001
1000
0001
1000
0001
1000
0001
,
0000
1000
0000
0010
0000
0100
0000
0001
,
0000
0010
0100
0010
0100
0010
0100
0010
,
0100
1000
0010
0100
,
0001
0001
1000
0010
,
0100
0100
0001
0010
,
0100
1000
2002
0000
,
3003
0001
0100
0010
,
0010
1000
0100
0010
,
0001
0001
0100
0100
,
0010
1000
0001
2002
,
3003
0000
0000
0000
;

//--------------- dance-single - Alex ----------------
#NOTES:
     dance-single:
     Alex:
     Hard:
     8:
     0.341263,0.356614,0.179805,0.136995,0.047092,279,258,21,16,0,0,0.341263,0.356614,0.179805,0.136995,0.047092,279,258,21,16,0,0:
0000
0000
0000
0000
,
0000
0000
0000
0000
,
0000
0000
0000
0000
,
0000
0000
0000
0000
,
0000
0000
0000
0000
,
0000
0000
1001
0000
0001
0100
0001
0010
,
0100
2000
0000
3000
0010
0100
0001
0100
,
0010
0020
0000
0030
1000
0001
0010
0001
,
0100
0020
0000
0030
0100
0001
1000
0000
,
2002
0000
3003
0000
0001
0000
1000
0010
,
1000
0000
0001
0010
0001
0100
0001
0010
,
0100
1100
0100
0010
,
0001
0000
1000
0010
1000
0000
0001
0100
,
0001
0000
1000
0010
0100
0001
0010
0000
,
0010
0000
0001
0100
0001
1000
0010
0000
,
0100
0000
0000
0000
0010
0000
0000
0010
0000
0000
0100
0000
0000
0100
0000
0000
,
1001
0000
0001
1000
0010
0100
0001
1000
,
0100
0020
0001
0100
,
0001
0031
0002
0000
1000
0000
0010
0000
,
1000
1000
2003
0000
0010
0000
0100
0000
,
0001
0001
3001
0000
0100
0001
1000
0000
,
1001
0000
0001
0000
0010
0100
1000
0001
,
0100
0010
1000
0000
0010
0100
0010
0010
,
1000
1000
0001
0000
0010
0001
0100
0010
,
1000
0100
0010
0000
0001
1000
0010
0000
,
1001
0000
0001
0000
0001
0001
0100
0100
,
0010
1000
0100
0000
0010
0001
0100
0010
,
0100
0001
1000
0000
1000
0010
1000
0001
,
0010
0001
0100
0000
0010
1000
0001
0000
,
1001
0000
0000
0000
0001
0000
1000
0000
0010
0000
0100
0020
0000
0000
0030
0000
,
0000
0000
0100
0000
0001
0000
1000
0000
0010
0000
1000
0002
0000
0000
0003
0000
,
0000
0001
0100
0001
0010
0100
2000
0000
,
3000
0000
0000
0000
0010
0000
1000
0000
0010
0000
0100
0002
0000
0000
0003
0000
,
0000
0000
1000
0000
0010
0000
0100
0000
0001
0000
0010
0200
0000
0000
0300
0000
,
0000
0000
1000
0000
0010
0000
0100
0000
0001
0000
1000
0200
0000
0000
0300
0000
,
0000
1001
0110
0011
,
1100
0000
0000
0001
1000
0001
1000
0001
1000
0000
0000
0000
,
0000
1001
0000
0110
0000
1001
0000
0110
,
0000
0010
0100
0001
1000
0100
0010
0001
,
0000
1001
0000
0101
0000
0011
0000
1100
,
0000
0100
1000
0010
0100
0001
1000
0010
,
0100
0000
0001
0010
0100
1000
0001
0100
,
0010
0000
0010
1000
0010
1000
0100
0010
,
0001
0000
0100
0001
0100
0010
0010
1000
,
0001
0000
0010
0001
0100
0000
0110
0000
,
0010
0000
0010
1000
0100
1000
0010
0100
,
0001
0000
0001
0001
1000
1000
0010
0100
,
0001
0000
0010
0100
1000
0001
0100
0010
,
1000
0000
0001
1000
0100
0000
2002
0000
,
3003
0000
0000
0000
;

//--------------- dance-single - Alex ----------------
#NOTES:
     dance-single:
     Alex:
     Challenge:
     10:
     0.581004,0.653614,0.231178,0.23974,0.565102,475,448,27,28,17,0,0.581004,0.653614,0.231178,0.23974,0.565102,475,448,27,28,17,0:
0000
0000
0000
0000
,
0000
0000
0000
0000
,
0000
0000
0000
0000
,
0000
0000
0000
0000
,
0000
0000
0000
0000
,
0000
0000
1001
0000
0220
0000
0330
0000
0001
0100
0001
0000
1000
0000
0010
0000
,
0100
0001
0010
0100
2000
0000
3000
0000
0010
0100
0001
0000
1000
0000
0010
0000
,
0100
0001
0010
0001
0200
0000
0300
0000
0010
1000
0010
0000
0100
0000
0001
0000
,
1000
0100
0010
0001
0200
0000
0300
0000
0001
1000
0001
0000
0100
0000
0000
0000
,
1MM1
0000
0000
0000
0001
0000
1000
0000
0010
0000
0100
0001
0010
0001
0100
0010
,
1000
0000
0001
0000
0100
0000
0001
0010
0001
0100
0100
0010
1000
0000
0001
1000
,
0100
0000
1000
0000
0010
0000
0100
0001
0010
0001
1000
0010
0100
0000
0001
1000
,
0100
0000
1100
0000
0100
0000
0100
1000
0010
0100
0001
0010
0001
1000
0010
0100
,
0001
0000
1001
0000
0001
0000
0100
0001
0100
0000
0010
1000
0010
0000
0100
0001
,
0010
0100
1000
0000
0001
0000
1000
0010
0100
0000
0001
0010
0001
0000
1000
0100
,
0010
0100
1000
0000
0001
0100
0000
0100
0010
0000
0010
1000
0000
1000
0001
0000
,
0001
2000
0000
3000
0010
0100
0001
0100
0010
1000
0100
0010
0001
0001
0100
0010
,
2000
0000
3000
0000
0010
0000
0100
0000
0001
0010
0001
0000
0100
0000
0010
0000
,
1000
0100
0010
0001
0200
0000
0300
0000
0010
1000
0010
0000
0100
0000
0001
0000
,
1000
0010
0100
0001
2000
0000
3000
0000
0001
0100
0001
0000
0010
0000
0100
0000
,
1000
0010
1000
0010
2000
0000
3000
0000
0001
1000
0001
0000
1000
0000
0000
0000
,
M11M
0000
0000
0000
0001
0000
1000
0000
0010
0100
0001
0000
1000
0000
0100
0000
,
0010
0001
0100
0010
0100
0000
0001
0000
1000
0100
1000
0000
0001
0000
0001
0000
,
0010
0001
0100
0010
0100
0000
0001
0000
1000
0100
0010
0000
0001
0000
0100
0000
,
0010
1000
0010
0100
0010
0000
1000
0000
0001
0010
0001
0000
0100
0000
0000
0000
,
MM11
0000
0000
0000
0001
0000
0100
0000
0010
1000
0010
0000
0100
0000
0001
0000
,
1000
0100
0010
0001
0100
0000
0010
0000
1000
0001
1000
0000
0001
0000
0100
0000
,
0001
0010
0001
0100
0010
0000
1000
0000
0100
0010
0100
0000
1000
0000
0010
0000
,
0100
0001
0010
0100
1000
0000
0001
0000
0100
0001
0100
0000
0010
0000
0000
0000
,
1MM1
0000
0010
0100
0010
0000
1000
0000
0001
0000
0010
0001
0000
0001
0010
0000
,
0001
0100
0010
0100
0001
0000
1000
0000
0100
0000
0010
0001
0000
0001
0100
0000
,
0100
0010
1000
0010
0100
0000
0100
0000
0001
1000
0100
0020
0000
0000
0031
0000
,
0100
0000
0010
1000
0010
0000
0100
0000
0001
0000
1000
0001
0000
0001
1000
0000
,
1000
0010
0100
0001
1000
0000
0100
0000
0010
0000
0001
0100
0000
0100
0010
0000
,
0010
1000
0100
1000
0001
0000
0010
0000
0001
0000
0100
0010
0000
0010
0100
0000
,
0001
0000
0000
0000
0000
0000
0010
0000
0000
0100
0000
0000
1000
0000
0000
0000
0001
0000
0000
0000
0100
0000
0000
0000
0001
0000
0000
0000
1000
0000
0000
0000
0010
0000
0000
0000
0100
0000
0000
0000
0001
0000
0000
0000
1000
0000
0000
0000
,
0100
0000
0010
0000
0001
0000
0101
0000
0110
0000
1010
0000
0101
0000
0011
0000
1100
0000
2002
0000
0000
3003
0000
0000
,
1001
0010
0101
0010
1100
0010
0101
0010
,
0011
0000
0002
0003
0200
0300
0020
0030
2000
3000
0002
0003
2000
3000
0200
0300
,
0011
1000
0101
1000
0110
0001
1100
0010
,
0002
0003
0200
0300
0020
0030
2000
3000
0200
0300
0020
0030
0001
0100
0010
0100
,
0001
0000
1000
0000
0010
0100
0010
0000
1000
0000
0100
0000
0010
0001
0100
0010
,
1000
0000
0001
0000
1000
0001
1000
0000
0010
0000
0100
0000
0001
1000
0100
0010
,
0001
0000
0100
0000
0010
1000
0010
0000
0100
0000
0001
0000
0010
0100
0010
0001
,
0100
0000
0010
0000
1000
0100
1000
0000
0001
0000
0000
0000
1MM1
0000
0000
0000
,
0001
0000
0010
0000
0001
0100
0001
0000
0010
0000
0100
0000
1000
0010
0100
0001
,
1000
0000
0100
0000
1000
0010
1000
0000
0001
0000
0001
0000
0100
0001
0010
0010
,
0100
0000
1000
0000
0010
0100
0001
0000
0010
0000
0100
0000
1000
1000
0001
0100
,
0001
0000
1000
0000
0010
0100
0001
0000
1MM1
0000
0000
0000
M220
0000
000M
0000
,
M330
000M
M000
0000
0000
0000
0000
0000
;
