#TITLE:Social Path(Japanese Ver.);
#SUBTITLE:(feat.LiSA);
#ARTIST:Stray Kids;
#TITLETRANSLIT:;
#SUBTITLETRANSLIT:;
#ARTISTTRANSLIT:;
#GENRE:;
#CREDIT:;
#MUSIC:Social Path(feat.LiSA).ogg;
#BANNER:Social Path(feat.LiSA).png;
#BACKGROUND:Social Path(feat.LiSA)-BG.png;
#CDTITLE:;
#SAMPLESTART:57.540;
#SAMPLELENGTH:14.717;
#SELECTABLE:YES;
#OFFSET:-0.200;
#BPMS:0.000=172.000
,102.000=86.000
,118.000=172.000
,214.000=86.000
,230.000=172.000
,262.000=86.000
,266.000=172.000
;
#STOPS:;
#BGCHANGES:;
#FGCHANGES:;

//--------------- dance-single - Alex ----------------
#NOTES:
     dance-single:
     Alex:
     Beginner:
     1:
     0,0,0,0,0:
0000
0000
0000
0000
,
0000
0000
0010
0000
,
0000
0000
0000
0000
,
0000
0000
0100
0000
,
0000
0000
0000
0000
,
0000
0000
0001
0000
,
0000
0000
0000
0000
,
0000
0000
1000
0000
,
0000
0000
0000
0000
,
0000
0000
1001
0000
,
0000
0000
0001
0000
,
0000
0000
0100
0000
,
0000
0000
0001
0000
,
0000
0000
0010
0000
,
0000
0000
0001
0000
,
0000
0000
1000
0000
,
0000
0000
1000
0000
,
0000
0000
1001
0000
,
0000
0000
0100
0000
,
0000
0000
0010
0000
,
0000
0000
0010
0000
,
0000
0000
1000
0000
,
0000
0000
1000
0000
,
0000
0000
0001
0000
,
0000
0000
0001
0000
,
0000
0000
1000
0000
,
0000
0000
0010
0000
,
0000
0000
1000
0000
,
0000
0000
0001
0000
,
0000
0000
1001
0000
,
0000
0000
0001
0000
,
0000
0000
0100
0000
,
0000
0000
0010
0000
,
0000
0000
1000
0000
,
0000
0000
1000
0000
,
0000
0000
0001
0000
,
0000
0000
1001
0000
,
0000
0000
0010
0000
,
0000
0000
0100
0000
,
0000
0000
0010
0000
,
0000
0000
1000
0000
,
0000
0000
0001
0000
,
0000
0000
1000
0000
,
0000
0000
0100
0000
,
0000
0000
0100
0000
,
0000
0000
0110
0000
,
0000
0000
1000
0000
,
0000
0000
0001
0000
,
0000
0000
0001
0000
,
0000
0000
1000
0000
,
0000
0000
1000
0000
,
0000
0000
0010
0000
,
0000
0000
0010
0000
,
0000
0000
1001
0000
,
0000
0000
0110
0000
,
0000
0000
0100
0000
,
0000
0000
0001
0000
,
0000
0000
1000
0000
,
0000
0000
0001
0000
,
0000
0000
0010
0000
,
0000
0000
0001
0000
,
0000
0000
1000
0000
,
0000
0000
1000
0000
,
0000
0000
0100
0000
,
0000
0000
0100
0000
,
0000
0000
1001
0000
,
0000
0000
0010
0000
,
0000
0000
0010
0000
,
0000
0000
1000
0000
,
0000
0000
0001
0000
,
0000
0000
1001
0000
,
0000
0000
0000
0000
,
0000
0000
0100
0000
,
0000
0000
0100
0000
,
0000
0000
0001
0000
,
0000
0000
0001
0000
,
0000
0000
0010
0000
,
0000
0000
1000
0000
,
0000
0000
0100
0000
,
0000
0000
0100
0000
,
0000
0000
1001
0000
;

//--------------- dance-single - Alex ----------------
#NOTES:
     dance-single:
     Alex:
     Easy:
     3:
     0,0,0,0,0:
0000
0000
0000
0000
,
0000
0000
0100
0100
,
0000
0000
0010
0010
,
0000
0000
1000
1000
,
0000
0000
0001
0001
,
0000
0000
1000
1000
,
0000
0000
0010
0010
,
0000
0000
0100
0100
,
0000
0000
0001
0001
,
0000
0000
1000
0000
,
1000
0000
1000
0000
,
0000
0000
0001
0000
,
0001
0000
0001
0000
,
0000
0000
0100
0000
,
0000
0000
0010
0000
,
0000
0000
0001
0000
,
1000
0000
2002
0000
,
3003
0000
0010
0000
,
0010
0000
1000
0000
,
1000
0000
0001
0000
,
1000
0000
0100
0000
,
1000
0000
0010
0010
,
0010
0000
1000
1000
,
1000
0000
1001
0000
,
0110
0000
1001
0000
,
0000
0000
0001
0000
,
1000
0000
0001
0000
,
0100
0100
0100
0000
,
0010
0000
1001
0000
,
0110
0000
0010
0000
,
0100
0000
0010
0000
,
0000
0000
1000
0000
,
0001
0000
1000
0000
,
0000
0000
0001
0000
,
1000
0000
0001
0000
,
0100
0000
0001
0000
,
1000
0000
1001
0000
,
0000
0000
0010
0010
,
0010
0000
1000
1000
,
1000
0000
0001
0000
,
1000
0000
0001
0000
,
0001
0000
0100
0100
,
0100
0000
0001
0001
,
0001
0000
1001
0000
,
0000
0000
0110
0000
,
0000
0000
0010
0000
,
0100
0000
0010
0000
,
0100
0000
0001
0000
,
1000
0000
0001
0000
,
1000
0000
0010
0000
,
1000
0000
0001
0000
,
0100
0000
0101
0000
,
0000
0000
1010
0000
,
0000
0000
0100
0000
,
0000
0000
0010
0000
,
0100
0000
0010
0000
,
0000
0000
1000
0000
,
0001
0000
1000
0000
,
0000
0000
0001
0000
,
0000
0000
1000
0000
,
0001
0000
1000
0000
,
0000
0000
0010
0000
,
0000
0000
0100
0000
,
0000
0000
0010
0000
,
0010
0000
0010
0000
,
0000
0000
1001
0000
,
1001
0000
0001
0000
,
0001
0000
0001
0000
,
0000
0000
1000
0000
,
1000
0000
1000
0000
,
0000
0000
0010
0000
,
0100
0000
0110
0000
,
0000
0000
0100
0000
,
0001
0000
0100
0000
,
0100
0000
0001
0000
,
1000
0000
0010
0000
,
0010
0000
1000
0000
,
0000
0000
0001
0000
,
0000
0000
1001
0000
,
0000
0000
0110
0000
,
0000
0000
1001
0000
;

//--------------- dance-single - Alex ----------------
#NOTES:
     dance-single:
     Alex:
     Medium:
     6:
     0,0,0,0,0:
0000
0000
0000
0000
,
0000
0000
0110
0110
,
0000
0000
1001
1001
,
0000
0000
0011
0011
,
0000
0000
1100
1100
,
0000
0000
1010
1010
,
0000
0000
0101
0101
,
0000
0000
1001
1001
,
0000
0000
0110
0110
,
0000
0000
0010
0100
,
0001
1000
0100
0000
,
0010
0001
1000
1000
,
0001
0100
0001
0000
,
1000
0010
1000
0000
,
0001
0010
0001
0000
,
0100
0010
0110
0000
,
1001
0000
1100
0000
,
0011
0000
0001
0100
,
0010
0100
0001
1000
,
0100
0100
1000
0010
,
1000
1000
0001
0100
,
0001
0001
1000
0010
,
1000
0001
0010
0100
,
1000
0000
1001
0000
,
0011
0000
0101
0000
,
0110
0000
0000
0000
0000
0010
0100
0001
,
1000
0100
1000
0002
0003
0000
0100
0100
,
0010
0010
1000
0001
0010
0000
0001
0100
,
0010
0100
0001
1000
0200
0300
0020
0030
,
0002
0003
2000
3000
1001
0000
0000
0000
,
0001
0100
0001
0000
,
1000
0010
0100
0100
,
0001
1000
0100
0010
,
0001
0000
0100
0010
,
0100
0001
0010
0100
,
1000
1000
0001
0100
,
0010
0100
0010
0100
0010
0000
0000
0000
,
0000
0000
1001
0001
,
0100
1000
0100
0001
,
1000
0010
0100
0100
,
0001
0001
1000
0001
,
0010
0100
0010
0001
,
0100
0010
0100
0100
,
0001
1000
1001
0000
,
0011
0000
0101
0000
,
1010
0000
0010
0010
,
1000
1000
0100
0010
,
0100
1000
0001
0100
,
0010
0100
0001
0001
,
0010
0100
1000
0001
,
1000
0010
0100
0001
,
1000
0100
1100
0000
,
1010
0000
0010
0100
,
0001
1000
1001
0000
,
0001
0000
1000
0010
,
0100
0001
1001
0000
,
0010
0000
0100
0100
,
0001
1000
0001
1000
0001
0000
1000
0000
,
0001
0000
1000
0001
,
0010
0000
0001
1000
,
0100
0000
0010
0001
,
0100
0010
0110
0000
,
1001
0000
1000
0001
,
1000
1000
0010
0010
,
0100
0100
0001
0010
,
0100
1000
1010
0000
,
0101
0000
0011
0011
,
0000
0000
1100
1100
,
0000
0000
1010
1010
,
0000
0000
0101
0101
,
0000
0000
1001
0000
,
0110
0000
2002
0000
,
3003
0000
0001
0100
,
0001
0001
1000
0010
,
0100
0001
1000
0100
,
0010
0100
1000
1000
,
0010
0010
1000
0001
,
0010
0001
0100
0010
,
1000
0001
0011
0000
,
1100
0000
0000
0000
0001
0100
0010
0100
,
0001
0000
0100
0000
0020
0000
0000
0030
;

//--------------- dance-single - Alex ----------------
#NOTES:
     dance-single:
     Alex:
     Hard:
     7:
     0,0,0,0,0:
0000
0000
0000
0000
,
0000
0000
1001
1001
,
0000
0000
0110
0110
,
0000
0000
0011
0011
,
0000
0000
1100
1100
,
0000
0000
1010
1010
,
0000
0000
0101
0101
,
0000
0000
0110
0110
,
0000
0000
1001
1001
,
0001
1000
0010
0100
0001
0000
1000
0000
,
0100
0000
0010
0000
0001
0000
0000
0100
,
0010
0100
0001
0010
0100
0000
1000
0000
,
0001
0000
0100
0000
0010
0000
0000
1000
,
0001
0010
0100
1000
0001
0000
0000
0001
,
0100
0010
0100
0001
1000
0000
0000
0000
,
0100
0010
0001
0100
0101
0000
0000
0000
,
1010
0000
1001
0000
,
0110
0000
0000
0000
0010
0100
0010
1000
,
0100
1000
0010
0100
0001
0000
1000
0001
,
0000
0001
0010
0100
1000
0001
0100
0010
,
1000
0100
0010
0100
1000
0000
0001
0100
,
0000
0010
0100
0001
1000
0100
0010
0001
,
0000
0001
0100
0010
0100
0001
1000
0010
,
0000
0000
0100
0001
1001
0000
0000
0000
,
1010
0000
0101
0000
,
0011
0000
0000
0000
0000
0001
0100
0010
,
0100
0000
0001
0000
1000
0000
0200
0000
0300
0000
0000
0010
0001
0100
0010
0000
,
0100
0001
1000
0010
2000
3000
0001
1000
,
0010
1000
0001
0010
0011
0000
1100
0000
,
0010
0001
0100
0010
0110
0000
0000
0010
,
1000
0001
0100
0010
0000
0000
0000
0010
,
1000
0100
0010
0001
0100
0000
0010
0100
,
0001
1000
0100
0010
0000
0001
0000
1000
,
0000
0020
0000
0030
0100
0001
0100
0001
,
1000
0010
0100
0001
0000
1001
0000
0000
,
0000
0001
1000
0010
0100
0000
0001
1000
,
0100
0010
0001
0200
0000
0300
0000
0000
,
0000
0010
1000
0001
0100
0000
0010
0000
,
1000
0000
0001
0010
0000
0001
0000
0100
,
0000
0010
0100
0010
0100
0000
0001
0000
,
1000
0000
0100
1000
0000
0010
0000
1000
,
0000
0001
0100
0010
0100
0000
0001
1000
,
0000
1000
0001
0000
1000
0000
0010
1000
,
0000
1000
0010
0000
1010
0000
0000
0000
,
0101
0000
0000
0000
0001
1000
0001
0100
,
0000
0100
0020
0000
0030
0000
1000
0000
,
0001
0000
0100
0001
0000
1000
0000
0010
,
0000
1000
0001
0020
0030
0200
0300
2000
,
3000
0001
0100
0020
0030
0200
0300
0002
,
0003
1000
0001
0010
0100
0000
1000
0010
,
0000
0010
1000
0000
0001
0000
0001
0100
,
0000
0100
0001
0000
0101
0000
0000
0000
,
0110
0000
0000
0000
0010
1000
0100
0010
,
0001
1000
1001
0000
,
0020
0000
0030
0000
0200
0300
0002
0003
,
1000
0100
0010
0001
2000
0000
3000
0000
,
0020
0000
0030
0000
0200
0300
0002
0003
,
0010
0100
1000
0001
1000
0000
0001
0000
,
0100
0001
0100
0000
0010
0000
1000
0000
,
0001
0010
0001
0000
1000
0000
0100
0000
,
1000
0100
1000
0000
1000
0000
0010
1000
,
0010
1000
0010
0000
1000
0001
1000
0000
,
0001
0100
0010
0000
1000
0100
0010
0000
,
0001
0100
0010
0000
1000
0001
0010
0001
,
1000
0001
0100
0001
1000
0010
0100
0001
,
1000
0000
0100
0000
1001
1001
0000
0000
,
0110
0110
0000
0000
0001
0000
1000
0000
,
0001
0100
0001
1000
0010
0000
0100
0000
,
0001
1000
0100
0010
0001
0000
0100
0000
,
0010
0100
0001
0010
0001
0000
1000
0000
,
0001
0100
0010
1000
0001
0000
0000
0000
,
1001
0000
0110
0000
,
1001
0000
0001
0100
,
1000
0000
0100
0001
0000
1000
0000
0010
,
0000
1000
0001
0020
0030
0002
0003
0200
,
0300
1000
0100
2000
3000
0020
0030
2000
,
3000
0001
0010
0100
0010
0000
0001
0100
,
0000
0100
0001
0000
1000
0000
0010
1000
,
0000
1000
0010
0000
1010
0000
0000
0000
,
0101
0000
0000
0000
0001
1000
0100
1000
,
0001
0000
0100
0000
2002
0000
0000
3003
;
