#TITLE:Shut Down;
#SUBTITLE:;
#ARTIST:Blackpink;
#TITLETRANSLIT:;
#SUBTITLETRANSLIT:;
#ARTISTTRANSLIT:;
#GENRE:;
#CREDIT:;
#MUSIC:Shut Down.ogg;
#BANNER:Shut Down.png;
#BACKGROUND:Shut Down-BG.png;
#CDTITLE:;
#SAMPLESTART:52.262;
#SAMPLELENGTH:22.449;
#SELECTABLE:YES;
#OFFSET:-0.000;
#BPMS:0.000=73.333;
#STOPS:;
#BGCHANGES:;
#FGCHANGES:;

//--------------- dance-single - Alex ----------------
#NOTES:
     dance-single:
     Alex:
     Beginner:
     1:
     0,0,0,0,0:
0000
0000
0000
0000
,
0110
0000
0010
0000
,
0010
0000
1000
0000
,
1000
0000
0001
0000
,
0001
0000
0100
0000
,
0001
0000
0001
0000
,
1000
0000
1000
0000
,
0010
0000
0010
0000
,
0100
0000
0010
0000
,
0010
0000
1000
0000
,
1000
0000
0001
0000
,
0001
0000
1000
0000
,
0010
0000
0010
0000
,
2002
0000
3003
0000
,
0220
0000
0330
0000
,
2002
0000
3003
0000
,
0220
0000
0330
0000
,
0100
0000
0100
0000
,
0001
0000
0001
0000
,
1000
0000
1000
0000
,
0010
0000
0010
0000
,
1000
0000
0001
0000
,
0001
0000
0001
0000
,
1000
0000
0001
0000
,
2002
0000
3003
0000
,
0001
0000
1000
0000
,
0001
0000
1000
0000
,
0010
0000
0100
0000
,
0001
0000
0010
0000
,
0001
0000
0001
0000
,
1000
0000
0001
0000
,
0010
0000
0100
0000
,
0010
0000
0001
0000
,
2002
0000
3003
0000
,
0220
0000
0330
0000
,
2002
0000
3003
0000
,
0220
0000
0330
0000
,
0100
0000
0100
0000
,
0010
0000
0010
0000
,
1000
0000
0100
0000
,
1000
0000
0001
0000
,
0001
0000
1000
0000
,
1000
0000
0001
0000
,
0010
0000
0001
0000
,
2002
0000
3003
0000
,
0110
0000
0000
0000
;

//--------------- dance-single - Alex ----------------
#NOTES:
     dance-single:
     Alex:
     Easy:
     3:
     0,0,0,0,0:
0000
0000
0000
0000
,
0100
0010
0100
0001
,
1000
0001
1000
1000
,
0010
0100
0001
0010
,
0100
0010
0002
0003
,
1000
0010
2000
3000
,
0010
0100
0020
0030
,
0100
0001
0200
0300
,
1001
0000
0110
0000
,
0010
0100
0002
0003
,
1000
0100
2000
3000
,
0001
0010
0002
0003
,
0110
0000
1001
0000
,
0001
1000
0001
0000
,
1000
0010
1000
0000
,
0001
0100
0001
0000
,
0100
0000
0010
0000
0200
0000
0000
0300
,
0010
0100
0001
0001
,
1000
0010
1000
1000
,
0001
0010
0100
1000
,
0001
0100
0020
0030
,
0100
0001
0010
0010
,
0001
1000
0010
0010
,
1000
0001
1000
0001
,
0100
0010
2000
3000
,
1001
0001
0100
0010
,
0010
1000
0100
0010
,
0100
0000
1000
0001
,
0001
1000
0010
0100
,
0110
0100
0001
0001
,
1000
0001
0010
0100
,
0010
0001
0100
0010
,
1000
0001
1000
1001
,
0001
1000
0020
0030
,
0100
0001
0020
0030
,
0001
1000
0200
0300
,
1000
0000
0001
0000
2000
0000
0000
3000
,
0001
1000
0001
0001
,
1000
0010
0100
0100
,
0001
0010
0100
0010
,
0001
1000
0020
0030
,
0100
0001
1000
1000
,
0001
0010
0001
0100
,
0010
1000
0100
0010
,
0001
1000
0010
0100
,
1001
0000
0000
0000
;

//--------------- dance-single - Alex ----------------
#NOTES:
     dance-single:
     Alex:
     Medium:
     6:
     0,0,0,0,0:
0000
0000
0000
0000
,
1000
0000
0000
0001
0000
0000
1000
0000
0000
0001
1000
0001
,
1000
0000
0000
0010
0000
0000
0100
0000
0000
0001
0010
0001
,
0010
0000
0000
0001
0000
0000
0100
0000
0000
0010
1000
0010
,
1000
0001
1000
1001
,
0001
0000
0000
0001
0000
0000
0100
0001
0100
0020
0000
0030
,
0100
0000
0000
0001
0000
0000
1000
0100
1000
0200
0000
0300
,
1000
0000
0000
0010
0000
0000
1000
0010
1000
0020
0000
0030
,
0100
2002
0000
3003
0000
0000
0010
0010
0010
0020
0000
0030
,
0100
0000
0000
0001
0000
0000
1000
0001
0010
0002
0000
0003
,
0100
0000
0000
0010
0000
0000
0100
0001
1000
0200
0000
0300
,
1000
0000
0000
0010
0000
0000
1000
0001
1000
0002
0000
0003
,
0100
2002
0000
3003
0000
0000
0100
0100
0100
0200
0000
0300
,
0001
1000
0001
1000
0001
1000
0020
0000
0000
0130
0000
0000
,
0001
0010
0001
0010
0001
0010
0002
0000
0000
0103
0000
0000
,
1000
0010
1000
0010
1000
0010
2000
0000
0000
3001
0000
0000
,
0001
1000
0001
1000
0001
1000
2002
0000
0000
0000
3003
0000
,
0100
0000
0000
0010
0000
0000
0100
0010
0100
0010
0000
0000
,
0010
0000
0000
1000
0000
0000
0001
1000
0001
1000
0000
0000
,
0001
0100
0001
0100
0000
0000
0010
1000
0010
1000
0000
0000
,
0001
0000
0000
1000
0000
0000
2002
0000
3003
0000
0000
0000
,
0001
0000
0000
0100
0000
0000
0010
1000
0010
1000
0000
0000
,
0001
0000
0000
0010
0000
0000
0001
0010
0001
0010
0000
0000
,
0001
0100
0001
0100
0000
0000
0010
1000
0010
1000
0000
0000
,
0001
0100
0220
0330
,
0010
0000
0000
1000
0000
0000
0010
1000
0010
1000
0000
0001
,
0100
0000
0000
0010
0000
0000
0100
0001
0100
0001
0000
0001
,
1000
0000
0000
0010
0000
0000
1000
0100
1000
0100
0000
0010
,
0001
0000
0000
0100
0000
0000
0010
0100
0010
0100
0000
0000
,
1001
0000
0000
0110
0000
0000
0010
0100
0001
0100
0000
0000
,
1010
0000
0000
1100
0000
0000
0010
0001
0100
0010
0000
0000
,
0100
0010
0100
0010
0000
0000
0100
0001
0100
0001
0000
0000
,
1000
0001
1000
0001
0000
0000
0001
0100
0001
0200
0000
0300
,
0010
1000
0010
1000
0010
1000
0020
0000
0000
0130
0000
0000
,
0100
0001
0100
0001
0100
0001
0200
0000
0000
0301
0000
0000
,
0001
0010
0001
0010
0001
0010
0002
0000
0000
0103
0000
0000
,
0010
1000
2002
3003
,
0001
0000
0000
0100
0000
0000
0010
1000
0010
1000
0000
0000
,
0001
0000
0000
1000
0000
0000
0100
1000
0100
1000
0000
0000
,
0010
0100
0010
0100
0000
0000
0100
0001
0100
0001
0000
0000
,
0001
0010
0022
0033
,
0001
0000
0000
0100
0000
0000
0010
1000
0010
1000
0000
0000
,
0001
0000
0000
1000
0000
0000
0100
0010
0100
0010
0000
0000
,
0001
0100
0001
0100
0000
0000
0010
0100
0010
0100
0000
0000
,
0001
0000
0000
1000
0000
0000
1001
0000
0000
0100
0010
0100
,
0020
0030
0000
0000
;

//--------------- dance-single - Alex ----------------
#NOTES:
     dance-single:
     Alex:
     Hard:
     9:
     0,0,0,0,0:
0000
0000
0000
0000
,
1000
0001
1000
0010
0000
0010
0100
0001
0010
0100
0000
0100
,
1000
0010
0100
0001
0000
0001
1000
0010
1000
0001
0000
0001
,
1000
0100
0010
0001
0000
0001
0100
0010
0100
0001
0000
0001
,
1000
0010
1000
0001
0000
0001
0010
0100
1000
0001
0000
0001
,
0100
0010
0100
0001
0010
0100
1000
0001
0100
0020
0000
0030
,
0100
0001
1000
0100
0010
0100
1000
0001
0100
0020
0000
0030
,
0100
0100
0001
1000
0010
1000
0001
0010
0001
0200
0300
0010
,
0100
0001
0200
0000
0000
0000
0310
0000
0010
0000
1000
0000
0001
0000
0100
0000
0001
0000
2000
0000
0000
0000
3000
0000
,
0001
1000
0010
1000
0001
0010
0001
0100
0010
0200
0000
0300
,
0001
0010
0100
1000
0001
0100
0010
1000
0001
2000
0000
3000
,
0001
0001
0100
0010
0100
0001
0010
0100
0010
0002
0003
1000
,
0010
1000
0020
0000
0000
0030
0200
0000
0000
0000
0300
0000
0001
0000
1000
0000
0001
0000
2000
0000
0000
0000
3000
0000
,
0001
1000
0010
1000
0001
0100
0002
0000
1003
0200
0000
0300
,
0010
0001
0100
0010
0100
0001
2000
0000
3010
0200
0000
0300
,
0001
0010
0100
0010
0001
0100
0020
0000
1030
0002
0000
0003
,
0100
0001
1000
0100
0010
0001
1000
0001
1000
0001
1000
0001
,
1000
0010
0100
0001
1000
0100
0010
0002
0000
0003
0100
0100
,
0010
1000
0001
0010
0100
1000
0001
0200
0000
0300
0000
0000
,
0010
1000
0001
0200
0000
0300
0010
1000
0001
0020
0000
0031
,
0001
0100
0010
0100
0001
0010
0100
2000
0000
3000
0001
0001
,
1000
0010
1000
0001
0100
0001
1000
0200
0000
0300
1000
1000
,
0010
1000
0001
0100
0010
0100
0001
2000
0000
0000
3000
0000
,
0001
1000
0001
0200
0000
0300
0001
0010
0100
2000
0000
3000
,
0001
1000
0010
0100
0001
1000
2002
0000
0000
3003
0000
0000
,
0001
1000
0001
1000
0010
1000
0001
0010
0100
1000
0001
0100
,
0100
0001
0010
0100
0010
0001
0100
0010
0100
0001
1000
0010
,
1000
1000
0001
0010
0100
1000
0001
0100
0010
0100
0001
0010
,
0100
0010
0001
0100
0010
0100
0001
1000
0100
2200
0000
3300
,
0010
0001
0100
0010
0100
0001
0010
0100
1000
0001
0001
1000
,
1000
0010
1000
0001
0100
0010
0100
0001
0010
0100
0010
0001
,
0100
0100
0001
1000
0010
1000
0100
0010
0100
1000
0001
0100
,
0010
1000
0001
0010
0100
1000
0001
0100
0010
0220
0000
0330
,
0010
1000
0001
0100
0010
1000
0002
0000
1003
0200
0000
0300
,
1000
0010
0100
0001
0010
0100
0020
0000
0031
0200
0000
0300
,
0010
1000
0001
0010
0100
1000
0002
0000
1003
0200
0000
0300
,
1000
0010
0100
0001
0010
0100
1000
0001
1000
0001
1000
0001
,
1000
1000
0001
0001
0100
0010
0100
0002
0000
0003
1000
1000
,
0001
0010
0100
1000
0010
0100
0001
2000
0000
0000
3000
0000
,
0010
0100
0010
0200
0000
0300
0001
1000
0001
2000
3000
0001
,
0001
0100
0001
0010
0100
1000
0010
0200
0000
0300
0010
0010
,
0100
0001
0010
0010
0001
1000
0010
2000
0000
3000
0001
0001
,
0100
0001
0010
0100
1000
0001
0100
0020
0000
0000
0030
0000
,
0100
0001
1000
0200
0000
0300
1000
0001
0100
0020
0000
0030
,
0100
0001
0010
0100
1000
0010
0100
0000
0000
0010
0010
0010
,
1001
0000
0000
0000
;

//--------------- dance-single - Alex ----------------
#NOTES:
     dance-single:
     Alex:
     Challenge:
     11:
     0,0,0,0,0:
0000
0000
0000
0000
,
1000
0000
0001
0000
0100
0000
0010
0000
0100
0000
0001
0000
0010
0000
0001
0000
0100
0000
0010
1000
0020
0000
1030
0000
,
1000
0001
0100
0010
0100
0001
0010
0100
1000
0001
0100
0010
,
0100
0000
0100
0000
0001
0000
0001
0000
1000
0000
0001
0000
0010
0000
0100
0000
0010
0000
0001
0100
0002
0000
0103
0000
,
0100
0010
0100
0001
0010
0100
1000
0001
0100
0010
1000
0001
,
1000
0001
1000
0001
1000
0001
0100
0000
0010
0000
0100
0000
0001
0000
0010
0000
0100
0000
2002
0000
0000
3003
0000
0000
,
0001
1000
0001
1000
0001
0100
0010
0000
0100
0000
0100
0000
0001
0000
0010
0000
0100
0000
2200
0000
0000
3300
0000
0000
,
1000
0010
1000
0001
1000
0001
0100
0000
0010
0000
0100
0000
0001
0000
0010
0000
0100
0000
1000
0000
0001
0000
0100
0000
,
0010
1000
0002
0000
0000
0003
1000
0000
1000
0000
1000
0000
1001
0000
1001
0000
1001
0000
2002
0000
0000
3003
0000
0000
,
0001
0100
0010
0100
0001
0100
0010
0000
1000
0000
0100
0000
0010
0000
0001
0000
0100
0000
0220
0000
0000
0330
0000
0000
,
0010
0100
0001
0010
0100
1000
0001
0000
1000
0000
0010
0000
0100
0000
0001
0000
0010
0000
0022
0000
0000
0033
0000
0000
,
0001
0100
0010
0100
0001
0100
0001
0000
1000
0000
0100
0000
0010
0000
0001
0000
0100
0000
0010
0000
0100
0000
0001
0000
,
0100
0010
0200
0000
0000
0300
0001
0000
0001
0000
0001
0000
1001
0000
1001
0000
1001
0000
2002
0000
0000
3003
0000
0000
,
0001
1000
0100
0010
0001
0100
0010
1000
0001
0010
0100
1000
0002
0000
0000
0000
0103
0000
0020
0000
0000
0000
0030
0000
,
1000
0001
0010
0001
1000
0010
1000
0100
0010
0001
0100
0010
0200
0000
0000
0000
0310
0000
2000
0000
0000
0000
3000
0000
,
0001
0100
0001
0100
0001
0000
1000
0010
1000
0010
1000
0000
0002
0000
0000
0000
1003
0000
0020
0000
0000
0000
0030
0000
,
0100
0001
0010
0100
0010
0001
0100
0001
1000
0001
0100
0010
0200
0000
0302
0000
2003
0000
3200
0000
0320
0000
0030
0000
,
0011
0101
0110
0101
0011
1001
0110
2002
0000
3003
0110
0101
,
0011
1001
1100
1010
0110
0101
0011
0202
0303
0110
0110
1001
,
0001
1000
0010
1000
0001
0100
0001
0020
0000
0030
0000
0000
0100
0010
0001
0100
0010
0100
0001
2000
0000
3000
0001
0000
,
0101
0100
0110
0010
1010
1000
0001
2002
0000
3003
0001
0100
,
0110
1010
1100
0110
0011
0101
0110
2002
0000
3003
0101
0110
,
1010
1100
0110
0011
0101
0110
0101
2002
0000
3003
0000
0000
,
0001
0010
0001
0100
0001
1000
0010
0200
0000
0000
0300
0000
0001
1000
0100
0010
0001
1000
0010
0200
0000
0000
0300
0000
,
0011
0001
0101
0100
0110
0010
2020
0000
0000
3030
0000
0000
,
0001
1000
0001
0100
0001
1000
0010
0000
0100
0000
0001
0000
0010
0000
0100
1000
0100
0000
1000
0000
1010
0000
1001
0000
,
0001
0100
0010
0100
0001
0100
0001
0010
0100
0000
1000
0000
0010
0000
0100
0000
0001
0000
0101
0000
0110
0000
0101
0000
,
0001
1000
0010
1000
0001
1000
0010
0000
0100
0001
0100
0000
0001
0010
0001
0010
0001
0010
0001
1000
0010
0000
0100
0000
,
0001
1000
0100
1000
0001
0100
0001
1000
0010
1000
0001
0010
0100
1000
0010
0100
0001
1000
0010
0000
0100
0000
0001
1000
,
0001
0000
1000
0000
1000
0000
0010
0000
0100
0000
0001
0000
0100
0000
0001
0000
0100
0000
0010
0000
0100
0001
0100
0001
,
0100
0000
0110
0000
0010
1000
0010
0000
1000
0000
0010
0000
0100
0000
0001
0010
0001
0000
0010
0000
0010
0000
0001
0000
,
0100
0000
0010
0100
0010
0000
0100
0000
0001
0100
0001
0000
1000
0000
1010
0000
1010
0000
1000
0000
0001
0000
0100
0000
,
0010
0000
0100
0001
0100
0000
0010
0000
1000
0010
1000
0000
0001
0000
0010
0000
0100
0000
1000
0000
2002
0000
3003
0000
,
0001
0100
0010
1000
0100
0010
0001
0100
0010
0100
0001
1000
0200
0000
0000
0000
1300
0000
0020
0000
0000
0000
0030
0000
,
0100
0001
0010
0100
1000
0001
0100
0010
0100
0001
0010
0001
0200
0000
0000
0000
0301
0000
2000
0000
0000
0000
3000
0000
,
0001
0000
0100
0001
0100
0000
0010
0000
1000
0010
1000
0000
0002
0000
0000
0000
0103
0000
0020
0000
0000
0000
0030
0000
,
0100
0001
0010
0100
1000
0001
0100
0010
1000
0100
0010
0001
0200
0000
0320
0000
2030
0000
3002
0000
0023
0000
0130
0000
,
1100
0110
0011
0101
0110
1010
0011
0202
0000
0303
1010
1100
,
0110
0011
0101
0110
1001
0011
1010
0220
0000
0330
0000
0000
,
0001
0010
0100
1000
0001
0100
0010
2000
0000
0000
3000
0000
0001
0100
0001
0100
0010
0100
0001
2000
0000
3000
0011
0000
,
0101
0110
0101
0011
1001
1010
1100
0220
0000
0330
0011
0101
,
0110
1001
0011
1010
1100
0110
0011
0202
0000
0303
0110
0101
,
0011
1001
1010
1100
0110
0011
0101
2020
0000
3030
0000
0000
,
0001
0010
0001
0100
0010
1000
0100
0020
0000
0000
0030
0000
0001
0100
0010
1000
0001
0010
0100
2000
0000
0000
3000
0000
,
0011
0101
0110
1100
0110
0011
0202
0000
0303
1010
1010
1010
,
1001
M00M
0000
0000
;
