#TITLE:Shock;
#SUBTITLE:;
#ARTIST:Beast;
#TITLETRANSLIT:;
#SUBTITLETRANSLIT:;
#ARTISTTRANSLIT:;
#GENRE:;
#CREDIT:;
#MUSIC:Shock.ogg;
#BANNER:Shock.png;
#BACKGROUND:Shock-BG.png;
#CDTITLE:;
#SAMPLESTART:80.111;
#SAMPLELENGTH:14.981;
#SELECTABLE:YES;
#OFFSET:-0.167;
#BPMS:0.000=135.000;
#STOPS:;
#BGCHANGES:;
#FGCHANGES:;

//--------------- dance-single - Alex ----------------
#NOTES:
     dance-single:
     Alex:
     Beginner:
     1:
     0,0,0,0,0:
0000
0000
0000
0000
,
0000
0000
0000
0000
,
0000
0000
0000
0000
,
0001
0000
0000
0000
,
1000
0000
0000
0000
,
0001
0000
0000
0000
,
1000
0000
0000
0000
,
0010
0000
0000
0000
,
1000
0000
0000
0000
,
0001
0000
0000
0000
,
0100
0000
0000
0000
,
0110
0000
0000
0000
,
0010
0000
0000
0000
,
0010
0000
0000
0000
,
1000
0000
0000
0000
,
0001
0000
0000
0000
,
0001
0000
0000
0000
,
1000
0000
0000
0000
,
1000
0000
0000
0000
,
1001
0000
0000
0000
,
0010
0000
0000
0000
,
0100
0000
0000
0000
,
0100
0000
0000
0000
,
0001
0000
0000
0000
,
1000
0000
0000
0000
,
0001
0000
0000
0000
,
1000
0000
0000
0000
,
1001
0000
0000
0000
,
0010
0000
0000
0000
,
0100
0000
0000
0000
,
0100
0000
0000
0000
,
0010
0000
0000
0000
,
2002
0000
0000
3003
,
0100
0000
0000
0000
,
0010
0000
0000
0000
,
1000
0000
0000
0000
,
1000
0000
0000
0000
,
0001
0000
0000
0000
,
0001
0000
0000
0000
,
1000
0000
0000
0000
,
0001
0000
0000
0000
,
0001
0000
0000
0000
,
1000
0000
0000
0000
,
1001
0000
0000
0000
,
0000
0000
0000
0000
,
0100
0100
0100
0000
,
0000
0000
1000
0000
,
0000
0000
0010
0000
,
0000
0000
1000
0000
,
0000
0000
0001
0000
,
0000
0000
0100
0000
,
0000
0000
0001
0000
,
0000
0000
0010
0000
,
0000
0000
0001
0000
,
0000
0000
1000
0000
,
0000
0000
0010
0000
,
0000
0000
1000
0000
,
0000
0000
0001
0000
,
0000
0000
1000
0000
,
0000
0000
0001
0000
,
0000
0000
0100
0000
,
0000
0000
0110
0000
,
0000
0000
0000
0000
,
0010
0010
0010
0000
;

//--------------- dance-single - Alex ----------------
#NOTES:
     dance-single:
     Alex:
     Easy:
     5:
     0,0,0,0,0:
0000
0000
0000
0000
,
0000
0000
0000
0000
,
0000
0000
0001
1000
,
0010
0010
1000
0001
,
0010
0010
0001
0100
,
0010
1000
0100
0010
,
0100
1000
0001
0100
,
0010
0010
1000
0001
,
0100
0100
0001
0010
,
0100
0010
0001
1000
,
0010
0010
1000
1000
,
1001
1001
1001
0000
,
0001
0100
0010
0100
,
0101
0101
0101
0000
,
0010
1000
0100
0010
,
0011
0011
0011
0000
,
0001
0100
0001
0001
,
0010
0100
1000
0010
,
1000
0001
0100
0010
,
1010
0000
0101
0000
,
0001
0010
0100
1000
,
0001
0100
0001
0100
,
0100
0010
1000
0001
,
0010
0010
0001
0001
,
1000
0010
1000
0000
,
0100
0010
0001
0000
,
0100
0010
1010
0000
,
0010
1000
0001
0010
,
0001
1000
0010
0000
,
0010
1000
0001
0100
,
0001
1000
0100
0000
,
1100
1100
1100
0000
,
0100
0100
0100
0000
,
0010
0001
0100
0010
,
1000
0001
1001
0000
,
0001
0001
0100
0010
,
1000
0001
0010
0001
,
0100
0010
1000
0100
,
0010
0001
1000
1000
,
1000
0010
0100
0001
,
0010
0100
0100
1000
,
0001
0100
0001
1000
,
0010
1000
0001
0010
,
0200
0000
0000
0000
,
0000
0000
0000
0300
,
0100
1000
0010
0010
,
1000
0001
0100
0100
,
0001
0010
0100
1000
,
0001
0100
0010
0010
,
1000
0001
0010
0001
,
1000
0010
0010
1000
,
0001
0100
0010
1000
,
0100
0010
0100
1000
,
0001
0100
0110
0110
,
0110
0000
0010
0010
,
0010
0000
1010
1010
,
1010
0000
1000
1000
,
1000
0000
1001
1001
,
1001
0000
0001
0001
,
0001
0000
0100
0010
,
1000
0100
0010
0001
,
0100
0010
2000
0000
,
0000
0000
0000
3000
,
0010
0100
0010
0200
0000
0000
0300
0000
;

//--------------- dance-single - Alex ----------------
#NOTES:
     dance-single:
     Alex:
     Medium:
     6:
     0,0,0,0,0:
0000
0000
0000
0000
,
0000
0000
0000
0000
,
0000
0000
0000
0000
0001
1000
0001
1000
,
0001
0000
1000
0000
0010
1000
0010
1000
,
0010
1000
0001
0010
,
0100
0000
1000
0000
0001
0100
0010
1000
,
0000
1100
0000
0000
0100
0010
0001
0100
,
0010
0000
0010
0000
1000
0001
1000
0001
,
0100
0100
0010
1000
,
0100
0000
0010
0000
0001
0100
0010
0100
,
0000
0100
0000
0001
2000
0000
3000
0000
,
1001
0000
0110
0000
1001
0000
0001
1000
,
0000
0010
0000
0100
0001
0020
0000
0030
,
0011
0000
1100
0000
1001
0000
0001
0100
,
0000
0100
0010
1000
0002
0000
0003
0000
,
1001
0000
1001
0000
0110
0000
0010
0100
,
0000
0100
0000
0001
1000
0100
0000
0100
,
1000
0010
0100
0001
,
0010
0000
0010
0000
0001
0000
0100
0010
,
1000
0000
0010
1000
0100
0000
0010
0001
,
0100
0010
1000
1000
,
0001
0000
0100
0010
0100
0010
0100
0000
,
0001
0000
0010
0000
0100
1000
0100
0000
,
1000
0000
0001
0100
0001
0000
1000
0010
,
1000
0000
0001
0010
0001
0000
0100
0000
,
0110
0000
0010
1000
0001
0000
0001
0000
,
1000
0100
1000
0100
2000
0000
3000
0000
,
0010
1000
0010
0000
1000
0001
1000
0000
,
0001
0100
0010
0200
0000
0000
0300
0000
,
0010
1000
0010
0000
0100
0001
0100
0000
,
0001
0010
0001
0020
0000
0000
0030
0000
,
0001
0000
0100
0000
0010
0000
1000
0001
,
0000
0001
1000
0010
0100
0000
1001
0000
,
0001
0100
0010
1000
,
0100
0000
0100
0000
1000
0010
1000
0010
,
1000
0000
0001
0100
0010
0000
1000
0000
,
0001
0000
0010
0100
1000
0000
0001
0000
,
0100
0000
0010
0100
0001
0000
1000
0000
,
0100
0010
0001
0100
,
0010
0000
1000
0001
0010
0000
0001
0000
,
0100
0000
0010
0100
0001
0000
1000
0000
,
0100
0000
1000
0100
1000
0000
0010
0000
,
1000
0001
0100
0010
,
2000
0000
0000
0000
,
0000
0000
0000
3000
,
0001
0100
0001
0100
0001
0000
1000
0000
,
0010
1000
0010
1000
0010
0000
1000
0000
,
0100
0010
0100
1000
,
0001
0100
0010
0100
0000
0002
0000
0000
,
1003
0001
1000
0001
1000
0000
0001
0000
,
0100
0001
0100
0001
0100
0000
0010
0000
,
1000
0100
0010
0000
0001
0000
0100
0000
,
0010
0100
0001
1000
,
0010
0100
0101
0101
,
0101
0000
0001
0100
0000
0100
0000
0010
,
1000
0200
0000
0300
1100
0000
1100
0000
,
0011
0000
0001
0100
0000
0100
0010
1000
,
0002
0000
0000
0003
1001
0000
0110
0000
,
1001
0000
0001
1000
0000
1000
0000
0010
,
0100
0001
0000
0001
0010
0000
0100
0000
,
1000
0001
0100
0100
,
0010
0000
1000
0100
0020
0000
0000
0000
,
0000
0000
0000
0030
,
0001
1000
0001
2000
0000
0000
3000
0000
;

//--------------- dance-single - Alex ----------------
#NOTES:
     dance-single:
     Alex:
     Hard:
     9:
     0,0,0,0,0:
0000
0000
0000
0000
,
0000
0000
0000
0000
,
2002
0000
0000
3003
0001
0100
0001
0010
,
0011
0000
1100
0000
0001
0100
0010
1000
,
1010
0000
0101
0000
0001
0100
0001
1000
,
0010
1000
0001
0010
0001
0001
0100
0010
,
1000
0000
0001
1000
0001
1000
0001
0000
1000
0000
0010
0000
1000
0000
0001
0000
,
1001
0000
0110
0000
0010
0100
0001
0010
,
0110
0000
1100
0000
0100
1000
0010
1000
,
0001
0001
0010
0001
0100
0001
0010
0100
,
0010
0000
0001
0010
0001
0010
0001
0000
0001
0000
0010
0000
0001
0000
0100
0000
,
0110
0000
0110
0000
0110
0000
0010
1000
,
0000
0000
0001
0000
0000
0000
0001
0000
1000
0010
1000
0000
0001
0000
0100
0000
,
0101
0000
0101
0000
0101
0000
0010
0100
,
0000
0000
0100
0000
0001
1000
0001
1000
0001
0000
0000
0000
1000
0000
0000
0000
,
1010
0000
1010
0000
1010
0000
0010
1000
,
0000
0000
1000
0000
0000
0000
0001
0000
0010
0001
0010
0000
0001
0000
0100
0000
,
0010
1000
0010
0100
0001
0010
0001
1000
,
0010
0000
1000
0010
1000
0010
1000
0010
2000
0000
0000
0000
3001
0000
0100
0000
,
0110
0000
0010
1000
1001
0000
0001
0100
,
0001
0010
0100
0010
0001
0100
0010
1000
,
0001
0000
0001
0000
0001
0100
0001
0100
0001
0100
0001
0100
0001
0000
0000
0000
,
0001
1000
0010
1000
0001
0100
0001
1000
,
0100
0100
1000
1000
0010
0100
0001
0010
,
0100
0010
0001
0100
0110
0000
0010
1000
,
0001
0010
0001
1000
0010
0000
1010
0000
,
0010
0000
1000
0001
1000
0000
0001
0000
1000
0000
0000
0000
1001
0000
0000
0000
,
0001
0100
0001
1000
0010
0100
0001
1000
,
0100
0010
0001
0200
0000
0000
0310
0000
,
0010
1000
0010
0100
0001
0010
0001
1000
,
0010
0100
0001
2000
0000
0000
3001
0000
,
0100
0000
0010
0000
1000
0000
0001
0020
,
0000
0000
0000
0000
0031
1000
0001
1000
0001
0000
0000
0000
1001
0000
0000
0000
,
0001
1000
0010
1000
0001
0100
0001
1000
,
0100
0010
0001
0100
0010
0100
0001
1000
,
1001
0000
0001
0100
0010
1000
0100
0010
,
0001
0000
0001
0100
0001
0010
0001
0100
,
0010
0000
0010
0010
1000
0001
0010
0001
,
1000
0010
1000
0001
0100
0001
1000
0100
,
1000
0000
0010
1000
0001
0010
0001
0100
,
0010
0000
0010
1000
0100
0010
0100
1000
,
0001
0000
0001
0100
0001
0010
0001
0100
,
0010
1000
0100
0010
0001
0100
0010
1000
,
0020
0000
0000
0000
,
0000
0000
0000
0030
,
0010
0100
0001
1000
1100
0000
0011
0000
,
0001
0100
0010
1000
1001
0000
0110
0000
,
0010
0100
0001
0100
0010
0010
1000
0100
,
1000
0000
0010
0000
0100
0000
0001
0000
1000
0000
0001
1000
0001
1000
0001
0000
,
0100
0010
1000
0100
1100
0000
0011
0000
,
0001
0100
0010
0100
0101
0000
0011
0000
,
0001
0001
1000
1000
0010
1000
0010
0100
,
0001
0000
0010
0000
0001
0000
1000
0000
0010
0000
0010
0100
0001
1000
0100
0000
,
0010
0001
0100
0010
0110
0000
0110
0000
,
0110
0000
0010
1000
0000
1000
0000
0001
,
1000
0001
1000
0000
0001
0000
0100
0000
0101
0000
0000
0000
0101
0000
0000
0000
,
0101
0000
0000
0000
0100
0000
0010
0000
0000
0000
0010
0000
1000
0001
1000
0001
,
1000
0001
0101
0101
,
0101
0000
0100
0010
0000
0010
0000
0010
,
1000
0001
1000
0000
0001
0000
0010
0000
0001
0000
0100
0000
0010
0000
1000
0000
,
0100
0000
0010
0000
0100
0000
1000
0000
0001
0000
0001
0100
0010
0100
0001
0010
,
0100
0000
1000
0001
2002
0000
0000
0000
,
0000
0000
0000
3003
0000
0000
0000
0000
,
1001
0110
1001
0220
0000
0000
0330
0000
;
