#TITLE:Say My Name;
#SUBTITLE:;
#ARTIST:Ateez;
#TITLETRANSLIT:;
#SUBTITLETRANSLIT:;
#ARTISTTRANSLIT:;
#GENRE:;
#CREDIT:;
#MUSIC:Say My Name.ogg;
#BANNER:Say My Name.png;
#BACKGROUND:Say My Name-BG.png;
#CDTITLE:;
#SAMPLESTART:31.430;
#SAMPLELENGTH:16.438;
#SELECTABLE:YES;
#OFFSET:-0.090;
#BPMS:0.000=153.000
,304.000=76.500
;
#STOPS:;
#BGCHANGES:1.000=Say My name.avi=1.000=1=0=0=StretchNoLoop==CrossFade==,
99999.000=-nosongbg-=1.000=0=0=0=StretchNoLoop====
;
#FGCHANGES:;

//--------------- dance-single - Alex ----------------
#NOTES:
     dance-single:
     Alex:
     Beginner:
     1:
     0.087268,0.123804,0.024435,0,0,75,72,3,0,0,0,0.087268,0.123804,0.024435,0,0,75,72,3,0,0,0:
0000
0000
0000
0000
,
0000
0000
0000
0000
,
0000
0000
0000
0000
,
0000
0000
0000
0000
,
0000
0000
0000
0000
,
0010
0000
0000
0000
,
1000
0000
0000
0000
,
0001
0000
0000
0000
,
1000
0000
0000
0000
,
0010
0000
0000
0000
,
0100
0000
0000
0000
,
0010
0000
0000
0000
,
1000
0000
0000
0000
,
1000
0000
0000
0000
,
0001
0000
0000
0000
,
0001
0000
0000
0000
,
1000
0000
0000
0000
,
0001
0000
0000
0000
,
0100
0000
0000
0000
,
0010
0000
0000
0000
,
1000
0000
0000
0000
,
0001
0000
0000
0000
,
0001
0000
0000
0000
,
0100
0000
0000
0000
,
0010
0000
0000
0000
,
0010
0000
0000
0000
,
1000
0000
0000
0000
,
0100
0000
0000
0000
,
1001
0000
0000
0000
,
1000
0000
0000
0000
,
0001
0000
0000
0000
,
0001
0000
0000
0000
,
0100
0000
0000
0000
,
0010
0000
0000
0000
,
0010
0000
0000
0000
,
1000
0000
0000
0000
,
1000
0000
0000
0000
,
0010
0000
0000
0000
,
1000
0000
0000
0000
,
0001
0000
0000
0000
,
0001
0000
0000
0000
,
1000
0000
0000
0000
,
0001
0000
0000
0000
,
0100
0000
0000
0000
,
1001
0000
0000
0000
,
0010
0000
0000
0000
,
0100
0000
0000
0000
,
0010
0000
0000
0000
,
0000
1000
0000
0000
,
0000
0001
0000
0000
,
0000
1000
0000
0000
,
0000
1000
0000
0000
,
1000
0000
0000
0000
,
0010
0000
0000
0000
,
0010
0000
0000
0000
,
0100
0000
0000
0000
,
0001
0000
0000
0000
,
1000
0000
0000
0000
,
0001
0000
0000
0000
,
1000
0000
0000
0000
,
1001
0000
0000
0000
,
0010
0000
0000
0000
,
0100
0000
0000
0000
,
0100
0000
0000
0000
,
0001
0000
0000
0000
,
1000
0000
0000
0000
,
1000
0000
0000
0000
,
0010
0000
0000
0000
,
0100
0000
0000
0000
,
0001
0000
0000
0000
,
0010
0000
0000
0000
,
0001
0000
0000
0000
,
0100
0000
0000
0000
,
0100
0000
0000
0000
,
0001
0000
0000
0000
,
1000
0000
0000
0000
,
0010
0000
0000
0000
;

//--------------- dance-single - Alex ----------------
#NOTES:
     dance-single:
     Alex:
     Easy:
     3:
     0.187335,0.278558,0.154755,0.04887,0,161,142,19,6,0,0,0.187335,0.278558,0.154755,0.04887,0,161,142,19,6,0,0:
0000
0000
0000
0000
,
0000
0000
0000
0000
,
0000
0000
0000
0000
,
0000
0000
0000
0000
,
0000
0000
0000
0000
,
1000
0000
1000
0000
,
1000
0000
0000
0000
,
0001
0000
0001
0000
,
0001
0000
0000
0000
,
0100
0100
0100
0100
,
0100
0100
0100
0000
,
0220
0000
0000
0330
,
0000
0000
0010
0000
,
0010
0000
0010
0000
,
0000
0000
1000
0000
,
1000
0000
1000
0000
,
1001
0000
0000
0010
,
1001
0000
0000
0000
,
0100
0000
0100
0000
,
0010
0010
0010
0010
,
0000
0000
1000
0000
,
1000
0000
0001
0000
,
0000
0000
0001
0000
,
0001
0000
1000
0000
,
1001
0000
0000
0100
,
1001
0000
0000
0000
,
0010
0010
0010
0000
,
1000
1000
1000
0000
,
0001
0000
1000
0000
,
0001
0000
0100
0000
,
0010
0000
0100
0000
,
0001
0000
0010
0000
,
0001
0000
0001
0000
,
1000
0000
1000
0000
,
0010
0000
1000
0000
,
0001
0000
0001
0000
,
1001
1000
1000
0000
,
0001
0001
0001
0000
,
0100
0100
0100
0000
,
0010
0010
0010
0000
,
1000
0000
1000
0000
,
0010
0000
0010
0000
,
0100
0000
0100
0000
,
0001
0000
0001
0000
,
1001
0000
0000
0000
,
0001
0000
1000
0000
,
0001
0000
1000
0000
,
0001
0000
0200
0000
,
0300
0010
0000
0010
,
0000
0010
0000
1000
,
0000
0001
0000
1000
,
0000
1000
0000
1000
,
2000
0000
0000
3000
,
1001
0000
0000
0000
,
0110
0000
0010
0000
,
0100
0000
0010
0010
,
0010
0000
0000
0000
,
1000
0001
1000
0001
,
1000
0001
1000
0000
,
2002
0000
0000
3003
,
0000
0000
0010
0000
,
0100
0000
0110
0000
,
0000
0000
0010
0000
,
0100
0000
0110
0000
,
1001
0000
0000
0100
,
1001
0000
0000
0000
,
0010
0010
0010
0000
,
0100
0100
0100
0000
,
0000
0000
0001
0000
,
1000
0000
1001
0000
,
0000
0000
1000
0000
,
0001
0000
1001
0000
,
0110
0000
0000
0010
,
0110
0000
0000
0000
,
1000
1000
1000
0000
,
0001
0001
0001
0000
,
1001
0000
0000
0000
;

//--------------- dance-single - Alex ----------------
#NOTES:
     dance-single:
     Alex:
     Medium:
     6:
     0.344416,0.436164,0.219914,0.1629,0,296,269,27,20,0,0,0.344416,0.436164,0.219914,0.1629,0,296,269,27,20,0,0:
0000
0000
0000
0000
,
0000
0000
0000
0000
,
0000
0000
0000
0000
,
0000
0000
0000
0000
,
0000
0000
0000
0000
,
1000
0001
1000
0001
,
1000
0000
0010
0100
,
0001
0000
0001
0000
1000
0000
0100
1000
,
0100
0000
1000
0010
,
0100
0000
0100
0000
0001
0000
1000
0001
,
1000
0001
1000
0000
,
1001
1001
1001
1001
,
0000
0001
0100
0010
,
0100
0100
0001
0001
,
0000
1000
0100
0010
,
0100
1000
0001
0100
,
0010
0100
0010
0100
0020
0000
0030
0000
,
0100
0001
0100
0001
0100
0000
0000
0000
,
1010
1001
0110
0000
,
0011
0101
0110
0110
,
0000
0010
0010
0100
,
0100
0001
1000
0001
,
0000
1000
0010
1000
,
0002
0000
0103
0100
,
0010
0100
0010
0100
0010
0000
0000
0000
,
1000
0010
1000
0010
1000
0000
0000
0000
,
0001
0100
0010
0100
,
0001
1001
1001
1001
,
0000
0000
0001
0100
,
0010
1000
0100
0000
,
1000
0010
1000
0010
,
0100
0001
0100
0001
,
0100
0010
1000
0100
,
0010
0100
1000
0001
,
0100
0010
0100
0100
,
0001
0010
0001
0101
,
0002
0003
2000
3000
0020
0030
2000
3000
,
0002
0003
0200
0300
0020
0030
0200
0300
,
0002
0003
0020
0030
0200
0300
0020
0030
,
0002
0003
2000
3000
0020
0030
2000
3000
,
1001
0000
0001
0000
,
1000
0010
1000
0000
,
0001
0100
0010
0100
,
0001
0010
0100
1000
,
1001
0000
0001
0001
,
0001
0001
1000
1000
,
0010
0010
0100
0100
,
0100
0010
1000
0100
,
1000
0001
0010
0100
,
1000
0001
0100
0010
,
1000
0001
0010
0100
,
0010
0001
0100
0010
,
1001
0000
0000
0000
,
0010
0100
0001
1000
,
0100
0000
0010
0001
,
0100
0000
0010
1000
,
0001
0000
1001
1001
,
1001
0001
1000
0010
,
1000
0001
0010
0000
,
0001
0100
0001
0000
0101
0000
1010
0000
,
0000
0010
1000
0100
,
0010
0100
1000
0001
,
0000
1000
0010
1000
,
0001
0010
0001
0001
,
0100
0001
0100
0001
0100
0000
0000
0000
,
0010
0100
0010
0100
0010
0000
0000
0000
,
0010
0010
0100
0100
,
0001
0010
0011
1100
,
0000
1000
0010
1000
,
0001
0100
0010
1000
,
0100
0010
0100
1000
,
0002
0000
1003
1000
,
0010
1000
0010
1000
0010
0000
0000
0000
,
1000
0001
1000
0001
1000
0000
0000
0000
,
0001
0100
0010
0100
,
0001
0001
0011
1100
,
0002
0000
0003
0000
;

//--------------- dance-single - Alex ----------------
#NOTES:
     dance-single:
     Alex:
     Hard:
     8:
     0.504989,0.529627,0.19548,0.073305,0.06516,434,410,24,9,0,0,0.504989,0.529627,0.19548,0.073305,0.06516,434,410,24,9,0,0:
0000
0000
0000
0000
,
0000
0000
0000
0000
,
0000
0000
0000
0000
,
0000
0000
0000
0000
,
0000
0000
0000
0000
,
0001
0000
1000
0000
0010
0000
0100
0001
,
1000
0000
0100
0000
0010
0001
0100
0010
,
0100
0000
0001
0000
0010
0000
0100
1000
,
0100
0000
0010
0000
0001
1000
0001
0100
,
0001
1000
0010
1000
0001
0010
0100
1000
,
0001
0100
0010
0000
0100
0000
0000
0000
,
0001
1000
0010
0000
1010
0000
0101
0000
,
0000
0000
0001
0010
0001
0000
0100
0001
,
0100
0000
0010
1000
0100
1000
0100
1000
,
0100
0000
1000
0001
0100
0000
0010
0100
,
0001
0000
1000
0010
0400
0000
0000
0300
,
0010
1000
0001
0010
0001
0000
0001
0100
,
0010
0100
0001
0010
0100
0000
1000
0001
,
0100
0001
0000
0000
1000
0010
0000
0000
0100
0000
0000
0000
1001
0000
0000
0000
,
0010
0100
0000
0000
0100
0010
0000
0000
1000
0000
0000
0000
2002
0000
0000
0000
,
3003
0001
0100
0001
0100
0000
0010
1000
,
0100
0000
0010
0001
0100
0001
0101
0000
,
0000
0010
0100
0001
1000
0000
0100
0010
,
0004
0000
1003
1001
,
0010
0100
0010
1000
0100
0000
0100
0100
,
1000
1000
0001
0100
0010
0000
0100
0000
,
0001
0010
0000
0000
0100
1000
0000
0000
0100
0000
0000
0000
1001
0000
0000
0000
,
0010
1000
0000
0000
0100
0010
0000
0000
0001
0000
0100
0000
0220
0000
0330
0000
,
0110
0000
1001
0000
0001
0010
0001
0000
,
0100
0001
0100
0010
0100
0001
0100
0000
,
0001
0001
1000
0000
0001
1000
0010
0000
,
1000
0000
0010
0000
0100
0001
0100
0000
,
0001
0011
0100
0100
,
0010
0000
0001
0000
1000
0010
0100
0000
,
0001
1000
0100
0000
1000
0001
0100
0000
,
0010
0100
0010
0100
0001
0100
0001
0000
,
1000
0010
1000
0001
1000
0100
1000
0001
,
0100
0010
0100
0001
0100
0010
0100
0100
,
0001
0010
0100
1000
0001
0100
0010
0100
,
0001
1000
0010
1000
,
1001
0000
1001
0000
0001
0100
1000
0100
,
0001
1000
0010
1000
0001
0010
0001
0100
,
0010
0100
0001
1000
,
0100
0010
0100
1000
0010
0100
0001
0010
,
0001
0000
0100
0010
0100
0002
0000
2003
,
0000
0000
3010
0100
0001
0200
0000
0320
,
0000
0000
0130
0001
0100
0010
0000
1000
,
0000
0100
0000
1000
0000
1001
0000
0000
,
0000
0000
0001
0100
0001
0100
0000
0100
,
0010
0000
0010
1000
0100
1000
0000
1000
,
0010
0000
0100
0001
0100
0000
0010
0000
,
1000
0100
0010
0011
,
1100
0000
0000
0000
0001
0100
0001
0100
,
0001
0000
1000
0000
0010
0000
1000
0010
,
1000
0000
0001
0000
0100
0010
0100
0001
,
0010
0000
0001
0000
0100
0000
0010
1000
,
0100
0000
0010
0000
0001
1000
0010
1000
,
0001
1000
0001
0100
0100
0010
0100
0010
,
0100
0001
0100
0000
1001
0000
0000
0000
,
0010
0100
0010
0000
1001
0000
0110
0000
,
0000
0000
0010
0100
0010
0000
1000
0001
,
1000
0000
0001
0100
0001
0100
0001
0100
,
0001
0000
1000
0010
1000
0000
0001
0010
,
0001
0000
0100
0010
4000
0000
0000
0000
,
3001
0100
0001
1000
0010
0000
0010
0010
,
0100
0100
0001
0010
0001
0000
0100
0000
,
0010
1000
0000
0000
0001
0100
0000
0000
0100
0000
0000
0000
1010
0000
0000
0000
,
1000
0100
0000
0000
0010
0001
0000
0000
0010
0000
0000
0000
1001
0000
0000
0000
,
0000
0001
1000
0010
1000
0000
0001
0100
,
0001
0000
1000
0100
0010
0001
1001
0000
,
0000
0001
0100
0001
1000
0000
0010
0100
,
0004
0000
1003
1000
,
0001
0001
1000
1000
0001
0000
0001
1000
,
0100
0001
0100
1000
0010
0000
0010
0000
,
0100
0001
0000
0000
0001
0100
0000
0000
0100
0000
0000
0000
1001
0000
0000
0000
,
0010
0100
0000
0000
0100
0010
0000
0000
0010
0000
0000
0000
1001
0000
0000
0000
,
0020
0000
0030
0000
;
