#TITLE:S-Class;
#SUBTITLE:;
#ARTIST:Stray Kids;
#TITLETRANSLIT:;
#SUBTITLETRANSLIT:;
#ARTISTTRANSLIT:;
#GENRE:;
#CREDIT:;
#BANNER:S-Class.png;
#BACKGROUND:S-Class-BG.png;
#LYRICSPATH:;
#CDTITLE:;
#MUSIC:S-Class.ogg;
#OFFSET:0.039000;
#SAMPLESTART:46.723000;
#SAMPLELENGTH:24.204000;
#SELECTABLE:YES;
#BPMS:0.000000=105.000000
,116.000000=100.000000
,116.500000=95.000000
,117.000000=90.000000
,117.250000=85.000000
,117.500000=80.000000
,117.750000=25.000000
,118.000000=95.000000
,150.000000=105.000000
;
#STOPS:
;
#BGCHANGES:3.250=S-Class.avi=1.000=1=0=0=StretchNoLoop==CrossFade==,
214.500=S-Class-BG.png=1.000=1=0=1===CrossFade==,
99999=-nosongbg-=1.000=0=0=0 // don't automatically add -songbackground-
;
#KEYSOUNDS:;
#ATTACKS:;

//---------------dance-single - Alex----------------
#NOTES:
     dance-single:
     Alex:
     Beginner:
     1:
     0.065930,0.085140,0.023871,0.000000,0.000000,58.000000,55.000000,3.000000,0.000000,0.000000,0.000000,0.065930,0.085140,0.023871,0.000000,0.000000,58.000000,55.000000,3.000000,0.000000,0.000000,0.000000:
0000
0000
0000
0000
,
0000
0000
0000
0000
,
0000
0000
0000
0000
,
1000
0000
0001
0000
,
1000
0000
0000
0000
,
0010
0000
0000
0000
,
0100
0000
0000
0000
,
0001
0000
0000
0000
,
1000
0000
0000
0000
,
1000
0000
0000
0000
,
0010
0000
0000
0000
,
0100
0000
0000
0000
,
0010
0000
0000
0000
,
1000
0000
0000
0000
,
0001
0000
0000
0000
,
1000
0000
0000
0000
,
0001
0000
0000
0000
,
0100
0000
0000
0000
,
0100
0000
0000
0000
,
0010
0000
0000
0000
,
1000
0000
0000
0000
,
0001
0000
0000
0000
,
0001
0000
0000
0000
,
0100
0000
0000
0000
,
0100
0000
0000
0000
,
0010
0000
0000
0000
,
0010
0000
0000
0000
,
1000
0000
0000
0000
,
0001
0000
0000
0000
,
1001
0000
0001
0000
,
0000
0000
1000
0000
,
0000
0000
0010
0000
,
0000
0000
0100
0000
,
0100
0000
0100
0000
,
0000
0000
0010
0000
,
0000
0000
1000
0000
,
0000
0000
0001
0000
,
0001
0000
1000
0000
,
0000
0000
0001
0000
,
0000
0000
0100
0000
,
0000
0000
0010
0000
,
0000
0000
1000
0000
,
0000
0000
1000
0000
,
0000
0000
0001
0000
,
0000
0000
0001
0000
,
0000
0000
1001
0000
,
0000
0000
0010
0000
,
0000
0000
0100
0000
,
0000
0000
0100
0000
,
0000
0000
0001
0000
,
0000
0000
0001
0000
,
0000
0000
1000
0000
,
0000
0000
1000
0000
,
0000
0000
1001
0000
;

//---------------dance-single - Alex----------------
#NOTES:
     dance-single:
     Alex:
     Easy:
     2:
     0.125039,0.170280,0.111398,0.000000,0.000000,110.000000,96.000000,14.000000,0.000000,0.000000,0.000000,0.125039,0.170280,0.111398,0.000000,0.000000,110.000000,96.000000,14.000000,0.000000,0.000000,0.000000:
0000
0000
0000
0000
,
0000
0000
0000
0000
,
0000
0000
0000
0000
,
0010
0000
0100
0000
,
0110
0000
0000
0000
,
1000
0000
0001
0000
,
1000
0000
0000
0000
,
0001
0000
1000
0000
,
0001
0000
0000
0000
,
1010
0000
0010
0000
,
0100
0000
0100
0000
,
0001
0000
1000
0000
,
0001
0000
0100
0000
,
0010
0000
0110
0000
,
0010
0000
0000
0000
,
1000
0000
1100
0000
,
1000
0000
0000
0000
,
0001
0001
0001
0000
,
1000
1000
1000
0000
,
0010
0010
0010
0000
,
1001
0000
0000
0000
,
1000
0000
0001
0000
,
1000
0000
0000
0000
,
0010
0000
0100
0000
,
0010
0000
0000
0000
,
1001
0000
0001
0000
,
0100
0000
0100
0000
,
0010
0000
1000
0000
,
1000
0000
0001
0000
,
1001
0000
0001
0000
,
0001
0000
0101
0000
,
0100
0000
0110
0000
,
0010
0000
1000
1000
,
1000
0000
0001
0000
,
1000
0000
0001
0000
,
0100
0000
0010
0000
,
0100
0000
0001
0000
,
0010
0000
0010
0000
,
0011
0000
0001
0000
,
0000
0000
1000
0000
,
1001
0000
1000
0000
,
0000
0000
0001
0001
,
0100
0000
0010
0010
,
1000
0000
1000
1000
,
0100
0000
1100
0000
,
0000
0000
0010
0000
,
0100
0000
0010
0000
,
0000
0000
1000
0000
,
0001
0000
1000
0000
,
0000
0000
1001
0000
,
0001
0000
1000
0000
,
1000
0000
0010
0000
,
0100
0000
0100
0000
,
0001
0000
1001
0000
;

//---------------dance-single - Alex----------------
#NOTES:
     dance-single:
     Alex:
     Medium:
     4:
     0.217113,0.256614,0.230754,0.063656,0.000000,191.000000,162.000000,29.000000,8.000000,0.000000,0.000000,0.217113,0.256614,0.230754,0.063656,0.000000,191.000000,162.000000,29.000000,8.000000,0.000000,0.000000:
0000
0000
0000
0000
,
0000
0000
0000
0000
,
0000
0000
0000
0000
,
1000
1000
0001
0001
,
1001
0000
0000
0000
,
0110
0000
0100
0000
,
1001
0000
0010
0000
,
1100
0000
0001
0000
,
0202
0000
0303
0000
,
1000
0010
1000
0000
,
0001
0100
0001
0000
,
0010
0100
1000
0000
,
0001
1000
0010
0100
,
0110
0000
1001
0000
,
0001
1000
0001
0000
,
1000
1000
0100
0000
,
0010
0001
0001
0000
,
0010
0100
1100
0000
,
0010
0100
1001
0000
,
0001
0010
0001
0100
,
0220
0000
0330
0000
0010
0100
0010
0100
,
0010
0000
1001
0000
,
0001
1000
0001
1000
0001
0000
0000
0000
,
1001
0000
0100
0000
,
0010
1000
0010
1000
0010
0000
0000
0000
,
0010
0100
0001
0100
,
0010
0010
1000
1000
,
1001
0001
0100
0010
,
0100
0001
0010
0100
,
1100
0000
0100
0100
,
0010
0002
0003
0100
,
0010
2000
3000
0001
,
1000
0100
1001
0000
,
1001
0000
0010
0100
,
0010
0010
1000
0001
,
1000
1000
0001
0001
,
0010
0100
1000
0010
,
0100
0001
1001
0000
,
0110
0000
0010
0100
,
0010
0000
1100
0000
,
0011
0000
0001
0100
,
0010
0000
1100
0000
,
0001
0000
0101
0000
,
1000
0000
1010
0000
,
0001
0000
1001
0000
,
0001
1000
0001
1000
0001
0000
0000
0000
,
1001
0000
0000
0000
0010
0100
0010
0100
,
0010
0000
0110
0000
,
1001
0000
0000
0000
0001
1000
0001
1000
,
0001
0000
1000
1000
,
0001
0001
0100
0100
,
0010
1000
1100
0010
,
0001
0100
0010
0010
,
1000
0001
0022
0033
;

//---------------dance-single - Alex----------------
#NOTES:
     dance-single:
     Alex:
     Hard:
     7:
     0.339879,0.342152,0.095484,0.159141,0.123334,299.000000,287.000000,12.000000,20.000000,0.000000,0.000000,0.339879,0.342152,0.095484,0.159141,0.123334,299.000000,287.000000,12.000000,20.000000,0.000000,0.000000:
// measure 0
0000
0000
0000
0000
,  // measure 1
0000
0000
0000
0000
,  // measure 2
0000
0000
0000
0000
,  // measure 3
0001
1000
0010
0100
0001
1000
0100
0010
,  // measure 4
1001
0000
0000
0000
,  // measure 5
0000
0000
0001
0000
0000
1000
0000
0000
0010
0000
0000
0100
0000
0000
0001
0000
,  // measure 6
0000
0000
1000
0000
0000
0100
0000
0000
0220
0000
0000
0000
0330
0000
0000
0000
,  // measure 7
0000
0000
0010
0000
0000
0010
0000
0000
0001
0000
0000
1000
0000
0000
0001
0000
,  // measure 8
2002
3003
0000
0000
,  // measure 9
0001
1000
0001
0000
0100
0010
0100
0000
,  // measure 10
0001
0010
0100
1000
0001
0100
0010
0000
,  // measure 11
1000
0010
1000
0000
0001
0100
0001
0000
,  // measure 12
1000
1000
0001
0001
0100
0010
1000
0000
,  // measure 13
0000
0010
0100
0001
0100
0010
1000
0001
,  // measure 14
0000
1000
0010
0200
0000
0300
0010
0001
,  // measure 15
0010
0000
0001
1000
0010
0100
0001
0000
,  // measure 16
1000
0100
0010
0001
0100
0000
0010
0000
,  // measure 17
0010
0000
1000
0010
0000
0100
0000
0002
0000
0000
0000
0000
0013
0000
0000
0000
,  // measure 18
0001
0000
0100
0010
0000
1000
0000
0200
0000
0000
0000
0000
1300
0000
0000
0000
,  // measure 19
1000
0000
0010
1000
0000
0010
0000
1000
0000
0000
0010
0000
0100
0000
0001
0000
,  // measure 20
2002
0000
3003
0000
0001
1000
0010
0100
,  // measure 21
0001
0010
0001
0000
1000
0100
1000
0000
,  // measure 22
0001
0000
0100
0000
0001
0100
0000
0020
0000
0000
0000
0000
0030
0000
0000
0000
,  // measure 23
1000
0010
0100
0000
0001
1000
0100
0000
,  // measure 24
0010
0000
0001
0000
0100
0010
0000
2000
0000
0000
0000
0000
3000
0000
0000
0000
,  // measure 25
0000
0000
0010
0100
0001
0000
1000
0100
,  // measure 26
0010
0000
0001
0100
0001
1000
0010
0100
,  // measure 27
0001
0000
1000
0100
1000
0000
0010
0100
,  // measure 28
0010
0000
0100
0001
0010
0001
1000
0010
,  // measure 29
0200
0300
0010
0010
,  // measure 30
1000
0010
0100
0001
1000
0000
0001
0000
,  // measure 31
0001
1000
0010
0100
0001
0000
1000
0000
,  // measure 32
1000
0100
1000
0000
1010
0000
0101
0000
,  // measure 33
0110
0000
1001
0000
0001
0100
0001
0000
,  // measure 34
1000
0010
1000
0000
0001
0010
0100
1000
,  // measure 35
0001
0100
0010
0000
1000
0100
0100
0000
,  // measure 36
1000
0010
0010
0100
0001
0000
0011
0000
,  // measure 37
0100
0000
0110
0000
0000
0010
1000
0010
,  // measure 38
0100
0001
1000
0100
0000
0010
0001
0200
,  // measure 39
0000
0000
0310
1000
0001
0000
0001
1000
,  // measure 40
0010
0100
0000
0100
0001
0010
0100
1000
,  // measure 41
0001
0000
0000
0000
0000
0000
1000
0000
0010
0000
1000
0010
0000
0100
0000
0002
,  // measure 42
0000
0000
0000
0000
0013
0000
0000
0000
0010
0000
0100
0010
0000
0001
0000
2000
,  // measure 43
0000
0000
0000
0000
3100
0000
0000
0000
0100
0000
1000
0010
0000
1000
0000
0002
,  // measure 44
0000
0103
1001
0000
,  // measure 45
0001
1000
0001
1000
0010
0000
0010
0100
,  // measure 46
0010
0000
0000
0000
1000
0000
0100
0000
0010
0000
0001
0000
1000
0010
0000
0200
,  // measure 47
0000
0000
0300
0000
0010
0000
0010
1000
,  // measure 48
0001
0000
0000
0000
0001
0000
1000
0000
0010
0000
0100
0000
0001
1000
0000
0020
,  // measure 49
0000
0000
0030
0000
0010
0000
0010
0100
,  // measure 50
1000
0000
0001
0100
0010
0000
1000
0100
,  // measure 51
0010
0100
1000
0001
0100
0000
0010
0100
,  // measure 52
0001
0000
1000
0010
0100
0000
0001
0001
,  // measure 53
0010
0100
1000
0001
2002
0000
3003
0000
;

//---------------dance-single - Alex----------------
#NOTES:
     dance-single:
     Alex:
     Challenge:
     9:
     0.567223,0.577382,0.405809,0.214840,0.596777,499.000000,448.000000,51.000000,27.000000,0.000000,0.000000,0.567223,0.577382,0.405809,0.214840,0.596777,499.000000,448.000000,51.000000,27.000000,0.000000,0.000000:
0000
0000
0000
0000
,
0000
0000
0000
0000
,
0000
0000
0000
0000
,
0001
1001
1000
1010
0010
0110
0100
0101
,
0001
0000
0000
0011
0000
0000
0100
0000
0000
0110
0000
0000
0010
0000
1000
0000
,
0001
0000
1000
0010
0000
0010
1000
0000
1001
0000
0000
0110
0000
0000
1001
0000
,
0001
0000
0100
0001
0000
0001
0010
0000
0022
0000
0000
0000
0033
0000
0000
0000
,
0001
0000
0100
0001
0000
0001
0100
0000
0110
0000
0000
1010
0000
0000
1100
0000
,
2002
0000
3003
0000
,
0001
0000
1000
0010
1000
0010
1000
0000
0001
0100
0001
0100
0001
0100
0001
0000
,
0100
0000
0010
0100
0010
0000
1000
0001
1000
0000
1001
0000
0220
0000
0330
0000
,
0010
0000
0100
0001
0100
0001
1000
0000
0010
0000
1000
0000
0100
0000
0010
0000
,
0011
0000
0001
0100
0000
0100
0001
0000
0001
1000
0000
1000
0010
0000
0100
0000
,
0001
0010
0100
1000
0001
0100
0010
2000
,
0000
3000
0200
0000
0320
0000
0032
0000
0000
0003
0100
0000
0010
1000
0000
0001
,
0000
0000
0010
0000
0001
0000
0100
0001
0000
0001
0100
0000
0000
0000
0100
0000
,
1001
0000
0001
0200
0000
0320
0000
2030
0000
3000
0100
0000
0010
0000
0001
0000
,
0101
0000
0001
0100
0000
0010
0000
1000
0000
0001
1000
0000
0100
0000
0010
0000
,
0001
0000
0100
0010
0000
0100
0000
0001
0000
1000
0100
0000
1000
0000
1000
0000
,
0010
0000
0100
0001
0000
1000
0000
0010
0000
1000
0100
0000
1000
0000
0001
0000
,
2002
0000
3003
0000
0011
0101
0110
1010
,
0010
0000
1000
0000
0001
0100
0001
0100
0001
0000
1000
0000
0010
0100
0010
0100
,
0010
0000
1000
0000
0001
1000
0000
1001
0000
0000
0001
0000
0100
0000
0010
0000
,
1000
0000
1000
0000
0001
0010
0001
0010
0001
0000
0100
0000
0010
1000
0010
1000
,
0010
0000
1000
0000
0001
0100
0000
0101
0000
0000
0001
0000
0010
0000
0100
1000
,
0001
0000
1000
0000
0010
0100
0000
0100
0000
0001
0000
1000
0100
0010
0000
0001
,
0000
0001
0000
0100
0010
1000
0000
0001
0000
0100
0001
0000
1000
0000
0010
0000
,
1010
0000
0010
0000
1000
0001
0000
0100
0000
0001
0000
1000
0010
1000
0000
0100
,
0000
1000
0010
0000
0100
0000
0001
0100
0000
0100
0001
0000
0010
0000
0100
0000
,
2002
0000
3003
0000
0001
1000
0010
0100
,
0001
0010
0100
1000
0001
0100
0010
0100
0002
0000
0000
0003
1000
0010
1000
0010
,
1000
0010
0100
0001
1000
0001
1000
0000
0200
0000
0000
0300
0010
0001
0010
0001
,
0100
0001
0100
0010
0100
0000
0001
0000
1001
0000
1000
0000
1010
0000
0010
0000
,
0110
0000
0100
0000
0101
0000
1001
0000
0001
0100
0001
0000
1000
0010
1000
0000
,
0010
0100
0001
1000
0100
0000
0010
0000
0001
0000
0100
0001
0100
0000
0010
1000
,
0010
0100
0010
0000
1010
0000
0101
0000
0010
0100
0000
0100
0001
0000
0010
0000
,
0100
0000
1000
0001
0100
0010
1000
0000
1001
0000
0001
0000
0101
0000
0100
0000
,
0110
0010
1010
1000
0001
1000
0010
0100
,
0001
0000
0010
0000
0001
0000
0200
0000
0000
0300
0020
0030
2000
3000
0002
0000
,
0000
0003
0100
0000
0010
1000
0000
0001
0000
0000
0100
0000
0001
0000
0010
0001
,
0000
0001
0200
0000
0000
0300
0010
0000
1000
0000
0001
1000
0000
1000
0000
0002
,
0000
0003
0100
0000
0010
0000
1000
0000
1001
0000
0001
0100
0000
0010
0000
0100
,
0000
0001
0010
0000
0001
0000
1000
0000
1010
0000
0010
1000
0000
0100
0000
0100
,
0000
1000
0010
0000
0100
0000
0001
0000
1001
0000
0001
1000
0000
1000
0000
0010
,
0000
0100
0001
0000
0010
0000
0001
0000
0101
0000
0000
0000
0110
0000
0000
0000
,
0010
0000
1000
0000
0001
0000
0100
0000
0110
0000
0010
0000
1000
0010
1000
0010
,
1000
0000
0001
0000
0100
0001
0100
0001
0100
0000
0001
0000
0010
0001
0000
0101
,
0000
0000
0001
0000
0100
0000
0010
0000
0100
0000
0100
0000
0010
1000
0010
1000
,
0010
0000
1000
0000
0001
1000
0001
1000
0001
0000
0001
0000
1000
0010
0000
1010
,
0000
0000
0010
0000
0100
0000
0001
0000
0101
0000
0001
0000
0001
0010
0000
0001
,
0000
0100
0000
0010
1000
0100
0000
0010
0000
0001
0000
1000
0010
0100
0000
0001
,
0000
1000
0100
0000
1000
0000
1001
0000
1001
0000
0001
0000
0100
0001
0000
0001
,
0000
1000
0000
0010
0100
0001
0000
0010
0000
0100
1000
0000
0001
0000
0100
0001
,
0000
0001
0100
0000
0010
0000
1000
0000
2002
0000
0000
0000
3003
0000
0000
0000
;
