#TITLE:Rover;
#SUBTITLE:;
#ARTIST:Kai;
#TITLETRANSLIT:;
#SUBTITLETRANSLIT:;
#ARTISTTRANSLIT:;
#GENRE:;
#CREDIT:;
#MUSIC:Rover.ogg;
#BANNER:Rover.png;
#BACKGROUND:Rover-BG.png;
#CDTITLE:;
#SAMPLESTART:41.288;
#SAMPLELENGTH:20.282;
#SELECTABLE:YES;
#OFFSET:-0.078;
#BPMS:0.000=93.000;
#STOPS:;
#BGCHANGES:;
#FGCHANGES:;

//--------------- dance-single - Alex ----------------
#NOTES:
     dance-single:
     Alex:
     Beginner:
     1:
     0,0,0,0,0:
0000
0000
0000
0000
,
0000
0000
0000
0000
,
0000
0000
0000
0000
,
0000
0000
0000
0000
,
0010
0000
0000
0000
,
1000
0000
0000
0000
,
1000
0000
0000
0000
,
0001
0000
0000
0000
,
0001
0000
0000
0000
,
1000
0000
0000
0000
,
0001
0000
0000
0000
,
0001
0000
0000
0000
,
1001
0000
0000
0000
,
0010
0000
0000
0000
,
0100
0000
0000
0000
,
0010
0000
0000
0000
,
0100
0000
0100
0000
,
0100
0000
0000
0000
,
0001
0000
0000
0000
,
0010
0000
0000
0000
,
0001
0000
0000
0000
,
1000
0000
1000
0000
,
1000
0000
0000
0000
,
0010
0000
0000
0000
,
0010
0000
0000
0000
,
0110
0000
0000
0000
,
0100
0000
0100
0000
,
0010
0000
0010
0000
,
1000
0000
0001
0000
,
1001
0000
0000
0000
,
0001
0000
0000
0000
,
1000
0000
0000
0000
,
0001
0000
0000
0000
,
1000
0000
0000
0000
,
0001
0000
0000
0000
,
1000
0000
0000
0000
,
0010
0000
0000
0000
,
1000
0000
0000
0000
,
0100
0000
0100
0000
,
0100
0000
0000
0000
,
1000
0000
0000
0000
,
0001
0000
0000
0000
,
1001
0000
0000
0000
,
0010
0000
0010
0000
,
0010
0000
0000
0000
,
1000
0000
1000
0000
,
0001
0000
0000
0000
,
1000
0000
0000
0000
,
0001
0000
0000
0000
,
0100
0000
0100
0000
,
0100
0000
0000
0000
;

//--------------- dance-single - Alex ----------------
#NOTES:
     dance-single:
     Alex:
     Easy:
     3:
     0,0,0,0,0:
0000
0000
0000
0000
,
0000
0000
0000
0000
,
0000
0000
0000
0000
,
0000
0000
0000
0000
,
0001
0000
1000
0000
,
0001
0000
0100
0000
,
0010
0000
1000
0000
,
0001
0000
1000
0000
,
1001
0000
0001
0100
,
0001
0000
1000
0010
,
1000
0000
0001
0010
,
0001
0000
0100
0010
,
0200
0000
0000
0300
0000
0000
0010
0000
,
0020
0000
0000
0030
0000
0000
0000
0000
,
2000
0000
0000
3000
0000
0000
0001
0000
,
0002
0000
0000
0003
0000
0000
0000
0000
,
1000
0001
1001
0000
,
0001
1000
0001
0000
,
1000
0010
1000
0000
,
0001
0100
0001
0000
,
0010
0100
0010
0000
,
0001
0000
0001
0000
,
1000
0000
1000
0000
,
0010
1000
0010
0000
,
1000
0001
1000
0000
,
2002
0000
3003
0000
,
0001
0000
1000
0000
,
0010
0000
0010
0000
,
1000
0000
0001
0100
,
0002
0000
0000
0003
0000
0000
1000
0000
,
2000
0000
0000
3000
0000
0000
0000
0000
,
0020
0000
0000
0030
0000
0000
0100
0000
,
0200
0000
0000
0300
0000
0000
0000
0000
,
0001
1000
1001
0000
,
0001
0010
0001
0000
,
0100
0001
0100
0000
,
0010
1000
0010
0000
,
1000
0001
1000
0000
,
0001
0000
1000
0000
,
0010
0000
0100
0000
,
0001
0010
0001
0000
,
1000
0100
1000
0100
,
1100
0000
1000
0000
,
0001
0000
0010
0000
,
0001
0000
1000
0000
,
1000
0000
0001
0000
,
1000
0010
1000
0000
,
0001
0100
0001
0000
,
1000
0100
1000
0000
,
0010
0100
0010
0100
,
0010
0000
0000
0000
;

//--------------- dance-single - Alex ----------------
#NOTES:
     dance-single:
     Alex:
     Medium:
     6:
     0,0,0,0,0:
0000
0000
0000
0000
,
0000
0000
0000
0000
,
0000
0000
0000
0000
,
0000
0000
0000
0000
,
0001
1000
0001
1000
,
0010
0000
0100
0000
0001
1000
0001
1000
,
0001
0010
0001
0100
,
0100
0000
0010
0000
1000
0100
1000
0100
,
1000
2000
3000
0001
0100
0000
0010
0100
,
0001
0002
0003
0100
0100
0000
0010
1000
,
0010
2000
3000
1000
1000
0000
0001
1000
,
0001
2000
3000
0001
0100
0000
0010
1000
,
0100
0010
0002
0000
0003
0000
1000
0001
,
0100
0010
2000
0000
3000
0000
0000
0000
,
0001
0100
0020
0000
0030
0000
0100
0001
,
0010
0100
2000
0000
0002
0000
3003
0000
,
1001
1001
1001
0000
,
0001
0000
1000
0000
0001
0000
1000
0010
,
1000
0000
0001
0000
0010
0000
0001
0100
,
0001
0000
0100
0000
0010
0000
0100
0010
,
0100
0000
0001
0000
1000
0100
1000
0100
,
1000
0001
0100
0010
,
1000
0001
1000
0000
0001
0010
0001
0000
,
0100
0000
0100
0000
0001
0000
0001
1000
,
0010
0000
0100
0000
0001
0000
1000
0100
,
2000
0000
3000
0000
0001
1000
0001
1000
,
0001
1000
0010
0100
,
0100
0001
0010
0100
,
1000
0001
1000
0001
1000
0000
0010
0100
,
0001
1000
0200
0000
0300
0000
1000
0001
,
0100
0010
2000
0000
3000
0000
0000
0000
,
0001
0010
0002
0000
0003
0000
0100
0001
,
0010
0100
2000
0000
3000
0000
0000
0000
,
1001
1001
1001
0000
,
0001
0000
0100
0000
0010
0000
0100
0001
,
0100
0000
0001
0000
0010
0000
0100
1000
,
0100
0000
1000
0000
0001
0000
1000
0001
,
1000
0000
0001
0000
0100
0010
0100
0010
,
0100
0100
0001
0001
,
1000
0010
1000
0001
,
1000
0100
1000
0000
0010
1000
0010
0000
,
1000
0001
1000
0001
1000
0001
1000
0000
,
1001
0001
0100
0010
,
0100
0100
0001
0010
,
0100
1000
0001
1000
,
0010
0000
1000
0000
0001
0010
0001
0010
,
0001
0000
0100
0000
0001
0000
0100
0010
,
0100
0000
0001
0000
1000
0000
0100
1000
,
0100
0000
1000
0000
1000
0000
0010
1000
,
0010
0000
0100
0000
0001
1000
0001
1000
,
0001
0000
0000
0000
;

//--------------- dance-single - Alex ----------------
#NOTES:
     dance-single:
     Alex:
     Hard:
     8:
     0,0,0,0,0:
0000
0000
0000
0000
,
0000
0000
0000
0000
,
0000
0000
0000
0000
,
0000
0000
0000
0000
0000
0001
1000
0010
,
0100
0000
0001
0010
0100
1000
0001
0000
,
1000
0000
0010
1000
0100
0010
0100
1000
,
0001
0000
0100
0000
0010
0100
0010
0000
,
1000
0001
0010
0001
0100
0010
1000
1000
,
0100
0020
0030
0001
0100
0010
0100
0001
,
1000
0020
0030
0100
0001
0010
0001
1000
,
0100
2000
3000
0001
1000
0010
1000
0001
,
0010
0002
0003
0100
0100
0010
1000
0001
,
0100
0010
2000
0000
3000
0000
0001
0100
,
0010
0100
0001
0010
0200
0000
0300
0000
,
1000
0010
0200
0300
0002
0003
1000
0001
,
0010
0001
0200
0300
0020
0000
0030
0000
,
1001
0000
1001
0000
0010
0100
0010
0100
,
0001
0000
0001
0000
1000
0000
0010
0000
1000
0000
0001
0000
1000
0000
0100
0010
,
0001
0100
0010
0100
0001
0010
0100
1000
,
1000
0000
0001
0000
1000
0000
0010
0000
1000
0000
0001
0000
0010
0000
0001
0010
,
0001
0100
0010
0100
0001
0001
1000
1000
,
0001
1000
0000
1000
0001
0000
1000
0000
0010
0100
0000
0100
0010
0000
0100
0000
,
0001
0000
0010
0000
0100
0000
1000
0000
0100
1000
0000
1000
0100
0000
1000
0000
,
0010
0000
0010
0000
1000
0000
1000
0000
0001
0000
0001
0000
0100
0000
0010
0100
,
0010
0100
0001
0010
0100
1000
0001
0100
,
0220
0000
0330
0000
0001
1000
0001
1000
,
1001
0000
0000
0001
0100
0010
1000
0100
,
0110
0000
0000
0010
0001
0100
0010
1000
,
1001
0000
0000
0001
2000
3000
0001
0100
,
0010
1000
0200
0300
2000
3000
0001
1000
,
0010
0100
0001
0010
0002
0003
0200
0300
,
0010
1000
0200
0300
0020
0030
0001
1000
,
0010
0100
0002
0003
2000
3000
0001
0100
,
0010
0000
1001
0000
0001
0001
1000
1000
,
0001
0000
0100
0000
0010
0000
0100
0000
0001
0000
0010
0000
0100
0000
1000
0100
,
1000
0010
0010
1000
1000
0001
0100
0010
,
0010
0000
0100
0000
0001
0000
0010
0000
0001
0000
1000
0000
0100
0000
1000
0100
,
1000
0010
1000
0001
0100
0100
0010
0010
,
1000
0001
0000
0001
1000
0000
0001
0000
1000
0001
0000
0001
0100
0000
0010
0000
,
1000
0000
0100
0000
0010
0000
0001
0000
0100
0010
0000
0010
0100
0000
0001
0000
,
0010
0000
0010
0000
0001
0000
0001
0000
0100
0000
0010
0000
0100
0000
0001
1000
,
0001
1000
0100
0010
0001
0001
0100
0100
,
0010
1001
0000
0001
1000
0010
0100
0001
,
1000
1100
0000
0010
0001
0100
0010
0100
,
0001
0011
0000
0001
0001
0100
0010
1000
,
0001
1001
0000
0001
1000
0010
0100
0001
,
1000
1000
0100
0100
1000
1000
0020
0030
,
0100
0100
0001
0001
0010
0010
0002
0003
,
1000
1000
0001
0001
0100
0100
0020
0030
,
1000
0100
1000
1000
0001
0100
0010
1000
,
0001
0020
0000
0030
0000
0000
0000
0000
;

//--------------- dance-single - Alex ----------------
#NOTES:
     dance-single:
     Alex:
     Challenge:
     10:
     0,0,0,0,0:
0000
0000
0000
0000
,
0000
0000
0000
0000
,
0000
0000
0000
0000
,
0000
0000
0000
0000
0000
0000
0000
0000
0000
0001
0010
0100
1000
0000
1001
0000
,
0001
0000
1000
0000
0010
0000
0100
0001
0010
0000
0001
0100
0010
0000
1000
0000
,
0100
0000
0000
0000
0000
0000
0010
0000
0000
0000
0000
0000
0100
0000
0000
0000
0000
0000
1000
0000
0000
0010
0000
0000
0100
0000
0000
0000
0001
0000
0000
0000
0100
0000
0000
0000
0001
0000
0000
0000
1000
0000
0000
0000
0010
0000
0000
0000
,
1000
0000
0001
0000
0100
0000
0010
1000
0100
0000
1000
0001
0100
0000
0001
0000
,
1000
0010
1000
0010
1000
0001
0100
0001
1000
0001
0010
0000
1001
0000
1001
0000
,
0001
0000
1000
0000
0010
0000
1000
0001
0100
0010
0100
0001
0010
0100
1000
0001
,
0100
0000
0010
0000
1000
0000
0001
0010
0001
0100
0010
0100
0001
0010
0001
1000
,
0010
0000
1000
0000
0001
0000
1000
0100
1000
0001
1000
0010
1000
0001
0010
0001
,
1000
0010
0100
0001
0011
0000
0001
0100
,
0010
0000
0100
0001
0010
0000
0001
0000
1000
0000
0010
1000
0100
0010
0100
1000
,
0001
0000
0001
0100
0010
0000
0100
0000
0001
0000
1000
0000
0100
0010
0001
0000
,
1000
0000
0010
1000
0001
0000
0100
0000
0001
0000
0010
0000
0001
1000
0010
0100
,
0001
0000
0001
1000
0010
0000
0100
0000
0001
0000
1000
0000
0100
0000
0010
0000
,
1001
0000
0110
0000
1010
0101
0011
1001
,
0001
0000
0100
0001
0100
0000
0010
1000
0010
0000
1000
0100
1000
0000
0001
0100
,
0010
0000
1000
0100
0010
0000
0001
1000
0010
0000
0100
0001
1000
0000
0001
0000
,
1000
0000
0001
0100
0001
0000
0010
0001
0010
0000
0001
1000
0001
0000
1000
0010
,
1000
0000
0001
0000
0100
0001
0100
0000
0101
0000
0110
0000
1010
0000
1100
0000
,
0010
0100
0000
0100
1000
0000
0001
0000
1000
0010
0000
0010
0100
0000
0001
0000
,
1000
0100
0000
0010
0001
0000
0100
0000
0010
1000
0000
0001
0100
0000
0010
0000
,
0010
0000
1000
0010
1000
0000
0001
0010
0001
0000
1000
0100
1000
0000
0001
0100
,
0001
0000
0010
0001
0100
0000
0010
1000
0100
0000
0010
0001
0100
0000
1001
0000
,
0001
0000
2000
0000
0000
0000
3010
1000
0001
0100
0010
1000
0001
1000
0020
0000
,
0030
0000
0100
0000
0001
0000
0010
0100
1000
0001
0100
0010
0100
0001
2000
0000
,
3000
0000
0001
0000
0010
0000
0001
0100
0010
0100
0001
0010
0001
0100
0020
0000
,
0030
0100
0001
1000
1100
0000
0100
1000
,
0010
0000
1000
0010
1000
0000
0001
0000
0100
0000
0010
0100
0001
0010
0100
1000
,
0001
0000
0001
1000
0010
0000
0100
0000
0001
0000
1000
0100
1000
0100
1000
0000
,
0001
0000
0100
0010
0100
0000
0001
0000
0010
0000
0100
1000
0001
0100
0010
1000
,
0001
0000
0001
1000
0010
0000
0100
0000
0001
0000
1000
0000
0010
0000
0100
0000
,
1001
0000
0110
0000
0010
0100
0001
1000
,
0100
0000
0010
0001
0100
0000
0010
1000
0001
0000
1000
0001
0100
0000
0001
1000
,
0100
0000
0010
0001
0100
0000
0010
1000
0001
0000
0010
0001
1000
0000
0010
0000
,
1000
0000
0001
0100
0001
0000
1000
0100
1000
0000
0001
0010
0001
0000
1000
0010
,
1000
0000
0001
0000
0001
0010
0100
0000
1100
0000
0011
0000
0101
0000
0110
0000
,
0010
1000
0000
1000
0001
0000
1000
0000
0001
0100
0000
0100
0001
0000
1000
0000
,
0100
1000
0000
1000
0100
0000
0010
0000
0001
0100
0000
0100
0010
0000
1000
0000
,
0001
0000
0001
0010
0100
0000
1000
0010
1000
0000
0010
0100
0010
0000
0100
0001
,
0010
0000
0001
0010
0001
0000
0100
0000
0110
0000
0110
0000
1001
0000
1001
0000
,
0001
0100
0000
0100
0001
0000
1000
0000
0010
1000
0100
0010
0001
1000
0010
0000
,
0100
0000
0001
0010
0001
0000
1000
0000
0010
1000
0010
1000
0010
1000
0001
0000
,
0100
0000
0001
0010
0001
0000
0100
0000
0010
0100
0001
0010
0100
1000
0001
0000
,
1000
0000
0010
0000
1000
0001
1000
0000
0001
0000
0100
0000
0010
0000
0100
0000
,
0101
0000
0011
0000
0101
0000
0110
0000
1100
0000
0110
0000
0011
0000
0001
1000
,
1001
0000
0101
0000
0110
0000
0101
0000
0011
0000
1001
0000
1010
0000
0010
1000
,
1100
0000
0110
0000
0011
0000
0101
0000
0110
0000
0101
0000
0011
0000
0001
1000
,
1010
0000
0110
0000
0010
0100
0001
0000
1000
0000
0001
0000
0100
0000
0010
0000
,
1001
0220
0000
0330
0000
0000
0000
0000
;
