#TITLE:Rockstar;
#SUBTITLE:;
#ARTIST:Lisa;
#TITLETRANSLIT:;
#SUBTITLETRANSLIT:;
#ARTISTTRANSLIT:;
#GENRE:;
#CREDIT:;
#MUSIC:Rockstar.ogg;
#BANNER:Rockstar.png;
#BACKGROUND:Rockstar-BG.png;
#CDTITLE:;
#SAMPLESTART:31.217;
#SAMPLELENGTH:17.482;
#SELECTABLE:YES;
#OFFSET:-0.038;
#BPMS:0.000=140.000
,105.000=70.000
,113.000=140.000
,241.000=70.000
;
#STOPS:;
#BGCHANGES:;
#FGCHANGES:;

//--------------- dance-single - Alex ----------------
#NOTES:
     dance-single:
     Alex:
     Beginner:
     1:
     0,0,0,0,0:
0000
0000
0000
0000
,
0000
0000
0000
0000
,
0000
1000
0000
0000
,
0000
0010
0000
0000
,
0000
1000
0000
0000
,
0000
0001
0000
0000
,
0000
1000
0000
0000
,
0000
0010
0000
0000
,
0000
0010
0000
0000
,
0000
0100
0000
0000
,
0000
0001
0000
0000
,
0000
0001
0000
0000
,
0000
1000
0000
0000
,
0000
0001
0000
0000
,
0000
0010
0000
0000
,
0000
0001
0000
0000
,
0000
0100
0000
0000
,
0000
0100
0000
0000
,
0000
1001
0000
0000
,
0000
0001
0000
0000
,
0000
1000
0000
0000
,
0000
0010
0000
0000
,
0000
0010
0000
0000
,
0000
1000
0000
0000
,
0000
1000
0000
0000
,
0000
0100
0000
0000
,
0000
1001
0000
0000
,
0000
1001
0000
0000
,
0000
0001
0000
0000
,
0000
0001
0000
0000
,
0000
1000
0000
0000
,
0000
1000
0000
0000
,
0000
0010
0000
0000
,
0000
1000
0000
0000
,
0000
0001
0000
0000
,
0000
0100
0000
0000
,
0000
0010
0000
0000
,
0000
1000
0000
0000
,
0000
1000
0000
0000
,
0000
0001
0000
0000
,
0000
0100
0000
0000
,
0000
0100
0000
0000
,
0000
0010
0000
0000
,
0000
1000
0000
0000
,
0000
1001
0000
0000
,
0000
0001
0000
0000
,
0000
0001
0000
0000
,
0000
0100
0000
0000
,
0000
0100
0000
0000
,
0000
0010
0000
0000
,
0000
0010
0000
0000
,
0000
1000
0000
0000
,
0000
1001
0000
0000
,
0000
0001
0000
0000
,
0000
0001
0000
0000
,
0000
0001
0000
0000
,
0000
1000
0000
0000
,
0000
1000
0000
0000
,
0000
0100
0000
0000
,
0000
1000
0000
0000
,
0000
1001
0000
0000
,
0000
1001
0000
0000
,
0000
0110
0000
0000
,
0000
0110
0000
0000
,
0000
1000
0000
0001
,
0000
0001
0000
1000
,
0000
1000
0000
0010
,
0000
0100
0000
0010
;

//--------------- dance-single - Alex ----------------
#NOTES:
     dance-single:
     Alex:
     Easy:
     3:
     0,0,0,0,0:
0000
0000
0000
0000
,
0000
0000
0000
0000
,
0000
1000
0000
0001
,
0000
1000
0000
1000
,
0000
0001
0000
0100
,
0000
0001
0000
0001
,
0000
1000
0000
0010
,
0000
0100
0000
0010
,
0010
0010
0000
0100
,
0000
0001
0000
1000
,
0000
0001
0000
0001
,
0000
1000
0001
1000
,
0000
0001
0000
0100
,
0000
0010
0100
0010
,
0000
1000
0000
1000
,
0000
0001
0001
0002
,
0000
0003
0000
1000
,
0000
0010
0010
0020
,
0030
1001
0000
1001
,
0000
0010
0100
0010
,
0000
1000
0000
1000
,
0000
0001
0000
0001
,
0000
1000
0100
1000
,
0000
0001
0100
0001
,
0000
1000
0000
0001
,
0000
1000
0000
1000
,
0000
1001
0000
0110
,
0000
0010
0100
0010
,
0000
1000
0000
1000
,
0000
0001
0000
0001
,
0000
1000
0000
0001
,
0000
0100
0000
0010
,
0000
0100
0100
0100
,
0000
0010
0010
0010
,
0000
1000
0000
0001
,
0000
1000
0001
1000
,
0000
1001
0000
0001
,
0000
0100
0100
0100
,
0000
0001
0000
0010
,
0000
0001
0010
0001
,
0000
1000
0000
0100
,
0000
1000
0010
2000
,
0000
3000
0000
0001
,
0000
0100
0100
0200
,
0300
0110
0000
0110
,
0000
0010
1000
0010
,
0000
1000
0000
0001
,
0000
0100
0001
0100
,
0000
0010
0000
1000
,
0000
0100
1000
0100
,
0000
1000
0000
0001
,
0000
1000
1000
1000
,
0000
1001
0000
1001
,
0000
0010
0100
0010
,
0000
0100
0000
0001
,
0000
0010
0001
0010
,
0000
0001
0000
1000
,
0000
0001
1000
0001
,
0000
1000
0000
0001
,
0000
0100
0010
0100
,
0000
1001
0000
1001
,
0000
0110
0000
0110
,
0000
1010
0000
1010
,
0000
0101
0000
0101
,
0000
0001
0001
0001
,
0000
1000
1000
1000
,
0000
0010
0010
0010
,
0000
0100
0100
0100
;

//--------------- dance-single - Alex ----------------
#NOTES:
     dance-single:
     Alex:
     Medium:
     5:
     0,0,0,0,0:
0000
0000
0000
0000
,
0000
0000
0000
0000
,
0000
0010
0100
0001
,
0100
0010
1000
0200
,
0300
1000
0001
0100
,
0010
0100
0001
0002
,
0003
0100
0001
0010
,
0100
1000
0001
1001
,
1001
0000
0001
1000
,
0010
0100
0001
0010
,
0011
0000
0001
0100
,
0010
0100
0001
1000
,
0200
0300
1000
0010
,
0100
0001
1000
0010
,
0200
0300
0001
0010
,
0100
1000
0001
2002
,
0000
3003
0001
1000
,
0010
0100
0001
2002
,
3003
0001
1000
0010
,
1000
0001
0010
0002
,
0003
0100
0100
0010
,
1000
0100
1000
0020
,
0030
1000
1000
0001
,
0001
0100
0010
1001
,
1001
0000
0001
0100
,
0010
0100
0001
1000
,
1001
0000
0000
0001
1000
0001
0000
1000
,
0001
1000
0000
0001
1000
0001
1000
0001
,
1000
0001
0100
0001
,
0100
0010
1000
0020
,
0030
1000
0100
1000
,
0001
0100
0010
0200
,
0300
1001
1001
1001
,
0000
0110
0110
0110
,
0000
0001
1000
0001
,
0001
1000
0001
1001
,
1001
0000
0001
0100
,
0010
1000
0100
0010
,
0002
0003
0100
0100
,
0010
1000
0001
0001
,
2000
3000
0001
0100
,
0010
1000
0001
2002
,
0000
3003
0001
0100
,
0010
0100
0001
2002
,
3003
0001
1000
0010
,
1000
0001
0010
0002
,
0003
0100
0100
0001
,
0001
1000
0010
2000
,
3000
0001
1000
0010
,
0100
0001
1000
1001
,
1001
0000
0001
0100
,
0010
0100
0100
1001
,
0000
0001
1000
0010
,
1000
0001
0100
0020
,
0030
0100
0001
0010
,
0100
1000
0001
2000
,
3000
0001
0100
0001
,
0001
0100
0100
0110
,
0110
0000
0010
1000
,
0001
0100
0010
1000
,
1001
0000
0000
0001
0010
0001
0000
1000
,
0100
1000
0000
0001
1000
0001
1000
1000
,
0001
0001
0000
0100
0010
0100
0000
0010
,
1000
0010
0000
1000
0001
1000
1000
0001
,
1000
0000
0001
0100
0001
0000
1000
0000
,
0010
0000
1000
0010
1000
0000
0001
0000
,
0100
0000
0010
0100
0010
0000
0100
0000
,
0100
0000
0001
1000
0001
1000
0001
0001
,
1000
1000
0000
0000
0000
0000
0000
0000
;

//--------------- dance-single - Alex ----------------
#NOTES:
     dance-single:
     Alex:
     Hard:
     9:
     0,0,0,0,0:
0000
0000
0000
0000
,
0000
0000
0000
0000
,
0000
0000
0001
0000
1000
0000
0001
0100
,
0010
0100
0001
0000
1000
0010
1010
0000
,
0101
0000
0001
0010
0100
1000
0001
0100
,
0010
1000
0001
0000
1000
0001
1001
0000
,
0110
0000
0010
0100
0001
0100
0010
0100
,
0001
0010
0100
0000
0100
1000
0010
0000
,
1010
0000
0000
0000
0010
1000
0001
0000
,
0001
0000
1000
0010
0100
0001
1000
0000
,
1001
0000
0001
0010
0001
0100
0001
0010
,
0001
0100
0010
0000
0100
0000
0001
1000
,
0010
0100
0000
0001
0001
1000
0001
0100
,
0001
1000
0010
0000
1000
0000
0001
0010
,
0001
1000
0000
0001
1000
0010
0100
0000
,
0001
0010
0100
0000
1000
0000
2002
0000
,
0000
0000
3003
0000
0001
1000
0010
0100
,
0001
1000
0100
0000
1100
0000
0022
0000
,
0000
0033
0001
0000
1000
0000
0010
0100
,
0001
0100
0010
0000
1000
0010
1010
0000
,
1100
0000
0100
1000
0001
0100
0010
1000
,
0010
0100
0001
0000
0010
0001
0101
0000
,
1010
0000
0010
1000
0001
0010
0100
1000
,
0001
0100
0010
0000
0100
0001
1000
0000
,
1001
0000
0000
0000
0001
1000
0001
0000
,
1000
0000
0010
0010
0100
0001
1000
0000
,
2002
0000
0000
0000
3003
0000
0001
1000
0010
0000
0110
0000
0000
0000
0001
1000
,
0100
0000
1100
0000
0000
0000
0010
0001
0100
0000
0010
0000
1000
0001
0100
0010
,
1000
0000
0001
0000
0000
0000
0001
0100
0001
0000
0100
0000
0000
0000
0010
1000
,
0010
0000
1000
0000
0000
0000
0001
1000
0001
0000
0100
0000
0010
0000
1000
0000
,
0001
0000
0010
0000
0000
0000
0001
0100
0010
0000
0100
0000
0000
0000
0001
1000
,
0100
1000
0100
0000
1000
0010
1000
0000
0001
0000
0100
0000
0010
0000
0100
0000
,
0001
1000
0001
0000
1001
0000
0001
1000
,
0010
0100
0001
0000
0011
0000
0001
0100
,
0010
0100
0001
0000
1001
0000
0001
1000
,
0100
0010
0001
0000
1001
0000
0001
1000
,
0010
0100
0000
0100
0001
0010
0001
0100
,
0010
0100
0001
0000
1000
0000
0010
1000
,
0001
0100
0000
0010
1000
0100
0010
0100
,
1000
0001
0100
0000
0100
0000
0001
0010
,
0001
0100
0000
0010
1000
0001
0100
0000
,
0010
1000
0001
0000
1001
0000
0220
0000
,
0000
0000
0330
0000
0001
0010
0001
0100
,
0010
0100
0001
0000
0101
0000
2020
0000
,
0000
3030
0010
0000
1000
0000
0001
0100
,
0010
0100
0001
0000
1000
0100
0010
0000
,
0011
0000
0001
0100
0010
0100
0001
1000
,
0010
0100
0001
0000
0010
0001
0100
0000
,
0101
0000
0001
0100
0001
0100
0010
0100
,
0001
0100
0010
0000
0010
1000
0100
0000
,
1001
0000
0000
0000
0001
1000
0001
0000
,
1000
0000
0010
1000
0010
0100
0010
0000
,
0110
0000
0010
1000
0100
0010
0100
1000
,
0001
0100
0010
0000
0100
0001
1000
0000
,
1001
0000
0001
1000
0001
0100
0001
1000
,
0010
0100
0001
0000
0010
0001
0100
0000
,
0110
0000
0010
1000
0010
0100
0010
1000
,
0001
1000
0100
0000
1000
0001
0100
0000
,
1001
0000
0000
0000
0001
1000
0001
0000
,
1000
0000
0010
1000
0001
0100
0010
0000
,
0220
0000
0000
0000
0330
0000
0001
1000
0100
0000
1000
0000
0000
0000
0001
0100
,
0010
0000
0100
0000
0000
0000
0010
1000
0001
0000
0010
0000
0001
1000
0010
0100
,
0001
0000
1001
0000
0000
0000
0001
1000
0001
0000
1000
0000
0000
0000
0010
0100
,
0010
0000
0100
0000
0000
0000
0001
0010
0100
0000
1000
0000
0001
1000
0001
0100
,
0001
0000
1000
0000
0010
0000
1000
0100
1000
0000
0001
0000
0100
0000
0010
0100
,
0001
0000
0010
0000
0001
0000
1000
0010
0100
0000
0001
0000
1000
0100
0010
0001
,
1000
0010
0100
0000
0001
0000
1000
0001
0100
0000
0001
0000
0010
0000
0001
0010
,
0001
0000
0100
0000
0010
0000
1000
0100
1000
0000
0001
0000
0100
0010
0100
0001
,
1000
1001
0000
0000
0000
0000
0000
0000
;
