#TITLE:Ring Ding Dong;
#SUBTITLE:;
#ARTIST:Shinee;
#TITLETRANSLIT:;
#SUBTITLETRANSLIT:;
#ARTISTTRANSLIT:;
#GENRE:;
#CREDIT:;
#MUSIC:Ring Ding Dong.ogg;
#BANNER:Ring Ding Dong.png;
#BACKGROUND:Ring Ding Dong-BG.png;
#CDTITLE:;
#SAMPLESTART:8.200;
#SAMPLELENGTH:18.360;
#SELECTABLE:YES;
#OFFSET:-0.641;
#BPMS:0.000=125.000;
#STOPS:;
#BGCHANGES:0.000=Ring Ding Dong.avi=1.000=1=0=0=StretchNoLoop==CrossFade==,
99999.000=-nosongbg-=1.000=0=0=0=StretchNoLoop====
;
#FGCHANGES:;

//--------------- dance-single - Alex ----------------
#NOTES:
     dance-single:
     Alex:
     Beginner:
     1:
     0.079935,0.126973,0.034433,0,0,65,61,4,0,0,0,0.079935,0.126973,0.034433,0,0,65,61,4,0,0,0:
0000
0000
0000
0000
,
0000
0000
0000
0000
,
0000
0000
0000
0000
,
0000
0000
0000
0000
,
1000
0000
0000
0000
,
0001
0000
0000
0000
,
1000
0000
0000
0000
,
0010
0000
0000
0000
,
0100
0000
0000
0000
,
0001
0000
0000
0000
,
0001
0000
0000
0000
,
1000
0000
0000
0000
,
1001
0000
0000
0000
,
0010
0000
0000
0000
,
0100
0000
0000
0000
,
0010
0000
0000
0000
,
1000
0000
0000
0000
,
0001
0000
0000
0000
,
1000
0000
0001
0000
,
1000
0000
0000
0000
,
1001
0000
0000
0000
,
0001
0000
0000
0000
,
0100
0000
0000
0000
,
0010
0000
0000
0000
,
1000
0000
0000
0000
,
0100
0000
0000
0000
,
1000
0000
0000
0000
,
0001
0000
0000
0000
,
1001
0000
0000
0000
,
0010
0000
0000
0000
,
1000
0000
0000
0000
,
0001
0000
0000
0000
,
1000
0000
0000
0000
,
0010
0000
0000
0000
,
0100
0000
0000
0000
,
0100
0000
0000
0000
,
0010
0000
0000
0000
,
1000
0000
0000
0000
,
0001
0000
0000
0000
,
0100
0000
0000
0000
,
0010
0000
0000
0000
,
0010
0000
0000
0000
,
0100
0000
0000
0000
,
0001
0000
0000
0000
,
1000
0000
1000
0000
,
1000
0000
0000
0000
,
0001
0000
0001
0000
,
0001
0000
0000
0000
,
0100
0000
0100
0000
,
0100
0000
0000
0000
,
0010
0000
0010
0000
,
0010
0000
0000
0000
,
1001
0000
0000
0000
,
1000
0000
0000
0000
,
0001
0000
0000
0000
,
0100
0000
0000
0000
,
0010
0000
0000
0000
,
0010
0000
0000
0000
,
1000
0000
0000
0000
,
0001
0000
0000
0000
;

//--------------- dance-single - Alex ----------------
#NOTES:
     dance-single:
     Alex:
     Easy:
     3:
     0.174627,0.256099,0.129126,0.034433,0,142,127,15,4,0,0,0.174627,0.256099,0.129126,0.034433,0,142,127,15,4,0,0:
0000
0000
0000
0000
,
0000
0000
0000
0000
,
0000
0000
0000
0000
,
0000
0000
0000
0000
,
0001
0000
1000
0000
,
0001
0000
0000
0000
,
1000
0000
0010
0000
,
1000
0000
0000
0000
,
0001
0000
0010
0000
,
0001
0000
0000
0000
,
0100
0000
0010
0000
,
0100
0000
0000
0000
,
0010
0010
0010
0000
,
1000
0000
0001
0000
,
0100
0100
0100
0000
,
0001
0000
0010
0000
,
0001
0010
0001
0000
,
1000
0000
0010
0000
,
1000
0010
1000
0010
,
1000
0000
0000
0000
,
1001
0000
1001
0000
,
0010
0010
0010
0000
,
0110
0000
1001
0000
,
0001
0001
0001
0000
,
0101
0000
1010
0000
,
1000
1000
1000
0000
,
0001
0000
1000
0000
,
0010
0010
0010
0000
,
1001
0000
0100
0000
,
0001
0000
1000
0000
,
0010
0000
1000
0000
,
0001
1000
0001
0000
,
1000
0000
1000
0000
,
0001
0000
0001
0000
,
1000
1000
0001
0001
,
1000
0001
1000
0001
,
1001
0000
0000
0000
,
0010
0000
1000
0000
,
0001
0000
0000
0000
,
1000
0100
1000
0100
,
1000
0000
0000
0000
,
0001
0000
0100
0000
,
0001
0000
0000
0000
,
1001
0000
0000
0000
,
0010
0010
0010
0010
,
0010
0010
0020
0030
,
0100
0100
0100
0100
,
0100
0100
0200
0300
,
1001
0000
0010
0000
,
1001
0000
0100
0000
,
1001
0000
0110
0000
,
2002
0000
3003
0000
,
0001
0000
1000
0000
,
0001
1000
0001
0000
,
1000
0000
0010
0000
,
1000
0010
1000
0000
,
0010
0000
0100
0000
,
0001
0010
0001
0000
,
1000
0000
0001
0000
,
1000
0001
1001
0000
;

//--------------- dance-single - Alex ----------------
#NOTES:
     dance-single:
     Alex:
     Medium:
     5:
     0.259481,0.309901,0.111909,0.043042,0.004304,211,198,13,5,0,0,0.259481,0.309901,0.111909,0.043042,0.004304,211,198,13,5,0,0:
0000
0000
0000
0000
,
0000
0000
0000
0000
,
0000
0000
0000
0000
,
0000
0000
0000
0000
,
0001
0100
0001
0001
,
1000
0010
1000
0000
,
0010
1000
0100
1000
,
0010
0100
0001
0000
,
0010
0001
0100
0001
,
0010
0100
1000
0000
,
0001
1000
0001
0100
,
0001
1000
0010
0000
,
1000
0010
1000
0000
,
0001
0010
0001
0000
,
0100
0001
0100
0000
,
0010
1000
0010
0000
,
1001
0000
0001
1000
,
0010
0100
0010
0100
0010
0000
0000
0000
,
1000
0001
0100
0010
,
1001
0000
0000
0000
,
0001
0010
0001
0001
,
1000
0010
1000
1000
,
0100
0010
0001
0001
,
1000
0001
0100
0100
,
0010
1000
0100
0100
,
1000
0010
0100
0100
,
0001
0010
0100
0010
,
0001
1000
0010
0100
,
0101
0001
1000
0010
,
1000
0001
1000
0001
1000
0000
0000
0000
,
0001
0100
0010
1000
,
0100
1000
0100
1000
0100
0000
0000
0000
,
1000
0010
1000
0010
,
0100
0001
0010
0100
,
1000
0001
1000
0001
1000
0000
0000
0000
,
0001
0100
0001
0100
0001
0000
0000
0000
,
1001
0000
0010
0000
,
0100
0000
0000
0000
0001
0010
0001
0000
,
1000
0000
0010
0000
,
1000
0100
1000
0001
,
0101
0000
0100
0000
,
0010
0000
0010
0000
1000
0001
0010
0000
,
0001
0000
1000
0000
,
1001
0000
0000
0000
,
0001
0100
0001
1000
,
0010
1000
0010
1000
0020
0000
0030
0000
,
0100
0001
1000
0100
,
0010
0001
0010
0001
0020
0000
0030
0000
,
0011
0000
0101
0000
,
0110
0000
1010
0000
,
1001
0000
0110
0000
,
2002
0000
3003
0000
,
0001
1000
0001
0001
,
1000
0010
0100
0000
,
0001
1000
0100
0010
,
0001
0100
0010
0000
,
0010
1000
0001
0010
,
0001
0100
0010
0000
,
0010
1000
0100
1000
,
0010
0000
0000
0000
0100
0000
0000
0000
0010
0000
0000
0010
0000
0000
0020
0000
,
0030
0000
0000
0000
;

//--------------- dance-single - Alex ----------------
#NOTES:
     dance-single:
     Alex:
     Hard:
     7:
     0.395985,0.464852,0.137734,0.077475,0.137734,322,306,16,9,0,0,0.395985,0.464852,0.137734,0.077475,0.137734,322,306,16,9,0,0:
0000
0000
0000
0000
,
0000
0000
0000
0000
,
0000
0000
0000
0000
,
0000
0000
0000
0000
,
0001
0000
0000
0100
0000
0000
0001
0000
1000
0000
0000
0010
0000
0000
1000
0000
,
0100
0000
0000
0000
1000
0000
0010
0000
1000
0000
0000
0010
0000
0000
0010
0000
,
1000
0000
0000
0001
0000
0000
1000
0000
0001
0000
0000
0100
0000
0000
0001
0000
,
1000
0000
0000
0000
0001
0000
0010
0000
0001
0000
0000
0001
0000
0000
0100
0000
,
0001
0000
0000
0001
0000
0000
1000
0000
0010
0000
0000
0010
0000
0000
1000
0000
,
0100
0000
0000
0000
0100
0000
1000
0000
0010
0000
0000
0010
0000
0000
1000
0000
,
0001
0000
0000
0100
0000
0000
0001
0000
1000
0000
0000
0100
0000
0000
0010
0000
,
0001
0000
0000
0000
0001
0000
0100
0000
0010
0000
0000
0010
0000
0000
1000
0000
,
0001
0010
0001
0000
1000
0010
1000
0000
,
0100
1000
0100
0000
0010
0001
0100
0000
,
0001
1000
0010
0000
0100
0001
1000
0000
,
0100
0010
0001
0000
1000
0010
0100
0000
,
1001
0001
0100
0010
,
1010
1000
0100
0010
,
0001
0010
0001
0100
0010
0100
0001
0010
,
0001
0000
0000
0000
,
1001
0000
0110
0000
0010
0100
0001
0000
,
1000
0100
0010
0100
1000
0001
0100
0000
,
0101
0000
1010
0000
0010
1000
0001
0000
,
0001
0010
0001
0100
0010
0100
0001
0000
,
0101
0000
1010
0000
0010
1000
0100
0000
,
1000
0010
1000
0100
1000
0010
0100
0000
,
0101
0000
0011
0000
0001
0010
0001
0000
,
1000
0010
1000
0001
0100
0001
1000
0000
,
1001
0000
0001
0000
0100
0001
0100
0000
,
0001
0010
0001
0100
0020
0000
0030
0000
,
1000
0100
1000
0000
0010
1000
0010
0000
,
0100
0001
1000
0100
0020
0000
0030
0001
,
2000
0000
3000
0010
0200
0000
0300
0001
,
0020
0000
0030
0001
2000
0000
3000
0100
,
0010
0001
0100
0010
1000
0100
0010
0001
,
1000
0010
1000
0010
1000
0001
1000
0001
,
1001
0000
0010
0100
,
0001
0000
0000
0000
1000
0100
0010
0001
,
1000
0000
0010
0000
,
1000
0001
1001
1001
,
0101
0000
0000
0000
0100
0010
1000
0001
,
0000
0000
0010
0000
0100
0000
1000
0100
,
0010
0000
0011
0000
,
0001
0001
0100
0100
,
0010
1000
0010
0000
1000
0001
1000
0000
,
0001
0010
0001
0100
0020
0000
0030
0000
,
0010
1000
0010
0000
0100
0001
0100
0000
,
0001
1000
0100
1000
0002
0000
0003
0000
,
1000
0000
0000
0001
0000
0000
1000
0000
0001
0000
0000
1000
0000
0000
0001
0000
,
1000
0000
0000
0001
0000
0000
1000
0000
0001
0000
0000
1000
0000
0000
0010
0000
,
0100
0000
0000
0010
0000
0000
0100
0000
0010
0000
0000
0100
0000
0000
0010
0000
,
0100
0000
0000
0010
0000
0000
0100
0000
0010
0000
0000
0100
0000
0000
0001
0000
,
1000
0000
0000
0001
0000
0000
0010
0000
0001
0000
0000
0100
0000
0000
0010
0000
,
1000
0000
0000
0000
0100
0000
0010
0000
0001
0000
0000
0001
0000
0000
0100
0000
,
0010
0000
0000
0010
0000
0000
1000
0000
0001
0000
0000
0001
0000
0000
1000
0000
,
0100
0000
0000
0000
1000
0000
0010
0000
1000
0000
0000
0010
0000
0000
0010
0000
,
1000
0000
0000
0001
0000
0000
0001
0000
0100
0000
0000
0100
0000
0000
0001
0000
,
0010
0000
0000
0000
0001
0000
0010
0000
0001
0000
0000
0001
0000
0000
0100
0000
,
0001
0000
0000
0001
0000
0000
1000
0000
0010
0000
0000
0010
0000
0000
1000
0000
,
0001
0000
0000
0000
0001
0000
0010
0000
0100
0000
0000
0100
0000
0000
0200
0000
,
0300
0000
0000
0000
;

//--------------- dance-single - Alex ----------------
#NOTES:
     dance-single:
     Alex:
     Challenge:
     9:
     0.576761,0.645628,0.378768,0.043042,0.327118,469,425,44,5,0,0,0.576761,0.645628,0.378768,0.043042,0.327118,469,425,44,5,0,0:
0000
0000
0000
0000
,
0000
0000
0000
0000
,
0000
0000
0000
0000
,
0000
0000
0000
0000
,
0101
0000
0000
0100
0000
0000
0100
0000
0110
0000
0000
0010
0000
0000
1010
0000
,
1000
0000
1000
0001
0010
0000
0010
0001
1000
0000
0000
1000
0000
0000
1000
0000
,
1001
0000
0000
0001
0000
0000
0001
0000
0101
0000
0000
0100
0000
0000
0100
0000
,
0110
0000
0010
1000
0001
0000
0001
0010
0001
0000
0000
0001
0000
0000
0100
0000
,
0101
0000
0000
0001
0000
0000
1000
0000
1010
0000
0000
0010
0000
0000
1000
0000
,
1100
0000
0100
1000
0100
0000
1000
0010
1000
0000
0000
0010
0000
0000
0010
0000
,
1010
0000
0000
1000
0000
0000
1000
0000
1001
0000
0000
0001
0000
0000
1000
0000
,
1001
0000
0001
0010
0001
0000
1000
0010
1000
0000
0000
0010
0000
0000
0010
0000
,
0100
0001
0100
0010
0000
0010
1000
0001
,
0010
0001
1000
0010
0000
0010
1000
0100
,
0010
0100
1000
0001
0000
0001
0100
0001
,
0010
0001
0100
0010
0000
0010
1000
0001
,
0010
0001
0100
0000
0010
1000
0001
0000
,
0010
0001
1000
0100
0010
0001
0100
0010
,
1000
0000
1000
0001
0010
0010
0001
1001
,
1001
0000
0000
0000
,
0001
0100
0001
0000
0100
0000
0010
0000
1000
0000
0100
0000
1000
0000
0010
0000
,
1000
0010
1000
0000
0010
0000
0100
0000
0001
0000
0010
0000
0001
0000
0100
0000
,
0001
0100
0001
0000
0100
0000
0010
0000
1000
0000
0001
0000
0010
0000
0100
0000
,
1000
0100
1000
0000
0010
0000
0010
0000
1000
0000
0001
0000
0010
0000
0001
0000
,
1000
0001
0100
0000
0001
0000
1000
0000
0100
0000
1000
0000
0001
0000
0010
0000
,
0001
0100
0010
0000
0100
0000
0001
0000
0010
0000
0100
0000
1000
0000
0010
0000
,
1000
0010
1000
0000
0001
0000
0010
0000
0001
0000
0100
0000
0001
0000
0010
0000
,
0100
0010
0100
0000
0100
0000
1000
0000
0010
0000
0010
0000
1000
0000
0001
0000
,
1001
0000
0001
0100
0001
0010
0001
0100
,
0010
0000
0010
0100
0000
0100
0010
0000
0110
0000
0000
0010
1000
0000
0001
0000
,
1001
0001
0100
0001
1000
0100
1000
0001
,
0010
0000
0001
0100
0000
0100
0001
0000
0101
0000
0000
0010
0100
0000
0001
0000
,
1001
0000
0001
0010
0011
0000
0001
1000
,
1010
0000
0010
1000
1100
0000
0100
0010
,
0001
0000
0100
0000
0010
0000
0100
0000
0001
1000
0001
1000
0001
1000
0001
1000
,
0001
0000
1000
0000
0010
0000
1000
0000
0010
1000
0010
1000
0010
1000
0010
1000
,
0010
1000
0100
1000
0010
0001
0010
2000
,
0000
3001
0010
0001
0100
0100
0001
0020
,
0000
0031
0101
0000
1000
0010
1010
0000
,
0010
0000
1000
0000
0100
0000
1000
0010
1000
0000
0010
0000
0100
0000
0001
0000
,
1001
0001
0100
1000
0100
0001
0010
0002
,
0000
0103
0100
0010
1000
0100
0010
0100
,
1000
0000
0000
0010
1000
0000
0001
0000
1000
0000
0000
0010
0100
0000
0001
0000
,
0100
0000
0000
0010
1000
0000
0100
0000
0010
0000
0001
0000
0100
0000
0010
0000
,
1000
0001
0010
0001
0100
0010
1000
0100
,
0010
0000
0001
0000
1000
0000
0001
0000
1001
0000
0000
0100
0000
0000
0100
0000
,
0010
1000
0100
1000
0010
0001
0010
1000
,
0100
0000
0001
0000
0100
0000
1000
0000
1001
0000
0000
0001
0000
0000
0001
0000
,
0100
0000
0000
0010
0000
0000
1000
0000
0100
0000
0000
0010
0000
0000
0001
0000
,
1000
0000
0000
0010
0000
0000
0100
0000
0001
0000
0000
1000
0000
0000
0100
0000
,
0110
0000
0000
0010
0000
0000
0001
0000
0101
0000
0000
0100
0000
0000
0010
0000
,
1010
0000
0000
1000
0000
0000
0001
0000
1001
0000
0000
0001
0000
0000
0100
0000
,
0110
0000
0000
0010
0000
0000
1000
0000
1001
0000
0000
0010
0000
0000
0001
0000
,
1001
0000
0001
0100
0001
0000
1000
0010
1000
0000
0000
0010
0000
0000
0010
0000
,
1010
0000
0000
1000
0000
0000
0100
0000
1100
0000
0000
0100
0000
0000
1000
0000
,
1010
0000
0010
1000
0010
0000
1000
0100
1000
0000
0000
1000
0000
0000
0001
0000
,
1001
0000
0000
0001
0000
0000
0010
0000
0011
0000
0000
0001
0000
0000
0100
0000
,
0110
0000
0010
0100
0010
0000
0100
0001
0100
0000
0000
0001
0000
0000
0001
0000
,
1001
0000
0000
1000
0000
0000
0100
0000
1100
0000
0000
0100
0000
0000
1000
0000
,
0010
0000
1000
0010
1000
0000
0001
1000
0001
0000
0000
1001
0000
0000
2002
0000
,
3003
0000
0000
0000
;

//--------------- pump-double - ----------------
#NOTES:
     pump-double:
     :
     Medium:
     5:
     0.287766,0.412341,0.249643,0.111909,0.004304,234,205,29,13,0,0,0.287766,0.412341,0.249643,0.111909,0.004304,234,205,29,13,0,0:
0000000000
0000000000
0000000000
0000000000
,
0000000000
0000000000
0000000000
0000000000
,
0000000000
0000000000
0000000000
0000000000
,
0000000000
0000000000
0000000000
0000000000
,
0010000000
0010100000
0000000100
0000010100
,
0010000000
0000100000
0010000000
0010000000
,
0000000100
0000010100
0010000000
0010100000
,
0000000100
0000010000
0000000100
0000000100
,
0010000000
0011000000
0000000100
0000001100
,
0010000000
0001000000
0010000000
0010000000
,
0000000100
0000001100
0010000000
0011000000
,
0000000100
0000001000
0000000100
0000000100
,
0001000000
0000001000
0001000000
0000000000
0000100000
0000000000
0010000000
0000000000
,
0001000000
0100000000
0001000000
0000000000
1000000000
0000000000
0000100000
0000000000
,
0001000000
0000001000
0001000000
0000000000
0000000100
0000000000
0000010000
0000000000
,
0000000010
0000001000
0000000010
0000000000
0000000100
0000000000
0000000001
0000000000
,
0000010000
0000000001
0000001000
0000000000
0000010000
0000000000
0001000000
0000000000
,
0000100000
1000000000
0001000000
0000000000
0000100000
0000000000
0000001000
0000000000
,
0000010000
0000000001
0000000100
0000000010
,
0000001010
0000000000
0000000000
0000000000
,
0000001100
0000000000
0000100000
0000000000
0000000100
0000001000
0000000100
0000000000
,
0011000000
0000000000
0000010000
0000000000
0010000000
0001000000
0010000000
0000000000
,
0000010100
0000000000
0001000000
0000000000
0000000100
0000010000
0000000100
0000000000
,
0010100000
0000000000
0000001000
0000000000
0010000000
0000100000
0010000000
0000000000
,
0000101000
0000000000
0001010000
0000000000
0000000100
0000001000
0000010000
0000000000
,
0001010000
0000000000
0000101000
0000000000
0010000000
0001000000
0000100000
0000000000
,
0000101000
0000000000
0001010000
0000000000
0000000100
0000010000
0000001000
0000000000
,
0001010000
0020000000
0000000000
0030000000
,
0000100000
0000100000
1000000000
1000000000
,
0000010000
0000000000
0000100000
0000000000
0000000002
0000000003
0000000000
0000000000
,
0000010000
0000010000
0000000001
0000000001
,
0000100000
0000000000
0000010000
0000000000
0200000000
0300000000
0000000000
0100000000
,
0010000000
0000000000
0000000000
0010000000
0000100000
0000000000
0000000000
0000100000
,
0000010000
0000000000
0000000000
0000010000
0000000100
0000000000
0000000000
0000000100
,
0000000010
0000001000
0001000000
0100000000
,
1000000000
0000100000
0000010000
0000000001
,
0000000100
0000000000
0000000000
0000000000
,
0010000000
0000000000
0000000000
0000000000
,
0000001000
0000000000
0001000000
0000000000
,
0000000100
0000010000
0001000000
0010000000
,
0000100000
0000000000
1000000000
0000000000
,
0000010000
0000000000
0000100000
0000000000
,
0000000001
0000000000
0000010000
0000000000
,
0000110000
0000000000
0000000000
0000000000
,
0000000100
0000000100
0000000100
0000000100
,
0000000100
0000000000
0000000100
0000000000
0000000200
0000000300
0000000000
0000000000
,
0010000000
0010000000
0010000000
0010000000
,
0010000000
0000000000
0010000000
0000000000
0020000000
0030000000
0000000000
0000000000
,
0000000200
0000000300
0000000000
0000000000
0000000200
0000000300
0000000000
0000000000
,
0000000200
0000000300
0000000000
0000000000
0000000200
0000000300
0000000000
0000000000
,
0020000000
0030000000
0000000000
0000000000
0020000000
0030000000
0000000000
0000000000
,
0020000000
0030000000
0000000000
0000000000
0020000000
0030000000
0000000000
0000000000
,
0000000100
0000010100
0010000000
0010100000
,
0000000100
0000010000
0000000100
0000000100
,
0010000000
0010100000
0000000100
0000010100
,
0010000000
0000100000
0010000000
0010000000
,
0000000100
0000001100
0010000000
0011000000
,
0000000100
0000001000
0000000100
0000000100
,
0010000000
0011000000
0000000100
0000001100
,
0010000000
0000000000
0000000000
0000000000
0001000000
0000000000
0000000000
0000000000
1000000000
0000000000
0000000000
1000000000
0000000000
0000000000
1000000000
0000000000
;
