#TITLE:Nemo Nemo;
#SUBTITLE:;
#ARTIST:Yena;
#TITLETRANSLIT:;
#SUBTITLETRANSLIT:;
#ARTISTTRANSLIT:;
#GENRE:;
#CREDIT:;
#MUSIC:Nemo Nemo.ogg;
#BANNER:Nemo Nemo.png;
#BACKGROUND:Nemo Nemo-BG.png;
#CDTITLE:;
#SAMPLESTART:41.624;
#SAMPLELENGTH:19.339;
#SELECTABLE:YES;
#OFFSET:0.115;
#BPMS:0.000=138.000;
#STOPS:162.000=2.127;
#BGCHANGES:6.500=Nemo Nemo.avi=1.000=1=0=0=StretchNoLoop==CrossFade==,
275.000=Nemo Nemo-BG.png=1.000=1=0=1===CrossFade==,
99999.000=-nosongbg-=1.000=0=0=0=StretchNoLoop====
;
#FGCHANGES:;

//--------------- dance-single - Alex ----------------
#NOTES:
     dance-single:
     Alex:
     Beginner:
     1:
     0.093924,0.139509,0.064935,0,0,81,73,8,0,0,0,0.093924,0.139509,0.064935,0,0,81,73,8,0,0,0:
0000
0000
0000
0000
,
0000
0000
0000
0000
,
0000
0000
0000
0000
,
0000
0000
0000
0000
,
0000
0000
0010
0000
,
0000
0000
0010
0000
,
0000
0000
1000
0000
,
0000
0000
0001
0000
,
0000
0000
0100
0000
,
0000
0000
0001
0000
,
0000
0000
1000
0000
,
0000
0000
0010
0000
,
0000
0000
0100
0000
,
0000
0000
0001
0000
,
0000
0000
0100
0000
,
0000
0000
0100
0000
,
0000
0000
1001
0000
,
0000
0000
0000
0000
,
0000
0000
1001
0000
,
0000
0000
0000
0000
,
0000
0000
0010
0000
,
0010
0000
0010
0000
,
0000
0000
0100
0000
,
0100
0000
0100
0000
,
0000
0000
1001
0000
,
0000
0000
0001
0000
,
0000
0000
1000
0000
,
0000
0000
0010
0000
,
0000
0000
1000
0000
,
0000
0000
0001
0000
,
0000
0000
1000
0000
,
0000
0000
0010
0000
,
0010
0000
0010
0000
,
0000
0000
0100
0000
,
0000
0000
0001
0000
,
0000
0000
1000
0000
,
1000
0000
1000
0000
,
0000
0000
0001
0000
,
0000
0000
0100
0000
,
0000
0000
0010
0000
,
0010
0000
0010
1001
,
0000
0000
0000
0001
,
0000
0000
0000
1000
,
0000
0000
0000
1000
,
0000
0000
0000
0010
,
0000
0000
0000
0010
,
0000
0000
0000
0100
,
0000
0000
0000
0001
,
0000
0000
0000
1001
,
0000
0000
0000
1001
,
0000
0000
0000
0010
,
0000
0010
0000
0010
,
0000
0000
0000
0110
,
0000
0000
0000
0100
,
0000
0000
0000
0001
,
0000
0000
0000
1000
,
0000
1000
0000
1000
,
0000
0000
0000
0001
,
0000
0000
0000
1000
,
0000
0000
0000
0010
,
0000
0000
0000
1001
,
0000
0000
0000
0001
,
0000
0000
0000
0100
,
0000
0100
0000
0100
,
0000
0000
0000
0010
,
0000
0000
0000
0010
,
0000
0000
0000
1000
,
0000
0000
0000
0001
,
0000
0001
0000
0001
;

//--------------- dance-single - Alex ----------------
#NOTES:
     dance-single:
     Alex:
     Easy:
     3:
     0.179731,0.251116,0.137987,0.12987,0,155,138,17,16,0,0,0.179731,0.251116,0.137987,0.12987,0,155,138,17,16,0,0:
0000
0000
0000
0000
,
0000
0000
0000
0000
,
0000
0000
0000
0000
,
0000
0000
0000
0000
,
0000
0000
1001
0000
,
0001
0000
1000
0000
,
0001
0000
1000
0000
,
0010
0000
0100
0000
,
0220
0000
0330
0100
,
0000
0100
0000
0001
,
0000
0001
0000
1000
,
0000
0010
0000
1000
,
0000
0001
0000
1001
,
0000
0100
0000
1001
,
0000
0010
0000
0100
,
0000
0100
0000
0010
,
0000
0100
0200
0000
,
0300
0000
0020
0000
,
0030
0000
0001
0000
,
1000
0000
0002
0000
,
0003
0000
1000
0000
,
0001
0000
1000
0001
,
1000
0000
0001
1000
,
0001
1000
2002
0000
,
3003
0000
1001
0000
,
0001
0000
1000
0000
,
0010
0000
0010
0000
,
1000
0000
0001
1000
,
0001
0000
0100
0000
,
0010
0000
0100
0000
,
0100
0000
0001
0000
,
1000
0000
2002
0000
,
3003
0000
0110
0000
,
0010
0000
0010
0000
,
1000
0000
0001
1000
,
0001
0000
1000
0001
,
1000
0000
1001
0000
,
0001
0000
0010
0000
,
0001
0000
0100
0010
,
0100
0000
0010
1000
,
0010
0000
1001
0100
,
0000
0100
0000
0010
,
0020
0000
0030
0100
,
0000
0001
0000
1000
,
1000
1000
0000
1001
,
0000
0010
0000
0010
,
0000
1000
0000
0001
,
0000
0001
0000
0100
,
0100
0100
0000
0020
,
0000
0030
0000
0200
,
0000
0300
0000
0001
,
1000
0001
1000
2002
,
0000
3003
0000
1001
,
0000
0001
0000
1000
,
0000
1000
0000
0010
,
0000
0010
0000
0100
,
0010
0100
0000
0001
,
0000
0001
0000
0100
,
0000
0010
0000
1000
,
0000
0010
0000
2002
,
0000
3003
0000
1001
,
0000
0001
0000
0001
,
0000
1000
0000
0010
,
1000
0010
0000
0100
,
0001
0100
0000
0110
,
0000
0010
0000
0010
,
0000
1000
0000
0001
,
0100
0001
0000
1000
,
0100
1000
0000
1001
;

//--------------- dance-single - Alex ----------------
#NOTES:
     dance-single:
     Alex:
     Medium:
     5:
     0.302644,0.336039,0.194805,0.097403,0,261,237,24,12,0,0,0.302644,0.336039,0.194805,0.097403,0,261,237,24,12,0,0:
0000
0000
0000
0000
,
0000
0000
0000
0000
,
0000
0000
0000
0000
,
0000
0000
0000
0000
,
0000
0000
1001
0010
,
0100
0001
0010
0100
,
1000
1000
0001
1000
,
0010
0100
1001
0000
,
0001
1000
0001
1000
0010
0000
0000
0000
,
0100
0010
0100
0000
,
0001
1000
0001
0001
,
1000
0010
1000
0001
,
0100
0110
0000
0010
,
0010
0100
0000
0001
,
1000
0100
1000
1000
,
0001
0001
0010
0001
,
0100
0010
2001
0000
,
0001
0000
0010
0000
,
3010
0000
0020
0000
,
0100
0000
1000
0000
,
0100
0130
1001
0000
,
0110
0000
0010
1000
,
0001
0000
1000
0010
,
0100
0001
2002
0000
,
3003
0000
1001
0001
,
0100
0010
0100
0100
,
0001
0001
1000
0100
,
0010
0000
0100
0000
1000
0010
1000
0010
,
2000
3000
0001
0100
,
0010
0010
0100
0001
,
0010
0000
0100
0000
1000
0001
1000
0000
,
0001
1000
0001
0000
1001
0000
0000
0000
,
0110
0000
0010
0010
,
0100
0100
0001
0001
,
1000
0000
1000
0000
0100
1000
0100
0000
,
1000
0010
1000
0000
0001
0000
0000
0000
,
1000
0010
1010
0010
,
0010
0100
0001
0010
,
0001
0000
0100
0000
0010
0100
0010
0000
,
1000
0010
1000
0000
0001
0000
0000
0000
,
1000
0001
1001
0010
,
0100
0001
0100
0010
,
0020
0030
0000
0100
,
0001
1000
0100
1000
,
0001
1000
1001
0000
,
0001
0100
0010
0010
,
0100
0010
1000
0001
,
0100
0100
0001
1000
,
0100
1000
0001
1002
,
0000
1000
0000
0010
,
0000
0013
0000
0001
,
1000
0001
1000
2002
,
0000
3003
0000
1001
,
0010
0100
0001
1000
,
1000
0001
0001
0010
,
0001
0000
0100
0000
0010
0000
0100
0001
,
0100
0001
0200
0000
0300
0000
0001
0000
,
0001
1000
1000
0010
,
0100
0000
0001
0000
1000
0000
0100
0010
,
0100
0000
1000
0001
1000
0000
1001
0000
,
0000
0110
0000
1001
,
0001
0100
0010
0100
,
0001
0000
1000
0000
0001
0000
0010
0001
,
0010
0000
0001
1000
0001
0000
1001
0000
,
0000
1000
0010
0110
,
0100
0001
1000
0010
,
0010
0000
1000
0000
1000
0000
0001
0010
,
0001
0000
0100
0001
0100
0000
0110
0000
,
0000
1001
0000
0220
,
0330
0000
0000
0000
;

//--------------- dance-single - Alex ----------------
#NOTES:
     dance-single:
     Alex:
     Hard:
     8:
     0.477737,0.504058,0.211039,0.194805,0.150162,412,386,26,24,0,0,0.477737,0.504058,0.211039,0.194805,0.150162,412,386,26,24,0,0:
0000
0000
0000
0000
,
0000
0000
0000
0000
,
0000
0000
0000
0000
,
0000
0000
0000
0000
,
0001
0000
1000
0010
0000
1000
0010
0000
1010
0000
0000
0000
0010
0000
0000
0000
,
1000
0001
0100
0000
0001
0000
0010
0000
,
0001
0010
0001
0000
1000
0000
0010
0000
,
1000
0010
1000
0000
0001
0100
0010
0100
,
0001
0100
0010
0100
0101
0000
0001
1000
,
0100
0000
1000
0001
0100
0000
0001
1000
,
0010
0000
0010
1000
0001
0000
1000
0100
,
1000
0000
0001
0010
0001
0000
0100
0010
,
0100
0000
0001
0010
0100
0000
1000
0001
,
0100
0000
0010
1000
0001
0000
0010
0001
,
1000
0000
0010
0000
1000
0000
0100
0000
0100
0000
0000
0100
0000
0000
0020
0000
,
0000
0000
0031
0000
1000
0000
0100
0000
1000
0000
0000
0001
0000
0000
1000
0000
,
0000
0010
0100
0001
0000
1000
0001
0100
,
0020
0000
0130
0000
0000
0100
0001
1000
,
0200
0000
1300
0000
0000
1000
0001
1000
,
0002
0000
0013
0000
0010
0001
0100
0010
,
0200
0000
0300
0000
0001
0000
1000
0010
,
1000
0000
0001
0010
0001
0000
0011
0000
,
1001
0000
0000
0000
0000
0000
0001
0000
0100
0000
0000
0010
0000
0000
0100
0000
,
0001
0000
1000
0000
0100
0000
0110
0000
0000
0001
0000
0000
2002
0000
0000
0000
,
3003
0000
0001
0000
1000
0001
1000
0000
1001
0000
0000
0000
0001
0000
0000
0000
,
0100
0010
0100
0000
0001
0010
0100
0010
,
0001
0100
0010
0000
1000
0000
0001
0000
,
1000
0100
1000
0000
0001
1000
0010
0100
,
0002
0003
0110
1001
,
0001
0000
0100
0000
0110
0000
0000
0000
0010
0000
1000
0000
0100
0000
1000
0010
,
0000
1000
0010
0000
0010
0000
0100
0000
0001
0000
1000
0000
0000
0000
0001
0000
,
1000
0100
0000
0010
0002
0000
0003
0000
,
0100
0000
0010
0100
0000
0100
0010
0000
0110
0000
0000
0000
0100
0000
0000
0000
,
0001
1000
0100
0001
,
0100
0000
1000
0000
0010
0100
0001
0000
,
1000
0000
0001
0000
0010
0000
0001
0000
1000
0000
0010
0000
0000
0100
0000
0001
,
0100
0000
0001
1000
0000
0010
1000
0000
1010
0000
0000
0000
1000
0000
0000
0000
,
0010
0001
0010
1000
,
0001
0000
1000
0000
0010
0100
0001
0000
,
1000
0000
0100
0000
0010
0000
0001
0000
1000
0000
0001
0000
0000
0100
0000
0001
,
1000
0000
0010
1000
0000
0001
0100
0000
2002
0000
3003
0000
0010
0000
0000
0000
,
0100
0000
0001
1000
0100
0100
1000
0000
,
2020
0000
3030
0000
0010
0100
0001
0000
,
1000
0100
0010
0001
1000
0010
0100
0000
,
0001
0000
0001
1000
2002
0000
3003
0000
,
0001
0000
0100
0000
0001
0000
0000
0000
1000
0000
0000
0000
0010
0000
0000
0100
,
0000
0000
0001
0000
0100
0000
0000
0010
0000
0000
0200
0000
0000
0000
0300
0000
,
0001
1000
0010
1000
0001
0010
0001
0000
,
0100
0001
0000
0001
0100
0010
1000
0001
,
1000
0001
1000
0000
2002
0000
3003
0001
,
0100
0000
0010
0000
0100
0000
0000
0000
0100
0000
0001
0000
1000
0000
0000
0001
,
0000
0000
1000
0000
0010
0000
1000
0000
0001
0000
0010
0001
0000
0101
0000
0000
,
0220
0000
0000
0000
0330
0000
0010
0000
1000
0001
1000
0000
1001
0000
0000
0000
,
0001
0000
1000
0010
1000
0000
0001
0010
,
0001
0100
0001
0100
0010
0000
1000
0000
,
0001
0000
1000
0100
0010
0000
0001
1000
,
0010
1000
0001
0010
0001
0000
0011
0000
,
0101
0000
0010
0100
1001
0000
0001
1000
,
0100
0000
1000
0001
0000
1000
0001
0000
0001
0000
0100
0000
0010
0000
0100
0000
,
0000
0100
0001
1000
0000
0001
2002
0000
,
3003
0000
0000
0000
0010
0000
0100
0010
0000
0010
0100
0000
0110
0000
0000
0000
,
0001
0010
1000
0010
,
0001
0000
1000
0000
1000
0000
0001
0100
,
0001
0000
1000
0100
1000
0001
1000
0010
,
0000
0100
0000
0001
0100
0000
0010
1000
0000
0001
1000
0000
1001
0000
0000
0000
,
0001
0100
1000
0100
,
0001
0000
1000
0000
0001
0000
1000
0010
,
1000
0000
0010
0100
0001
0100
0010
1000
,
0000
0001
0000
1000
0010
0000
1000
0001
0000
0100
0001
0000
2002
0000
0000
0000
,
3003
0000
0000
0000
;
