#TITLE:Muddy Water;
#SUBTITLE:;
#ARTIST:Stray Kids;
#TITLETRANSLIT:;
#SUBTITLETRANSLIT:;
#ARTISTTRANSLIT:;
#GENRE:;
#CREDIT:;
#MUSIC:Muddy Water.ogg;
#BANNER:Muddy Water.png;
#BACKGROUND:Muddy Water-BG.png;
#CDTITLE:;
#SAMPLESTART:46.068;
#SAMPLELENGTH:14.667;
#SELECTABLE:YES;
#OFFSET:-0.139;
#BPMS:0.000=90.000
,36.875=71.000
,37.000=90.000
,113.000=68.500
,113.500=90.000
;
#STOPS:;
#BGCHANGES:;
#FGCHANGES:;

//--------------- dance-single - Alex ----------------
#NOTES:
     dance-single:
     Alex:
     Beginner:
     1:
     0,0,0,0,0:
0000
0000
0000
0000
,
0000
0100
0000
0000
,
0000
0001
0000
0000
,
0000
1000
0000
0000
,
0000
0001
0000
0000
,
0000
1000
0000
0000
,
0000
0010
0000
0000
,
0000
1000
0000
0000
,
0000
0001
0000
0000
,
0000
1000
0000
0000
,
0000
0001
0000
0000
,
0000
1000
0000
0000
,
0000
0100
0000
0000
,
0000
1001
0000
0001
,
0000
0001
0000
0000
,
0000
1000
0000
1000
,
0000
1000
0000
0000
,
0000
1001
0000
0000
,
0000
0100
0000
0000
,
0000
0010
0000
0000
,
0000
1000
0000
0001
,
0000
1000
0000
0000
,
0000
0001
0000
0000
,
0000
1000
0000
0000
,
0000
0010
0000
0000
,
0000
0100
0000
0100
,
0000
0100
0000
0000
,
0000
0010
0000
0010
,
0000
0010
0000
0000
,
0000
1000
0000
0000
,
0000
0001
0000
0000
,
0000
0100
0000
0000
,
0000
0001
0000
1000
,
0000
0001
0000
0000
,
0000
1001
0000
0000
,
0000
1000
0000
0000
,
0000
0001
0000
0000
,
0000
0010
0000
0000
,
0000
0100
0000
0000
,
0000
0010
0000
0000
,
0000
1000
0000
0010
,
0000
1000
0000
0000
,
0000
0001
0000
0001
;

//--------------- dance-single - Alex ----------------
#NOTES:
     dance-single:
     Alex:
     Easy:
     3:
     0,0,0,0,0:
0000
0000
0000
0000
,
0000
0001
0000
1000
,
0000
0001
0000
1000
,
0000
0010
0000
1000
,
0000
0001
0000
0100
,
0000
0010
0000
0100
,
0000
0001
0000
0001
,
0000
1000
0000
1000
,
0000
0010
0000
0100
,
0000
0010
0100
0010
,
0000
0100
0001
0100
,
0000
0010
1000
0010
,
0000
1000
0001
1000
,
0000
1001
0000
0001
,
0000
0001
0000
1000
,
0000
0010
0000
1000
,
0000
1000
0000
0001
,
0000
1001
0000
0100
,
0010
0100
0000
0001
,
1000
0001
0000
1000
,
0100
1000
0000
0001
,
0000
1001
0000
0001
,
1000
0010
0000
0100
,
0001
1000
0000
0100
,
0100
1000
0000
0001
,
0000
1001
0000
0010
,
0000
0100
0100
0100
,
0010
1001
0000
0001
,
0000
1000
1000
1000
,
0001
1001
0000
1000
,
0000
0001
0000
1000
,
0000
0010
0000
0010
,
0000
0100
0000
0100
,
0100
1001
0000
0000
,
0000
0001
0000
1000
,
0001
0010
0000
0001
,
0100
0001
0000
1000
,
0000
1010
0000
0010
,
1000
0010
0000
0100
,
0001
0100
0000
0001
,
1000
0001
0000
1000
,
0000
1001
0000
0001
,
0000
1000
1000
0001
;

//--------------- dance-single - Alex ----------------
#NOTES:
     dance-single:
     Alex:
     Medium:
     5:
     0,0,0,0,0:
0000
0000
0000
0000
,
0000
1000
0001
1000
,
0001
0100
0010
0100
,
0010
1000
0001
0100
,
0010
0100
0001
0010
,
0100
0010
0001
1000
,
0001
0100
0001
1000
,
0010
1000
0100
1000
,
1000
0001
0100
0001
,
0001
0000
1000
0010
0100
0000
0001
1000
,
0100
0000
0010
0001
0100
0000
0010
0100
,
0010
0000
1000
0001
1000
0000
0001
0100
,
0001
1000
0010
0100
,
0001
1000
1000
0001
,
0001
0100
0010
1000
,
0100
0010
0100
1000
,
0001
0100
0010
1000
,
0001
1000
0001
0000
1001
0000
0010
0100
,
0010
0000
1000
0000
1001
0000
0001
1000
,
0100
0000
0010
0000
1001
0000
0010
0100
,
0010
0100
0100
0001
,
0001
0000
1000
0000
1010
0000
0010
1000
,
0010
0000
1000
0000
1001
0000
0001
0100
,
0001
0000
1000
0000
1100
0000
0010
0001
,
0100
0010
1000
0001
,
0100
0110
0000
0010
,
1000
0001
0100
0000
0001
0000
1000
0000
,
0100
1100
0000
0001
,
0100
0010
0100
0000
0001
0000
0010
0000
,
0100
1000
1000
0001
,
0001
0100
0010
1000
,
0100
0010
0100
1000
,
0001
0000
0100
0000
0100
0000
0010
0100
,
0010
0100
0110
0000
0000
0000
0010
0000
,
0000
1000
0001
0100
,
0100
0001
1000
0100
,
0100
1000
1001
0001
,
1001
0000
1000
0000
0010
0000
1000
0010
,
1000
0010
1000
0000
0001
0000
0100
0001
,
0100
0001
0100
0000
0010
0000
0100
0010
,
0100
0010
0100
0000
0001
0000
0010
0000
,
0100
1001
0000
1000
,
0001
1000
0001
0000
0100
0000
0020
0000
,
0000
0030
0000
0000
0000
0000
0000
0000
;

//--------------- dance-single - Alex ----------------
#NOTES:
     dance-single:
     Alex:
     Hard:
     8:
     0,0,0,0,0:
0000
0000
0000
0000
,
0000
0000
0001
1000
0010
1000
0001
0100
,
0001
0000
0010
0100
1000
0010
0100
0001
,
1000
0000
0001
0100
0001
1000
0010
0100
,
0100
0100
0010
1000
0100
0010
0001
1000
,
0010
1010
1000
0001
0100
0001
1000
0010
,
0100
0000
0001
0010
0100
2000
0000
3000
0010
0100
0001
0100
0000
0000
0010
0000
,
1000
0100
0010
0100
1000
0001
0100
0010
,
0100
0000
0100
0000
0001
0000
0010
0000
0100
0000
1000
0000
0001
1000
0001
1000
,
0001
1000
1001
0001
0100
0010
0100
0100
,
0002
0000
1003
0010
0100
0001
1000
0100
,
2000
0000
0000
0000
3010
1000
0010
0000
0100
0000
0001
1000
0001
0000
1000
0000
,
0100
0000
0010
0000
0001
0000
0000
0001
0000
0000
0100
0000
0000
0100
0000
0000
,
0010
0000
1000
0000
0100
0000
1000
0100
0000
0100
1000
0000
1000
0010
0000
0010
,
1000
0001
0100
0010
0100
0001
0010
0100
,
1000
0001
1000
0001
0100
0001
1000
0010
,
0100
0000
0000
0000
0001
0000
1000
0000
0100
0000
0010
0000
0001
0100
0001
0100
,
0001
0000
0101
0000
0001
0000
0100
0001
0000
0001
0100
0000
0010
0000
1000
0000
,
0100
0000
0010
0000
0001
0000
1000
0010
0000
0010
1000
0000
0001
0000
0010
0000
,
0100
0000
1000
0000
0001
0000
0100
0010
0000
0010
0100
0000
0001
0000
0010
0000
,
0001
0000
0100
0000
0010
0000
1000
0100
0000
0100
0000
1000
0010
0000
0100
0000
,
0001
0000
1000
0000
1001
0000
0001
0100
0000
0100
0001
0000
1000
0000
0010
0000
,
0100
0000
0001
0000
1000
0000
0100
0010
0000
0010
0100
0000
1000
0000
0001
0000
,
0100
0000
0010
0000
1000
0000
0001
0010
0000
0010
0001
0000
0100
0000
0100
0000
,
0001
0000
0001
0000
1000
0000
0010
1000
0000
0010
0000
0100
0001
0000
1000
0000
,
0100
0010
0002
0000
0000
0000
2003
0000
,
3010
0000
0100
0000
0002
0000
0000
0000
2003
0000
0000
0000
3004
0400
0000
0000
,
0000
0000
0000
0303
0020
0000
0000
0000
0000
0000
0000
0000
0230
0000
0000
0000
,
0301
0000
1000
0000
0200
0000
0000
0000
2300
0000
0000
0000
3040
0400
0000
0000
,
0000
0000
0000
0330
0000
0000
0100
0001
0000
0001
0100
0000
0100
0010
0000
0010
,
1000
0001
0100
0010
0100
0100
0001
1000
,
0100
1000
0001
0100
0010
0100
0001
0010
,
0100
0000
0000
0000
1000
0000
0001
0000
0100
0000
0010
0000
1000
0001
1000
0001
,
1000
0001
2002
0000
0000
3003
0100
0100
,
0100
0100
0110
0000
0010
1000
0100
0010
,
0001
0000
0100
0000
0010
0000
1000
0001
0000
0001
1000
0000
0010
0000
0100
0000
,
0001
0000
1000
0000
0100
0000
0010
0001
0000
0001
0000
0001
0100
0000
0010
0000
,
1000
0000
0001
0000
1001
0000
0001
1000
0000
1000
0001
0000
1000
0000
0010
0000
,
0100
0000
0001
0000
1000
0000
0100
1000
0000
1000
0100
0000
1000
0000
0010
0000
,
0100
0000
0100
0000
0001
0000
1000
0001
0000
0001
1000
0000
0010
0000
0100
0000
,
0001
0000
0010
0000
0100
0000
0010
0001
0000
0100
0000
0010
0100
0000
0001
0000
,
1000
0100
2100
0000
0000
0000
3020
0000
,
0130
0001
2000
0000
3002
0000
0203
0000
,
0000
0300
0000
0000
0000
0000
0000
0000
;

//--------------- dance-single - Alex ----------------
#NOTES:
     dance-single:
     Alex:
     Challenge:
     9:
     0,0,0,0,0:
0000
0000
0000
0000
,
0000
0000
0000
0000
1000
0010
1000
0001
1000
0100
1000
0010
0100
0001
1000
0000
,
0100
0000
0010
0000
0001
1000
0010
0100
0001
1000
0001
1000
0100
1000
0000
1000
,
0100
0000
1100
0000
1000
0010
1000
0001
1000
0100
0010
0000
0001
0100
0010
0100
,
0001
0010
0100
1000
0001
1000
0010
1000
0001
0100
0001
1000
0100
0010
0001
0100
,
0010
0100
0001
0000
1000
0001
1000
0010
1000
0001
0010
0001
0100
0010
0100
0001
,
0010
0100
1000
0001
0100
0020
0000
0030
0100
0001
1000
0100
0000
0100
1000
0010
,
0100
0001
1000
0100
0010
0001
0100
0010
0100
0001
0010
0000
0100
1000
0010
0000
,
0010
1000
0001
0100
0010
0100
0001
1000
0100
0010
0001
0100
0010
0100
0001
0010
,
0100
0000
1000
0000
0001
1000
0010
0000
0100
0000
0001
1000
0100
0000
0010
0000
,
0001
0100
0010
0100
0001
0010
0100
0000
1000
0000
0010
0100
0001
0000
1000
0000
,
0001
0100
0001
1000
0010
0100
0001
0000
1000
0000
0100
0010
0001
0000
0100
0000
,
0010
1000
0001
0100
0010
0100
0000
0100
0010
0000
0010
1000
0000
1000
0001
1000
,
0010
1000
0001
0200
0000
0000
0310
0100
0000
0100
0010
0000
0010
1000
0000
1000
,
0001
0000
0100
0001
1000
0010
0100
0001
0000
1000
0000
0010
0100
0001
0100
0010
,
1000
0100
0010
0001
0100
0000
0010
0000
0100
0001
0100
0001
0010
0100
0010
0001
,
0100
0000
0010
0000
1000
0000
0001
0000
1001
0000
0001
0100
0001
1000
0010
0100
,
0001
0000
0011
0000
0001
0000
0100
0010
0000
0010
0100
0000
0001
0010
0001
0010
,
0001
0010
0001
0010
0001
0000
0001
0100
0000
0100
0001
0000
1000
0001
1000
0001
,
1000
0001
1000
0001
1000
0000
1000
0010
0000
0010
1000
0000
0010
1000
0010
1000
,
0010
1000
0010
1000
0010
0000
0010
0100
0000
0100
0000
0001
1000
0000
0100
0000
,
0010
0000
0001
0000
0100
0000
0001
1000
0000
1000
0001
0000
0001
1000
0001
0100
,
0001
1000
0001
0100
0001
0000
1000
0010
0000
0010
1000
0000
1000
0100
1000
0001
,
1000
0100
1000
0001
0100
0000
0100
0010
0000
0010
0100
0000
0100
0001
0010
0001
,
0100
0010
0100
0001
0010
0000
0001
0100
0000
0010
0000
1000
0100
0000
0010
0000
,
0100
1000
0020
0000
0000
0030
0200
0000
,
0301
0010
0100
1000
0002
0000
0000
0000
2003
0000
0000
0000
3010
0100
0010
0100
,
0010
0100
0010
0100
0020
0000
0000
0000
0000
0000
0000
0000
2030
0000
0000
0000
,
3001
0100
0001
1000
0200
0000
0000
0000
2300
0000
0000
0000
3010
1000
0010
1000
,
0010
1000
0010
1000
0010
0000
0010
0100
0000
0100
0010
0000
0010
1000
0000
1000
,
0001
0000
0100
0001
1000
0010
0100
0001
0000
1000
0000
0010
0100
0001
0100
0010
,
1000
0100
0010
0001
0100
0000
0010
0000
0100
0001
0100
0001
0010
0100
0010
0001
,
0100
0000
0010
0000
1000
0000
0001
0000
1001
0000
0001
0100
0001
1000
0010
0100
,
0001
0000
1001
0000
1000
0000
0100
1000
0000
2000
0000
0000
3001
0100
0001
1000
,
0001
0100
0001
1000
0010
0000
0010
0100
0000
0100
0001
0000
0001
1000
0100
0010
,
0001
0100
0010
1000
0001
0000
0001
1000
0000
1000
0010
0000
0010
1000
0001
0100
,
0010
1000
0100
0010
0100
0000
0100
1000
0000
0001
0000
0100
0001
0000
1000
0000
,
0010
0000
0100
0000
1001
0000
0001
1000
0000
1000
0010
0000
0010
1000
0001
0100
,
0010
0100
0001
1000
0100
0000
0010
0001
0000
0001
0100
0000
0100
0010
0100
0001
,
0010
0100
1000
0001
0100
0000
0010
1000
0000
1000
0001
0000
1000
0100
1000
0001
,
1000
0010
1000
0001
0010
0000
0001
0100
0000
0010
0000
0100
0001
0000
1000
0000
,
0100
0010
0012
0000
0000
0000
0203
0000
,
0310
1000
0100
0010
0002
0000
0000
0000
2003
0000
0000
0000
3020
0000
0000
0000
,
0000
0030
0000
0000
0000
0000
0000
0000
;
