#TITLE:Miroh;
#SUBTITLE:;
#ARTIST:Stray Kids;
#TITLETRANSLIT:;
#SUBTITLETRANSLIT:;
#ARTISTTRANSLIT:;
#GENRE:;
#CREDIT:;
#MUSIC:Miroh.ogg;
#BANNER:Miroh.png;
#BACKGROUND:Miroh-BG.png;
#CDTITLE:;
#SAMPLESTART:65.016;
#SAMPLELENGTH:18.948;
#SELECTABLE:YES;
#OFFSET:-0.314;
#BPMS:0.000=126.000
,136.000=189.000
,136.750=63.000
,137.000=126.000
,150.000=189.000
,150.750=63.000
,151.000=189.000
,151.750=63.000
,152.250=189.000
,153.000=126.000
,184.000=63.000
,184.250=189.000
,185.000=126.000
;
#STOPS:;
#BGCHANGES:3.750=Miroh.avi=1.000=1=0=0=StretchNoLoop==CrossFade==,
265.500=Miroh-BG.png=1.000=1=0=1===CrossFade==,
99999.000=-nosongbg-=1.000=0=0=0=StretchNoLoop====
;
#FGCHANGES:;

//--------------- dance-single - Alex ----------------
#NOTES:
     dance-single:
     Alex:
     Beginner:
     1:
     0.08083,0.155792,0.046505,0.038754,0,73,67,6,5,0,0,0.08083,0.155792,0.046505,0.038754,0,73,67,6,5,0,0:
0000
0000
0000
0000
,
0000
0000
0000
0000
,
0100
0000
0000
0000
,
0010
0000
0000
0000
,
1000
0000
0000
0000
,
0001
0000
0000
0000
,
1001
0000
0000
0000
,
0000
0000
0000
0000
,
0000
0000
0000
0000
,
0000
0000
0000
0000
,
0010
0000
0000
0000
,
1000
0000
0000
0000
,
0001
0000
0000
0000
,
1000
0000
0000
0000
,
0100
0000
0000
0000
,
1000
0000
0000
0000
,
0010
0000
0000
0000
,
1000
0000
0000
0000
,
0001
0000
0001
0000
,
0001
0000
0000
0000
,
1000
0000
1000
0000
,
1000
0000
0000
0000
,
0010
0000
0010
0000
,
0010
0000
0000
0000
,
0100
0000
0100
0000
,
0100
0000
0000
0000
,
1001
0000
0000
0000
,
0010
0000
0000
0000
,
0100
0000
0000
0000
,
0001
0000
0000
0000
,
1000
0000
1000
0000
,
1000
0000
1000
0000
,
2002
0000
0000
0000
,
3003
0000
0000
0000
,
1001
0000
0000
0000
,
0010
0000
0000
0000
,
1000
0000
0000
0000
,
0001
0000
1000
0000
,
0001
0000
0000
0000
,
1000
0000
0000
0000
,
0010
0000
0000
0000
,
0100
0000
0000
0000
,
0001
0000
0000
0000
,
1000
0000
0000
0000
,
0020
0000
0000
0000
,
0030
0000
0000
0000
,
1000
0000
0000
0000
,
0001
0000
0000
0000
,
2000
0000
0000
0000
,
3000
0000
0000
0000
,
0110
0000
0000
0000
,
0010
0000
0000
0000
,
1000
0000
0000
0000
,
0001
0000
0000
0000
,
1000
0000
0000
0000
,
0010
0000
0000
0000
,
1000
0000
0000
0000
,
0100
0000
0000
0000
,
1001
0000
0000
0000
,
0001
0000
0000
0000
,
1000
0000
0000
0000
,
0001
0000
0000
0000
,
0010
0000
0000
0000
,
0001
0000
0000
0000
,
0100
0000
0000
0000
,
0010
0000
0010
0000
,
0020
0000
0000
0000
,
0030
0000
0000
0000
;

//--------------- dance-single - Alex ----------------
#NOTES:
     dance-single:
     Alex:
     Easy:
     3:
     0.157232,0.255778,0.077509,0.046505,0,142,132,10,6,0,0,0.157232,0.255778,0.077509,0.046505,0,142,132,10,6,0,0:
0000
0000
0000
0000
,
0000
0000
0000
0000
,
0001
0000
1000
0000
,
0010
0000
0100
0000
,
0001
1000
0010
0100
,
0001
1000
0001
1001
,
0000
0000
0000
0000
,
0000
0000
0000
0000
,
0000
0000
0000
0000
,
0000
0000
0000
0000
,
1000
0000
1000
0000
,
0010
0000
0010
0000
,
0200
0000
0000
0000
,
0310
0000
0000
0000
,
0001
0000
0001
0000
,
0100
0000
0100
0000
,
0020
0000
0000
0000
,
1030
0000
0000
0000
,
0001
0000
1000
0000
,
0001
1000
0001
0000
,
1000
0000
0010
0000
,
1000
0010
1000
0000
,
0001
0000
0100
0000
,
0010
0100
0010
0000
,
1000
0000
0001
0000
,
0010
0001
0010
0000
,
1001
0000
0000
0000
,
0110
0000
0000
0000
,
1001
0000
0000
0000
,
0110
0000
0110
0000
,
0010
0010
0010
0010
,
0100
0100
0100
0100
,
0001
0001
1000
1000
,
1001
0000
1001
0000
,
0010
0000
0100
0000
,
0001
0000
1000
0000
,
0001
0000
0010
0000
,
0001
0000
1000
0010
,
1000
0000
0001
0000
,
0100
0000
0010
0000
,
1000
0000
0001
0000
,
0100
0100
0010
0010
,
1001
0000
0001
0000
,
1000
0000
0010
0000
,
0200
0000
0000
0000
,
0301
0000
0000
0001
,
0100
0000
0010
0000
,
1000
0000
0001
0000
,
0020
0000
0000
0000
,
0031
0000
0000
0000
,
0001
0000
0100
0000
,
0010
0100
0010
0000
,
1000
0000
0010
0000
,
1000
0010
1000
0000
,
0001
0000
1000
0000
,
0010
0100
0001
0000
,
1000
0000
0100
0000
,
0010
0001
0010
0000
,
0001
0000
1000
0000
,
0010
0000
0100
0000
,
0002
0000
0000
0000
,
1003
0000
0000
1000
,
0010
0000
1000
0000
,
0010
0000
0010
0000
,
2000
0000
0000
0000
,
3001
0100
0010
1000
,
1001
0000
0000
0000
;

//--------------- dance-single - Alex ----------------
#NOTES:
     dance-single:
     Alex:
     Medium:
     5:
     0.27128,0.35809,0.077509,0.139515,0,245,235,10,18,4,0,0.27128,0.35809,0.077509,0.139515,0,245,235,10,18,4,0:
0000
0000
0000
0000
,
0000
0000
0000
0000
,
0001
0100
0010
1000
,
0100
0010
0100
1000
,
0001
0100
0010
0100
,
0001
1000
0001
1000
0001
1000
0010
0000
,
0000
0000
0000
0000
,
0000
0000
0000
0000
,
0000
0000
0000
0000
,
0000
0000
0000
0000
,
0010
1000
0001
0100
,
0010
1000
0100
0010
,
0100
1000
0001
0100
,
0010
0010
0100
0100
,
0001
0010
0100
1000
,
0001
0100
0010
1000
,
0001
0001
1000
0010
,
1000
0001
1001
0000
,
0001
0100
0020
1030
,
1000
0001
2000
3100
,
0010
0001
0200
0301
,
1000
0010
2000
3001
,
0001
0100
0020
0130
,
0001
1000
0200
0310
,
0001
0100
0020
0130
,
0001
1000
0100
0010
,
1001
0001
0100
0010
,
1010
1000
0001
0010
,
0011
0001
0100
0010
,
1000
0010
0100
0000
0001
0100
0010
0000
,
1000
0100
0010
0001
,
1000
0001
1000
0001
,
1000
0001
1000
0001
1000
0001
1000
0001
,
2002
0000
3003
0000
,
1001
0001
0100
0010
,
0010
0100
0001
1000
,
0100
0010
0001
0100
,
0010
0010
1001
1001
,
MMMM
0001
0100
0010
,
0010
0100
0001
1000
,
0100
0010
0001
0100
,
0020
0000
0000
0030
,
0100
0100
0001
0001
,
1000
0010
1000
0001
,
0020
0000
0000
0000
0000
0030
0100
2000
,
0000
0000
0000
0000
3000
0001
1000
0001
,
1000
0001
0100
0010
,
0010
0100
0001
1000
,
0200
0000
0000
0000
0000
0300
0010
0002
,
0000
0000
0003
0000
,
1000
0001
0001
0100
,
0010
1000
0001
0010
,
0001
0100
0010
0010
,
1000
0100
0010
0001
,
0101
0100
0001
0001
,
1000
1000
0010
0010
,
1000
0001
0010
0100
,
1000
0001
0100
0010
,
1010
1000
0001
0100
,
0100
0001
1000
0100
,
2000
0000
0000
0000
0000
3000
0010
0200
,
0000
0000
0000
0000
0300
0001
1000
0001
,
1000
0001
0010
0001
,
0001
0100
0010
0100
,
0002
0000
0000
0000
0000
0003
1000
0100
,
0010
0001
0100
0010
1000
0001
0010
0200
,
0300
0000
0000
0000
;

//--------------- dance-single - Alex ----------------
#NOTES:
     dance-single:
     Alex:
     Hard:
     7:
     0.401937,0.485979,0.069758,0.131765,0.034879,363,354,9,17,4,0,0.401937,0.485979,0.069758,0.131765,0.034879,363,354,9,17,4,0:
0000
0000
0000
0000
,
0000
0000
0000
0000
,
0001
1000
0010
1000
0001
0010
0100
0000
,
1000
0001
0100
0010
1000
0100
0010
0000
,
0001
0100
0010
0100
0001
0010
0100
1000
,
0001
0100
0010
1000
0100
0010
0002
0203
,
0300
0000
0000
0000
,
0000
0000
0000
0000
,
0000
0000
0000
0000
,
0000
0000
0000
0000
0000
1000
0010
1000
,
0001
0010
0100
1000
0001
0100
0010
1000
,
0000
0001
0100
0010
0100
0001
1000
0100
,
0020
0000
0000
0000
0000
0000
0031
0002
,
0000
0000
0000
0000
0003
0100
0010
1000
,
0001
0000
0100
0000
0010
1000
0001
0010
,
0000
0001
0100
0010
1000
0100
0010
0001
,
2000
0000
0000
0000
0000
0000
3010
0020
,
0000
0000
0030
0000
,
0100
0001
1000
0000
0001
0010
0001
0000
,
1000
0010
1000
0001
1000
0100
1000
0000
,
0001
0100
0001
0000
0010
0100
0010
0000
,
0001
0100
0010
1000
0100
0010
0001
0000
,
1000
0010
0100
0000
0001
0010
0100
0000
,
1000
0001
0100
0001
1000
0010
1000
0000
,
0001
0010
0001
0000
0100
0010
0100
0000
,
0001
0010
0100
1000
0001
0100
0010
0000
,
1001
0000
0001
1000
0010
0100
0001
0000
,
1001
0000
1000
0100
0010
0001
1000
0000
,
1001
0000
0000
0000
0001
0000
0100
0000
0010
0000
1000
0000
0100
0000
1000
0100
,
1000
0000
1000
0100
0000
0000
0010
0001
1000
0000
0010
0100
0000
0000
0001
0000
,
0100
0010
1000
0100
0010
0001
1000
0010
,
0100
0001
1000
0001
0010
0100
1000
0001
,
4000
0004
0000
0000
0000
0000
0000
0000
0000
0000
0000
0000
0000
0000
3003
0000
,
0001
0100
0000
0100
0001
0000
0001
1000
0000
1000
0010
0000
0100
0000
0000
0000
,
1001
0000
0001
0100
0010
0100
0001
0010
,
0100
0000
1000
0001
0100
0000
0010
1000
,
0100
0000
0010
0001
0100
0010
0100
0001
,
0010
0100
1000
0001
0200
0300
0020
0030
,
1001
0000
0001
0100
0010
0100
0001
1000
,
0100
0000
1000
0010
1000
0000
0001
0010
,
0001
0000
0100
0010
1000
0100
0010
0002
,
0200
0000
0000
0000
0303
0001
0100
0010
,
0100
0100
0001
0001
1000
0100
1000
0010
,
0000
0010
1000
0001
0100
0010
1000
0001
,
0020
0000
0000
0000
0000
0000
0031
0002
,
0000
0000
0000
0000
0003
0100
0010
1000
,
0001
0000
1001
0000
0001
0100
0010
0100
,
0000
0001
1000
0100
0010
0001
0100
0010
,
2000
0000
0000
0000
0000
0000
3010
0020
,
0000
0000
0030
MMMM
,
0001
0100
0001
0000
1000
0010
1000
0000
,
0001
0010
0100
0010
0001
0100
0010
0000
,
1000
0100
1000
0000
0001
0010
0001
0000
,
1000
0010
1000
0001
0010
0100
1000
0000
,
0001
0100
0010
1010
,
1000
0000
0001
0000
0010
0001
0100
0000
,
0010
1000
0100
1100
,
1000
0001
0100
0010
,
1000
0001
0010
0100
1000
0001
0100
0010
,
0000
1000
0010
1000
0001
0010
0001
0100
,
0020
0000
0000
0000
0000
0000
0130
0200
,
0000
0000
0000
0000
0300
0010
1000
0001
,
0010
0000
0001
0000
0100
0001
0100
0001
,
0000
1000
0010
1000
0010
1000
0001
0010
,
0002
0000
0000
0000
0000
0000
1003
1000
,
0010
1000
0001
0100
0010
1000
0100
0010
,
1001
0000
0000
0000
;

//--------------- dance-single - Alex ----------------
#NOTES:
     dance-single:
     Alex:
     Challenge:
     9:
     0.556954,0.861653,0.232526,0.17827,0.519307,503,473,30,23,100,0,0.556954,0.861653,0.232526,0.17827,0.519307,503,473,30,23,100,0:
0000
0000
0000
0000
,
0000
0000
0000
0000
,
0001
1000
0000
1000
0010
0000
0010
0100
0000
0100
0001
0000
0010
0000
0100
0000
,
1000
0010
0000
0010
1000
0000
1000
0100
0000
0100
1000
0000
0001
0000
0100
0000
,
0010
0100
0000
0100
0010
0000
0010
1000
0001
0010
0000
0001
0010
0000
0001
0100
,
0010
0100
0001
1000
0001
1000
0100
0010
0001
1000
0010
0100
0002
0000
2003
0000
,
3000
0000
0000
0000
MMMM
M00M
M00M
0000
,
00M0
00M0
00M0
0000
MMM0
MM00
M0M0
0000
,
MMMM
M00M
MMMM
0000
M00M
M00M
MMMM
M00M
,
M00M
0000
0000
0000
0000
0001
1000
0010
,
0110
0010
1000
0001
0010
0100
1000
0001
,
000M
1000
0010
1000
0001
0010
0100
1000
,
0020
0000
0000
0000
0000
0000
0130
0200
,
0000
0000
0000
0000
0300
0001
0010
0100
,
1100
0000
0011
0000
0001
1000
0010
1000
,
M000
0100
1000
0010
0001
0010
1000
0001
,
0200
0000
0000
0000
0000
0000
0301
0002
,
0000
0000
0000
0003
,
1000
0000
0001
0000
0010
0000
0001
0010
0000
0001
0000
0100
0010
0000
1000
0000
,
0100
0000
0010
0000
0001
0000
1000
0010
0000
1000
0000
0001
1000
0000
0001
0000
,
0100
0000
0100
0000
0001
0000
1000
0100
0000
1000
0000
0010
1000
0000
0001
0000
,
0010
0000
0100
0000
1000
0000
0001
0100
0000
0001
0000
1000
0010
0000
0100
0000
,
0001
0000
0001
0000
1000
0000
0100
1000
0000
0010
0000
1000
0010
0000
0100
0000
,
0001
0000
0010
0000
0100
0000
0010
0001
0000
0100
0000
0010
0100
0000
0001
0000
,
1000
0000
0100
0000
1000
0000
0001
1000
0000
0010
0000
1000
0001
0000
0100
0000
,
0001
0000
0010
0000
0100
0000
1000
0001
0000
0100
0000
0001
1000
0000
0010
0000
,
1010
0000
0000
0000
0010
1000
0010
1000
0010
1000
0010
1000
0010
0000
0000
0000
,
1001
0000
0000
0000
0001
1000
0001
1000
0001
1000
0001
1000
0001
0000
0000
0000
,
0101
0000
0000
0000
0001
0100
0001
0100
0001
0100
0001
0100
0001
0000
0001
1000
,
0010
0000
0010
0200
0000
0300
0001
1000
0100
0000
0010
0002
0000
0003
0100
0000
,
0010
0000
1000
0000
0001
0010
0100
1000
0010
1000
0001
1000
0010
0100
0001
0100
,
0001
0010
0100
0010
0001
0100
0010
1000
0100
0010
0100
1000
0001
0100
0010
1000
,
0001
0010
0100
1000
0001
0100
0010
1000
0010
0100
0001
0010
0100
0010
0001
0100
,
0010
1000
0000
1000
0001
0000
0001
0100
0000
0100
0010
0000
2002
0000
3003
0000
,
0110
0000
0010
1000
0100
0010
0001
1000
,
0010
00M0
1000
0001
0100
0M00
0001
1000
,
0001
0000
000M
1000
0010
0000
0010
1000
0000
1000
0001
0000
0100
0000
0010
0000
,
1000
0001
0000
0001
1000
0000
0010
0000
0220
0000
0330
0000
2002
0000
3003
0000
,
MMMM
0MM0
0001
1000
0010
1000
0001
0010
,
0001
000M
1000
0010
1000
M000
0001
1000
,
0100
0000
0M00
0010
0001
0000
0001
0100
0000
0100
0010
0000
1000
0000
0001
0000
,
1000
0001
0000
0001
1000
0000
1000
0000
0010
0000
0100
0000
0001
0000
1000
0000
,
1100
1000
1010
1000
1001
0001
0011
0010
,
00M0
0001
0101
0100
0110
0010
1010
1000
,
1002
0000
0000
0000
0000
0000
1003
2000
,
0000
0000
0000
0000
3000
0010
0100
0001
,
1001
MMMM
0110
0000
0010
1000
0001
0100
,
0M00
0001
0010
0100
1000
0001
1000
0010
,
2000
0000
0000
0000
0000
0000
3010
0020
,
0000
0000
0030
MMMM
,
0001
0000
1000
0000
0010
0000
1000
0010
0000
1000
0000
0001
1000
0000
0001
0000
,
0100
0000
0001
0000
0010
0000
0100
0010
0000
0001
0000
0100
0010
0000
0100
0000
,
0100
0000
0001
0000
1000
0000
0010
1000
0000
0001
0000
1000
0100
0000
1000
0000
,
0001
0000
0100
0000
0001
0000
1000
0010
0000
0010
0000
0100
0001
0000
1000
0000
,
1100
0000
1000
0000
1010
0000
0010
1000
0000
0001
0000
0100
0010
0000
0100
0000
,
0101
0000
0001
0000
1001
0000
0001
1000
0000
0010
0000
0100
0001
0000
0010
0000
,
0110
0000
0010
0000
0011
0000
0001
1000
0000
0010
0000
1000
0001
0000
0100
0000
,
0101
0000
0001
0000
1001
0000
1000
0010
0000
1000
0000
0001
1000
0000
0010
0000
,
0100
0001
0010
0100
1000
0001
0100
0100
,
0M00
0001
1000
0010
0100
0001
1000
0100
,
0020
0000
0000
0000
0000
0000
0031
0002
,
0000
0000
0000
0000
0003
1000
0010
1000
,
1001
0000
0110
0000
0010
1000
0001
0010
,
00M0
0001
0100
0001
1000
0100
1000
0001
,
2000
0000
0000
0000
0000
0000
3010
0100
,
0100
0001
0100
0001
0010
0001
0100
0010
0100
0001
0010
0100
2000
0000
3020
0000
,
0030
0000
0000
MMMM
0000
M000
0000
MMMM
0000
000M
0000
MMMM
0000
0000
0000
M00M
0000
M0M0
0000
MM00
0000
M0M0
0000
M00M
,
0000
0000
0000
MMMM
0000
00M0
0000
0M00
0000
MMMM
0000
0000
0000
0000
0000
0000
0000
0000
0000
0000
0000
0000
0000
0000
;
