#TITLE:Megaverse;
#SUBTITLE:;
#ARTIST:Stray Kids;
#TITLETRANSLIT:;
#SUBTITLETRANSLIT:;
#ARTISTTRANSLIT:;
#GENRE:;
#CREDIT:;
#MUSIC:Megaverse.ogg;
#BANNER:Megaverse.png;
#BACKGROUND:Megaverse-BG.png;
#CDTITLE:;
#SAMPLESTART:57.296;
#SAMPLELENGTH:20.919;
#SELECTABLE:YES;
#OFFSET:0.007;
#BPMS:0.000=136.000
,33.000=204.000
,33.750=68.000
,34.000=136.000
,66.000=204.000
,66.750=68.000
,67.000=136.000
,130.000=142.000
,134.000=171.000
,138.000=160.000
,152.000=240.000
,152.750=80.000
,153.000=240.000
,153.750=80.000
,153.917=60.000
,154.000=160.000
;
#STOPS:;
#BGCHANGES:1.750=Megaverse.avi=1.000=1=0=0=StretchNoLoop==CrossFade==,
330.500=Megaverse-BG.png=1.000=1=0=1===CrossFade==,
99999.000=-nosongbg-=1.000=0=0=0=StretchNoLoop====
;
#FGCHANGES:;

//--------------- dance-single - Alex ----------------
#NOTES:
     dance-single:
     Alex:
     Beginner:
     1:
     0.089251,0.184081,0.074376,0,0,84,74,10,0,0,0,0.089251,0.184081,0.074376,0,0,84,74,10,0,0,0:
0000
0000
0000
0000
,
0000
0000
0000
0000
,
0000
0000
0000
0000
,
0000
0000
0000
0000
,
0000
0000
0000
0000
,
0000
0000
0000
0000
,
0000
0000
0000
0000
,
0000
0000
0000
0000
,
0000
0000
0001
0000
,
0000
0000
1000
0000
,
0000
0000
1000
0000
,
0000
0000
0010
0000
,
0000
0000
0010
0000
,
0000
0000
0100
0000
,
0000
0000
0001
0000
,
0000
0000
1000
0000
,
0000
0000
0000
0010
,
0000
0000
0000
0100
,
0000
0000
0000
0100
,
0000
0000
0000
0001
,
0000
0000
1000
0000
,
0000
0000
0001
0000
,
0000
0000
1000
0000
,
0000
0000
0010
0000
,
0000
0000
1001
0000
,
0000
0000
0100
0000
,
0000
0000
0110
0000
,
0000
0000
0010
0000
,
0000
0000
1000
0000
,
1000
0000
1000
0000
,
1000
0000
0001
0000
,
0001
0000
0001
0000
,
0001
0000
1001
0000
,
0000
0000
0000
0000
,
0000
0000
0100
0000
,
0000
0000
0100
0000
,
0000
0000
0010
0000
,
0000
0000
0010
0000
,
0000
0000
1000
0000
,
0000
0000
0001
0000
,
0000
0000
1000
0000
,
0000
0000
0010
0000
,
0000
0000
0110
0000
,
0000
0000
0100
0000
,
0000
0000
0001
0000
,
0000
0000
1000
0000
,
0000
0000
0001
0000
,
0000
0000
0001
0000
,
0000
0000
1000
0000
,
0000
0000
0010
0000
,
0000
0000
1001
0000
,
0000
0000
0100
0000
,
0000
0000
0100
0000
,
0000
0000
0001
0000
,
0000
0000
0001
0000
,
0000
0000
1000
0000
,
0000
0000
1000
0000
,
0000
0000
0010
0000
,
0000
0000
0100
0000
,
0000
0000
0100
0000
,
0000
0000
0001
0000
,
0000
0000
1000
0000
,
0000
0000
0001
0000
,
0000
0000
0100
0000
,
0000
0000
0010
0000
,
0000
0000
0010
0000
,
0000
0000
1001
0000
,
0000
0000
0000
0000
,
0000
0000
0110
0000
,
0000
0000
0000
0000
,
0000
0000
0101
0000
,
0000
0000
0000
0000
,
0000
0000
1010
0000
,
0000
0000
0000
0000
,
0000
0000
0001
0000
,
0000
0000
0001
0000
,
0000
0000
1000
0000
,
0000
0000
1000
0000
,
0000
0000
0010
0000
,
0000
0000
0010
0000
,
0000
0000
0100
0000
,
0000
0000
0100
0000
,
0000
0000
1001
0000
;

//--------------- dance-single - Alex ----------------
#NOTES:
     dance-single:
     Alex:
     Easy:
     3:
     0.21994,0.276121,0.18594,0.052063,0,207,182,25,7,0,0,0.21994,0.276121,0.18594,0.052063,0,207,182,25,7,0,0:
0000
0000
0000
0000
,
0000
0000
0000
0000
,
0000
0000
0000
0000
,
0000
0000
0000
0000
,
0000
0000
0010
0000
,
0010
0000
1000
0000
,
0001
0000
1000
0000
,
0001
0000
0100
0000
,
0110
0000
0010
0010
,
0010
0000
1000
1000
,
1000
0000
0001
0001
,
0001
0000
0100
0000
,
0110
0000
0010
0010
,
0010
0000
1000
1000
,
1000
0000
0001
0001
,
0001
0000
1000
0000
,
0001
0000
1001
0001
,
0100
0001
0000
1000
,
0010
1000
0000
0010
,
0100
0010
0000
0100
,
0000
1001
0001
0001
,
1000
0000
1000
1000
,
0010
0000
0100
0000
,
0001
0000
1000
0001
,
1000
0000
1001
0000
,
1001
0000
0220
0000
,
0330
0000
0110
0000
,
0110
0000
2002
0000
,
3003
0000
0001
1000
,
0001
0000
1000
0010
,
1000
0000
0010
0000
,
0100
0000
0001
0000
,
1000
0000
1001
0000
,
0000
0000
1001
0000
,
0000
0000
0010
0010
,
0010
0000
0100
0100
,
0100
0000
0001
0000
,
1000
0000
0010
0010
,
0010
0000
0100
0100
,
0100
0000
0001
0001
,
0001
0000
1000
0000
,
0010
0000
0100
0000
,
1001
0000
0001
1000
,
0001
0000
1000
0010
,
1000
0000
0010
0000
,
0100
0000
0001
0000
,
0011
0000
0001
0001
,
0001
0000
0100
0100
,
0100
0000
0010
0000
,
1000
0000
1010
0000
,
0110
0000
2002
0000
,
3003
0000
0001
0000
,
0001
0000
1000
0000
,
0000
0000
1000
0000
,
1000
0000
0100
0000
,
0000
0000
0010
0000
,
0010
0000
0001
0000
,
0000
0000
0110
0000
,
0000
0000
0100
0100
,
0100
0000
0010
0010
,
0010
0000
1000
0000
,
1000
0000
0001
0000
,
0001
0000
0100
0010
,
0100
0000
0001
1000
,
0001
0000
1000
0000
,
0001
0000
1000
0000
,
0001
0000
1001
0000
,
0000
0000
0110
0000
,
0000
0000
0010
0010
,
0010
0010
0020
0000
,
0030
0000
1001
0000
,
0000
0000
0110
0000
,
0000
0000
0010
0000
,
0100
0000
0010
0010
,
0010
0000
1001
0000
,
0000
0001
0001
1000
,
1000
0001
0001
0000
,
0000
1000
1000
0010
,
0010
0100
0100
0000
,
1001
0000
0010
0000
,
1001
0000
0001
0001
,
1000
1000
0001
0001
,
1000
1000
0010
0000
;

//--------------- dance-single - Alex ----------------
#NOTES:
     dance-single:
     Alex:
     Medium:
     5:
     0.352755,0.401258,0.18594,0.163627,0.007438,332,307,25,22,0,0,0.352755,0.401258,0.18594,0.163627,0.007438,332,307,25,22,0,0:
0000
0000
0000
0000
,
0000
0000
0000
0000
,
0000
0000
0000
0000
,
0000
0000
0000
0000
,
0000
0000
0001
0001
,
1000
1000
0010
0010
,
0100
0100
0001
0001
,
1000
1000
0010
0010
,
0010
0110
0010
0010
,
1000
1000
0001
0100
,
0001
0001
1000
0010
,
1000
0100
1000
0010
,
0220
0330
0010
0100
,
0010
1000
0001
0010
,
0100
0100
1000
0001
,
0100
0010
1000
0001
,
0010
0000
0001
0000
2002
3003
0001
0000
,
1000
0001
0100
0001
,
1000
0010
0100
0010
,
1000
0100
0010
0001
,
0100
0000
0010
0000
1000
0001
1000
0000
,
0001
1000
0001
0000
0100
0010
0100
0000
,
0010
0100
0010
0000
1000
0000
1000
0000
,
0001
0000
0001
0000
0100
0010
0100
0010
,
0100
0010
0100
0000
1001
0000
0000
0000
,
0110
0000
0000
0000
0000
0000
0000
0000
0010
0000
0000
0010
0000
0000
0010
0000
,
0020
0030
1001
0000
,
0110
0000
0000
0000
0000
0000
0000
0000
0100
0000
0000
0100
0000
0000
0100
0000
,
0200
0300
0010
1000
,
0001
1001
1000
0100
,
1000
1010
0010
0010
,
0100
0100
0001
0010
,
0100
1000
0001
1000
,
1000
0001
1001
1001
,
2002
3003
0001
1000
,
0001
0000
1000
0010
,
1000
0000
0001
0010
,
0001
0000
0100
0100
,
0110
1001
0001
0001
,
0001
0000
1000
1000
,
1000
0000
0010
0100
,
0001
1000
0100
0100
,
2200
0000
3300
0000
0100
1000
0100
0000
,
1000
0010
1000
0000
0010
0000
0100
0000
,
0101
0000
0000
0000
0001
1000
0001
0000
,
0010
0100
0010
0000
0001
0000
1000
0000
,
1010
0000
0000
0000
0010
0100
0001
0000
,
0001
1000
0100
0000
1000
0000
0001
0000
,
1001
0000
0000
0000
0010
0100
0010
0000
,
0100
0001
0100
0001
0100
0000
0000
0000
,
0110
0000
2002
0000
,
3003
0000
0001
1000
0001
0000
1000
0000
,
0010
0100
0010
0010
,
1010
0000
1000
0100
,
1000
0010
0100
0100
,
0101
0000
0001
0010
,
0100
1000
0001
0001
,
1000
1000
0010
0100
,
2002
0000
3003
0000
0001
0010
0001
0000
,
0100
0000
0100
0000
0010
1000
0010
0000
,
1000
0000
1000
0000
0100
1000
0100
0000
,
1000
0000
0010
0000
0100
0001
0100
0000
,
0001
0000
0010
0000
0100
1000
0100
0000
,
1000
0000
0010
0000
0100
0001
0100
0000
,
0001
0000
1000
0000
0010
1000
0001
0000
,
0100
0000
0010
0000
1000
0100
0010
0000
,
0001
0100
0010
0020
,
0000
0030
0000
0000
1000
0000
2000
0000
,
0000
3000
0000
0000
0001
0000
1000
0000
,
0010
0100
0001
2000
0000
3000
0000
0000
,
0001
0100
0010
0020
,
0000
0030
0000
0000
0100
0000
0200
0000
,
0000
0300
0000
0000
0001
0000
0100
0000
,
0010
0010
1000
0001
,
1001
0000
1001
0000
0002
0000
0000
0003
,
0000
0000
1000
0010
0100
0000
0001
0000
,
1000
0000
0100
0000
0020
0000
0000
0030
,
0000
0000
0001
1000
0100
0000
1000
0000
,
0001
0100
0010
0010
,
1000
1000
0001
0001
,
0100
0100
0010
1000
,
0100
0010
0001
0100
,
0010
0000
1000
0001
2000
0000
0000
0000
,
3000
0000
0000
0000
;

//--------------- dance-single - Alex ----------------
#NOTES:
     dance-single:
     Alex:
     Hard:
     8:
     0.515319,0.554752,0.386755,0.193378,0.230566,485,433,52,26,0,0,0.515319,0.554752,0.386755,0.193378,0.230566,485,433,52,26,0,0:
0000
0000
0000
0000
,
0000
0000
0000
0000
,
0000
0000
0000
0000
,
0000
0000
0000
0000
,
0000
0000
0110
0011
,
1001
1010
1100
0110
,
0011
0101
0110
1010
,
1001
0011
0101
0110
,
1001
0000
2002
3003
0001
0000
1000
0000
,
0010
0000
0100
0010
0000
0010
1000
0100
1000
0001
0000
0000
,
0001
1000
0001
1000
0000
0010
0100
0000
0100
0001
0000
0000
,
1000
0000
0001
0100
0000
0100
0010
0000
0010
1000
0000
0000
,
1001
0000
0000
0110
0000
0000
0010
0000
0000
0100
0000
0010
,
0100
0000
0100
0001
0000
0001
0010
0001
1000
0010
0000
0000
,
0010
0000
0100
0010
0000
0010
1000
0000
1000
0001
0000
0000
,
1000
0000
0000
0010
0000
0000
0100
0000
0001
0100
0000
0100
,
0010
0000
0000
0110
0000
0000
2002
3003
0000
0001
0100
0001
,
0100
0000
0000
0010
1000
0010
1000
0000
0000
0100
1000
0100
,
1000
0000
0000
0001
0100
0001
0100
0000
0000
0010
0000
0010
,
1000
0000
1000
0001
0000
0001
0010
0000
0100
1000
0000
0010
,
0100
0000
1001
0000
0001
1000
0001
0000
,
0100
0010
0100
0000
0001
0010
0100
1000
,
0001
0100
0010
0000
0010
1000
0100
0100
,
1000
1000
0010
0000
0010
0100
0001
1000
,
0010
0000
0010
0000
0110
0000
0000
0000
2001
0000
0000
0001
0000
0000
3000
0000
,
0120
0000
0000
0100
0000
0000
0130
0000
0001
0000
0000
1000
0000
0000
0010
0000
,
0100
0000
0000
0200
0000
0000
0310
0000
0010
0000
0000
0010
0000
0000
1000
0000
,
0001
0000
0000
0010
0000
0000
0001
0000
0100
0000
0000
0010
0000
0000
1000
0000
,
0100
0000
0000
0000
0000
0000
0000
0000
0000
0020
0000
0000
0000
0000
0000
0000
0000
0000
0000
0000
0000
0030
0000
0000
0001
0000
0000
0000
0000
0000
0000
0000
1000
0000
0000
0000
0001
0000
0000
0000
0000
0000
0000
0000
0001
0000
0000
0000
,
0100
0000
0100
0010
0000
0010
1000
0000
1000
0100
0000
0100
,
1000
0000
1000
0010
0000
0010
0100
0000
0100
0001
0000
0001
,
0010
0000
0100
1000
0000
0001
0100
0000
0010
0100
0000
0001
,
1000
0000
0010
0100
0000
0001
1000
0000
0000
0010
0000
0000
,
0100
0001
0011
1100
,
1001
0000
0010
0100
0010
0000
1000
0001
,
1000
0000
1000
0000
0010
0100
0001
0010
,
0110
0000
0000
0000
0010
0000
0001
0100
,
0010
0000
1000
0000
0001
1000
0001
1000
,
1001
0000
0110
0000
0010
0000
0010
0100
,
0010
0000
1000
0000
0001
0100
0010
0100
,
0101
0000
0001
1000
,
0010
0100
0011
0101
,
0110
0000
0010
1000
0010
1000
0100
0000
,
1000
0000
0010
0000
1000
0000
0000
0000
0001
0100
0000
0000
0010
1000
0000
0000
,
0001
1000
0001
0000
1000
0001
1000
0010
,
0100
0001
0010
0000
0100
1000
0001
0100
,
0010
0020
0000
0030
0100
0001
0100
0000
,
0010
1000
0010
0000
1000
0001
0010
0000
,
1001
0000
0000
0000
0001
0100
0001
0000
,
0010
0000
0000
0000
0000
0000
0100
0000
1000
0000
0100
0000
2000
0000
0000
0000
0000
0000
0000
0000
0000
3000
0000
0000
,
0110
0000
2002
0000
,
3003
0000
0001
1000
0001
0100
0001
0010
,
0100
1000
0001
0100
0020
0000
0000
0000
,
0030
0000
1000
0010
1000
0001
0001
1000
,
0100
1000
0001
0100
0002
0000
0000
0000
,
0003
0000
0010
0001
0010
0001
0100
0001
,
0100
0010
1000
0001
0000
0001
1000
0100
,
1000
0010
1010
0110
,
0101
0000
1001
0000
0001
1000
0001
0000
,
1000
0001
1000
0000
0010
0100
0010
0000
,
0100
0010
0100
0000
0001
0010
0001
0000
,
1000
0010
1000
0000
0001
0100
0001
0010
,
0001
0100
0010
0100
0001
0000
0001
1000
,
0010
0100
0001
0000
1000
0100
0010
0000
,
0010
0100
1000
0001
1000
0000
0000
0000
,
1001
0000
0000
0000
0001
0100
0001
0000
,
1000
0010
1000
0001
0001
0000
2002
0000
,
0000
3003
0000
0000
0010
0000
0220
0000
,
0000
0330
0000
0010
0100
0001
0010
0100
,
1000
0001
0100
0020
0000
0000
0000
0030
,
1000
0001
0001
2002
,
0000
3003
0000
0000
0010
0000
0220
0000
,
0000
0330
0000
0010
0010
0100
0010
1000
,
0001
0010
0001
1000
0010
0000
0100
0000
,
0101
1010
0020
0000
,
0030
0000
1000
0010
1000
0001
1000
0000
,
0001
0100
0001
0010
0001
0200
0000
0000
,
0300
0000
0010
0100
0001
1000
0100
0000
,
0010
0001
0100
0010
0100
0001
0000
0000
,
1000
0010
0100
0001
,
0011
0000
0001
0100
,
0010
1000
1010
0101
,
1001
0000
0010
0100
0020
0000
0000
0030
;

//--------------- dance-single - Alex ----------------
#NOTES:
     dance-single:
     Alex:
     Challenge:
     11:
     0.78201,1.018579,0.580133,0.34213,0.732603,736,658,78,46,0,1,0.78201,1.018579,0.580133,0.34213,0.732603,736,658,78,46,0,1:
0000
0000
0000
0000
,
0000
0000
0000
0000
,
0000
0000
0000
0000
,
0000
0000
0000
0000
,
0000
0000
0000
0000
0000
0000
1001
0000
0001
0100
0000
0100
,
0010
0000
0010
1000
0000
1000
0001
0000
0001
0100
0000
0100
,
0010
0000
0010
1000
0000
1000
0100
0000
0100
1000
0000
1000
,
0010
0000
0010
0100
0000
0100
0001
0000
0001
0010
0000
0001
,
1000
0000
0000
0000
0000
0000
0000
0000
0000
0000
0000
0000
2002
0000
0000
0000
0000
0000
0000
0000
0000
3003
0000
0000
1001
0000
0000
0000
0000
0000
0000
0000
0001
0000
0000
0000
0100
0000
0000
0000
0000
0000
0000
0000
0100
0000
0000
0000
,
0010
0000
0010
1000
0000
1000
0100
1000
0010
0100
0000
0000
,
0100
0001
0010
0100
1000
0001
0100
0000
0100
0010
0000
0010
,
1000
0000
1000
0001
1000
0010
0100
0001
0010
0100
0000
0000
,
2200
0000
0000
3300
0000
0000
0022
0000
0000
0033
0000
0000
0011
0000
0000
0000
0001
0000
0010
0000
0000
0000
0010
0000
,
0001
0000
0001
0100
0000
0100
0010
0000
0010
1000
0001
0100
,
0001
0000
0000
1000
0001
1000
0010
0000
0010
0100
0010
1000
,
0100
1000
0010
0100
0001
0010
0100
1000
0001
0100
0010
1000
,
0100
0010
0001
1000
0010
0100
2002
0000
3003
0001
1000
0010
,
1000
0010
0100
0001
0010
0100
0010
0001
0100
0010
1000
0100
,
0010
0100
1000
0001
1000
0010
1000
0001
0010
0001
0100
0001
,
0010
0100
0010
0001
1000
0010
1000
0000
0001
1000
0000
1000
,
0001
0000
0000
0000
0100
0000
0000
0000
0001
0000
0000
0000
1000
0000
0000
0000
0000
0000
1001
0000
0000
0000
0000
0000
0001
0000
0000
1000
0000
0000
0001
0000
0000
0000
0000
0000
1000
0000
0000
0010
0000
0000
1000
0000
0000
0010
0000
0000
,
1000
0000
1000
0010
0100
0000
0001
0000
0010
0100
1000
0001
0100
0000
0010
0100
,
0001
0000
0011
0000
0001
0100
0010
0000
0010
0000
0010
1000
0000
1000
0010
0100
,
0001
0010
0100
1000
0001
0000
1000
0000
0001
0100
0010
1000
0100
0000
1000
0000
,
1001
0000
0110
0000
2002
0000
3003
0000
0012
0000
0000
0100
0000
0000
1000
0003
,
2010
0000
0000
0100
0000
0000
0010
0000
3011
0000
0000
0101
0000
0000
0110
0000
,
1010
0000
0000
2200
0000
3300
0011
0000
0102
0000
0000
1000
0000
0000
0100
0003
,
0120
0000
0000
0001
0000
0000
0100
0030
2100
0000
0000
0010
0000
0000
0100
3000
,
0012
0000
0000
0000
0000
0000
0000
0000
0000
1000
0000
0000
0000
0000
0000
0000
0000
0000
0100
0000
0000
0000
0000
0000
1003
0000
0000
0000
0010
0000
0000
0000
1000
0000
0000
0000
0001
0000
0000
0000
0010
0000
0000
0000
0001
0000
0000
0000
,
0100
0001
0010
0100
0010
0001
0100
0010
1000
0100
0010
0100
,
1000
0010
0100
0001
0010
0001
1000
0010
0100
0001
1000
0100
,
0010
0001
0100
0010
1000
0001
0010
0001
1000
0010
0100
0001
,
0010
0100
1000
0001
0100
0010
1010
0000
0000
0110
0000
0000
,
0101
0011
1001
1010
,
1100
0000
0000
0000
0010
0000
0001
0000
0101
0000
0001
0100
0001
0000
1000
0000
,
0010
0000
1000
0010
1000
0000
0010
0000
0100
0000
0001
0010
0100
0000
1000
0000
,
1001
0000
0000
0000
0110
0000
0000
0000
0010
0000
0010
1000
0010
0000
1000
0000
,
0001
0000
0010
0001
0010
0000
0001
0000
0100
0000
0010
0100
0010
0000
0100
0000
,
2002
0000
3003
0000
0220
0000
0330
0000
1001
0000
0001
0100
0001
0000
0010
0000
,
0100
0000
1000
0010
0100
0000
0001
0000
0100
0000
0001
1000
0001
0000
0100
0000
,
0010
0000
1000
0100
0010
0000
0001
0000
0101
0000
0000
0000
0110
0000
0000
0000
,
1010
1100
0110
0011
,
0101
0000
0000
0000
0110
0000
1001
0000
0110
0000
0010
0100
0000
0100
0001
0000
,
1000
0000
0100
0000
0010
0000
0001
0000
1000
0010
1000
0000
0001
0100
0001
0000
,
0010
0000
0001
0200
0000
0000
0310
0000
1000
0000
0100
1000
0000
1000
0100
0000
,
0010
0000
0001
0000
0101
0000
0001
0000
0100
0000
0010
1000
0000
1000
0001
0000
,
1001
0000
0012
0000
0000
0003
0100
0000
0100
0000
0010
1000
0000
1000
0010
0000
,
0100
0000
0001
0000
1000
0000
0100
0000
1100
0000
0100
0010
0000
0010
0001
0000
,
0101
0000
0210
0000
0000
0000
0310
0000
1000
0010
1000
0000
0001
0000
0010
0000
,
0100
0000
0000
0000
0000
0000
1000
0000
0000
0000
0000
0000
0001
0000
0000
0000
0100
0000
0000
0000
0010
0000
0000
0000
0100
0000
0000
0000
0000
0000
0001
0000
0000
0000
0000
0000
0011
0000
0000
0000
0000
0000
0001
0000
0000
0010
0000
0000
,
0001
2002
0000
3003
0001
0010
0001
0100
,
0010
1000
0100
0100
1000
1000
0010
0010
,
0100
0001
0010
0100
1000
0001
0100
0010
,
1000
0100
0001
0100
1000
0010
0100
0001
,
0010
0100
1000
0001
1001
0001
0100
0100
,
0001
0001
0010
0100
1000
0001
0100
0010
,
1000
0100
0010
0001
0100
0100
0010
0010
,
1000
0001
0010
0100
1001
0000
0101
0000
,
1010
0000
0000
0000
1001
0000
0000
0000
0001
0010
0100
1000
0001
0000
1000
0000
,
0010
1000
0001
0100
0010
0000
0100
0000
0011
0000
0100
0000
1010
0000
0100
0000
,
0001
0010
0001
0100
0001
0000
1000
0000
0010
1000
0100
1000
0010
0000
1000
0000
,
1001
0000
0001
0000
0101
0000
0100
0000
0010
0000
1000
0100
1000
0000
0100
0000
,
0010
0001
0100
0000
0010
1000
0001
0000
1001
0000
0000
0000
0001
0100
0001
0000
,
1000
0000
1000
0000
0010
0000
0000
0000
0100
0000
0001
0100
0000
0100
0001
0000
,
1000
0000
0010
1000
0010
0000
1000
0000
1100
0000
0000
0000
0100
0010
0001
0000
,
0100
0000
0010
0000
1001
0000
0000
0000
0001
0000
0010
0001
0000
0001
0010
0000
,
0001
0100
0010
1000
2002
3003
2200
0000
,
0000
3300
0000
0000
0202
0303
2020
0000
,
0000
3030
0000
0010
0100
1000
0100
0001
,
0010
2000
0020
0000
0000
3030
0000
0010
,
0100
0001
1000
0100
2200
3300
0022
0000
,
0000
0033
0000
0000
0202
0303
2020
0000
,
0000
3030
0000
0001
0010
0100
0001
1000
,
0100
0001
0100
1000
0010
0001
0010
1000
,
1010
0000
0101
0000
0001
0010
0100
1000
,
0001
0100
0010
1000
0100
0100
1000
1000
,
0010
0001
0010
1000
0100
1000
0010
0001
,
0010
1000
0100
0001
0100
1000
0010
0100
,
0001
0010
0100
1000
1001
0001
0100
0001
,
1000
0010
0100
0010
1000
0100
0010
0100
,
1000
0000
0001
0000
0100
0000
0010
0000
0100
0001
0100
0001
0100
0010
0100
0010
,
1000
0010
1000
0100
1000
0100
1000
0100
1000
0010
0100
0001
0010
0001
0100
0010
,
1000
0100
0010
0001
1000
0010
0100
0001
2000
0000
0000
0000
0000
0000
0000
0000
,
3000
0000
0000
0000
;
