#TITLE:Maniac;
#SUBTITLE:;
#ARTIST:Stray Kids;
#TITLETRANSLIT:;
#SUBTITLETRANSLIT:;
#ARTISTTRANSLIT:;
#GENRE:;
#CREDIT:;
#BANNER:Maniac.png;
#BACKGROUND:Maniac-BG.png;
#LYRICSPATH:;
#CDTITLE:;
#MUSIC:Maniac.ogg;
#OFFSET:0.428000;
#SAMPLESTART:42.787998;
#SAMPLELENGTH:21.167000;
#SELECTABLE:YES;
#DISPLAYBPM:90.000000;
#BPMS:0.000000=90.000000
,208.750000=80.000000
,209.000000=70.000000
,209.250000=65.000000
,209.500000=50.000000
;
#STOPS:
;
#BGCHANGES:1.000=Maniac.avi=1.000=1=0=0=StretchNoLoop==CrossFade==,
99999=-nosongbg-=1.000=0=0=0 // don't automatically add -songbackground-
;
#KEYSOUNDS:;
#ATTACKS:;

//---------------dance-single - Alex----------------
#NOTES:
     dance-single:
     Alex:
     Beginner:
     1:
     0.060529,0.091361,0.063555,0.000000,0.000000,60.000000,51.000000,9.000000,0.000000,0.000000,0.000000,0.060529,0.091361,0.063555,0.000000,0.000000,60.000000,51.000000,9.000000,0.000000,0.000000,0.000000:
0000
0000
0000
0000
,
0000
0000
0000
0000
,
0000
0100
0000
0000
,
0000
0010
0000
0000
,
0000
1000
0000
0000
,
0000
0001
0000
0000
,
0000
0001
0000
0000
,
0000
1000
0000
0000
,
0000
1001
0000
0000
,
0000
0110
0000
0000
,
0000
0010
0000
0000
,
0000
0100
0000
0000
,
0000
1001
0000
0000
,
0000
0001
0000
0000
,
0000
1000
0000
0000
,
0000
0010
0000
0000
,
0000
1010
0000
0000
,
0000
0010
0000
0000
,
0000
0100
0000
0000
,
0000
1001
0000
0000
,
0000
0001
0000
0000
,
0000
1000
0000
0000
,
0000
0010
0000
0000
,
0000
0010
0000
0000
,
0000
1000
0000
0000
,
0000
0001
0000
0000
,
0000
0100
0000
0000
,
0000
0100
0000
0000
,
0000
0110
0000
0000
,
0000
0010
0000
0000
,
0000
0100
0000
0000
,
0000
0001
0000
0000
,
0000
0001
0000
0000
,
0000
1000
0000
0000
,
0000
1000
0000
0000
,
0000
0010
0000
0000
,
0000
1001
0000
0000
,
0000
0001
0000
0000
,
0000
0100
0000
0000
,
0000
0010
0000
0000
,
0000
1000
0000
0000
,
0000
1000
0000
0000
,
0000
0001
0000
0000
,
0000
1001
0000
0000
,
0000
0100
0000
0000
,
0000
0100
0000
0000
,
0000
0010
0000
0000
,
0000
0010
0000
0000
,
0000
1000
0000
0000
,
0000
0001
0000
0000
,
0000
1000
0000
0000
,
0000
0010
0000
1001
;

//---------------dance-single - Alex----------------
#NOTES:
     dance-single:
     Alex:
     Easy:
     3:
     0.122066,0.147943,0.077679,0.070617,0.000000,121.000000,110.000000,11.000000,10.000000,0.000000,0.000000,0.122066,0.147943,0.077679,0.070617,0.000000,121.000000,110.000000,11.000000,10.000000,0.000000,0.000000:
0000
0000
0000
0000
,
0000
0000
0000
0000
,
0000
0001
0000
1000
,
0000
0001
0000
1001
,
0000
0010
0000
0100
,
0000
0001
0000
1000
,
0000
1000
0000
0010
,
0000
0100
0000
0001
,
0000
1000
0000
1001
,
0000
0010
0000
0110
,
0000
0100
0000
0001
,
0000
0010
0000
0001
,
0000
1001
0000
0100
,
0000
0010
0000
1000
,
0000
0001
0000
1000
,
0000
0010
0000
0010
,
0000
0100
0100
0100
,
0000
0010
0010
0010
,
0000
1000
1000
1000
,
0000
2002
0000
3003
,
0000
0001
0000
1000
,
0000
1000
0000
0010
,
0000
0100
0000
0100
,
0000
0001
0000
1000
,
0000
0001
0001
0001
,
0000
1000
1000
1000
,
0000
0010
0010
0010
,
0000
0100
0100
0100
,
0000
0220
0000
0330
,
0000
0001
0000
0010
,
0000
0001
0000
1000
,
0000
1000
0000
0010
,
0000
1001
0000
0001
,
0000
1000
0000
1000
,
0000
0010
0000
0100
,
0000
0010
0010
0010
,
0000
2002
0000
3003
,
0000
0110
0000
0010
,
0000
1000
0000
0001
,
0000
1000
0000
0010
,
0000
0100
0100
0100
,
0000
0001
0001
0001
,
0000
1000
1000
1000
,
0000
2002
0000
3003
,
0000
0001
0000
1000
,
0000
0001
0000
1000
,
0000
0010
0000
0100
,
0000
0010
0000
1000
,
0000
0001
0001
0001
,
0000
0100
0100
0100
,
0000
0010
0010
0010
,
0000
1000
0000
2002
,
0000
0000
0000
3003
0000
0000
0000
0000
;

//---------------dance-single - Alex----------------
#NOTES:
     dance-single:
     Alex:
     Medium:
     5:
     0.211851,0.221914,0.091802,0.162419,0.000000,210.000000,197.000000,13.000000,23.000000,0.000000,0.000000,0.211851,0.221914,0.091802,0.162419,0.000000,210.000000,197.000000,13.000000,23.000000,0.000000,0.000000:
0000
0000
0000
0000
,
0000
0000
0000
0000
,
0000
0010
0100
0010
,
1000
0001
1000
2002
,
3003
0001
1000
0001
,
0001
1000
0010
1000
,
1000
0010
0100
0001
,
0001
0010
0100
1000
,
0001
0000
1000
0001
2000
0000
3001
0000
,
0100
0000
0001
0100
0002
0000
1003
0000
,
0010
0000
0100
0010
0100
0000
0001
0000
,
1000
0100
0010
0001
,
1001
0002
0003
2000
,
3000
0010
0100
0020
,
0030
2000
3000
0200
,
0300
0010
0001
0100
,
0010
0000
1001
0000
0001
1000
0001
0000
,
1000
0000
0010
0000
0100
0010
0100
0000
,
0001
0000
1000
0000
0100
0010
0001
0000
,
0100
2002
0000
3003
,
0000
0001
1000
0001
,
0001
0000
1000
0000
0010
0000
1000
0010
,
1000
0010
0100
0010
,
0010
0100
0001
1000
,
1001
0000
0001
0100
0001
0000
1000
0000
,
0010
0000
1000
0010
1000
0000
0010
0000
,
0100
0000
0001
0010
0001
0000
1000
0000
,
0100
1001
0000
0110
,
0000
2002
0000
3003
,
0000
0001
1000
0001
,
0001
0100
0010
0100
,
0100
0001
0010
0001
,
0011
0001
0001
1000
,
1000
0010
0010
1000
,
1000
0100
0010
0001
,
0100
0000
0010
1000
0001
0100
0020
0000
,
0030
0100
0100
0002
,
0003
1000
1000
0020
,
0030
1000
1000
0200
,
0300
0010
0010
0001
,
0001
0000
1001
0000
0001
1000
0001
0000
,
0100
0000
0010
0000
1000
0100
1000
0000
,
0010
0000
0100
0000
0001
0010
0001
0000
,
0100
2002
0000
3003
,
0000
0001
1000
0010
,
0010
0000
0100
0000
0001
0000
0010
0100
,
1000
0001
1000
0010
,
0010
0100
0001
2002
,
3003
0000
0001
1000
0001
0000
0100
0000
,
0010
0000
1000
0100
1000
0000
0010
0000
,
0100
0000
0001
0010
0001
0000
0100
0000
,
0010
1000
1000
0001
,
2002
0000
0000
3003
0000
0000
0000
0000
;

//---------------dance-single - Alex----------------
#NOTES:
     dance-single:
     Alex:
     Hard:
     8:
     0.390411,0.425335,0.176542,0.240098,0.158888,387.000000,362.000000,25.000000,34.000000,0.000000,0.000000,0.390411,0.425335,0.176542,0.240098,0.158888,387.000000,362.000000,25.000000,34.000000,0.000000,0.000000:
// measure 0
0000
0000
0000
0000
,  // measure 1
0000
0000
0000
0000
,  // measure 2
0000
0000
0010
0100
0002
0003
1000
0010
,  // measure 3
0200
0300
0001
1000
0200
0300
2002
0000
,  // measure 4
3003
0000
0001
1000
0010
0100
0001
1000
,  // measure 5
0100
0000
1000
0010
0100
0001
0010
0001
,  // measure 6
0001
0000
0100
0001
0010
0100
1000
0001
,  // measure 7
1000
0000
0000
0000
0010
0100
0010
0100
0010
0000
2002
0000
0000
0000
3003
0000
,  // measure 8
0001
1000
0001
1000
0001
0000
1001
0000
1001
0000
0000
0000
0001
0000
1000
0000
,  // measure 9
0010
0100
0010
0100
0010
0000
0110
0000
0110
0000
0000
0000
0010
0000
0100
0000
,  // measure 10
0001
1000
0100
0010
0001
1000
0000
1000
,  // measure 11
0010
0100
0010
1000
1000
0001
0010
0001
,  // measure 12
1001
0000
0002
0003
0200
0300
0010
1000
,  // measure 13
0200
0300
1000
0010
0100
0001
0010
0001
,  // measure 14
2000
3000
0010
0100
0002
0003
1000
0010
,  // measure 15
0200
0300
0001
1000
0100
0010
0001
0100
,  // measure 16
0010
0010
1001
0000
0001
1000
0010
0100
,  // measure 17
0001
1000
1100
0000
0010
0001
0100
0010
,  // measure 18
0100
0001
1001
0000
0001
1000
0100
0000
,  // measure 19
1001
2002
0000
3003
,  // measure 20
0000
0000
0000
0000
0010
0100
0020
0000
0000
0030
1000
0001
1000
0000
0010
0000
,  // measure 21
0100
0000
0001
0000
1000
0100
2000
0000
0000
3000
0010
0000
1001
0000
0000
0000
,  // measure 22
0001
0000
1000
0000
0001
1000
0002
0000
0000
0003
0100
0000
0010
0000
1000
0000
,  // measure 23
0100
0000
0010
0000
0001
0100
0020
0000
0000
0030
1000
0001
0100
0000
0001
0000
,  // measure 24
1001
0000
0000
0000
0001
1000
0001
0000
1000
0000
0010
0100
0010
0000
1000
0000
,  // measure 25
0100
0000
0010
0001
0100
0000
0010
0000
1000
0000
0001
1000
0100
0000
0010
0000
,  // measure 26
1001
0000
0000
0000
0001
0100
0001
0000
1000
0000
0010
1000
0010
0000
0100
0000
,  // measure 27
0001
0000
1000
0100
0010
0001
0200
0000
0000
0300
0010
1000
0001
0000
0000
0000
,  // measure 28
1001
2002
0000
3003
,  // measure 29
0000
0000
0001
1000
0001
0100
0010
1000
,  // measure 30
0100
0010
0002
0000
0003
1000
0010
0100
,  // measure 31
0001
0000
1000
0000
0100
0000
0010
0001
0000
0001
0100
0000
0010
0000
0000
0000
,  // measure 32
1001
0000
0001
1000
0010
0100
0001
1000
,  // measure 33
0100
0000
0010
0001
0100
0010
0100
0001
,  // measure 34
0001
0000
1000
0010
1000
0001
0100
0010
,  // measure 35
0010
0000
0000
0000
1000
0100
1000
0100
1000
0000
0010
0000
0100
0000
0000
0000
,  // measure 36
1001
0000
0001
0010
0001
0100
0010
0010
,  // measure 37
0020
0030
1000
0100
1000
0010
0010
1000
,  // measure 38
0002
0003
1000
0100
0010
0001
0100
0010
,  // measure 39
2000
3000
0001
0100
0001
0010
0001
0001
,  // measure 40
0100
0000
0100
0000
0110
0000
0000
0000
0010
0100
0010
0100
0010
0000
0010
0000
,  // measure 41
0100
0000
1000
0000
0001
0000
0000
0000
0001
1000
0001
1000
0001
0000
1000
0000
,  // measure 42
1000
0000
0010
0000
0010
0000
0000
0000
0100
0010
0100
0010
0100
0000
0000
0000
,  // measure 43
0110
2002
0000
3003
,  // measure 44
0000
0000
0000
0000
0001
1000
0002
0000
0000
0003
0100
0010
0100
0000
0001
0000
,  // measure 45
0010
0000
0100
0000
1000
0010
2000
0000
0000
3000
0100
0000
0110
0000
0000
0000
,  // measure 46
0001
0000
1000
0000
0010
0100
0002
0000
0000
0003
1000
0000
0010
0000
0100
0000
,  // measure 47
0001
0000
0010
0000
0100
1000
0002
0000
0000
0003
0100
0010
1000
0000
0000
0000
,  // measure 48
1001
0000
0000
0000
0001
1000
0001
0000
0100
0000
0010
0100
0010
0000
1000
0000
,  // measure 49
0100
0000
0010
0001
0100
0000
0010
0000
1000
0000
0001
1000
0001
0000
0100
0000
,  // measure 50
0100
0000
0010
0000
1000
0100
1000
0000
0010
0000
0100
0001
0100
0000
0001
0000
,  // measure 51
0010
0000
0100
1000
0100
0000
0010
0000
0001
0000
1000
0001
1000
0000
0010
0000
,  // measure 52
0220
0000
0000
0330
0000
0000
0000
0000
;

//---------------dance-single - Alex----------------
#NOTES:
     dance-single:
     Alex:
     Challenge:
     11:
     0.611341,0.610263,0.388393,0.225974,0.766194,606.000000,551.000000,55.000000,32.000000,9.000000,0.000000,0.611341,0.610263,0.388393,0.225974,0.766194,606.000000,551.000000,55.000000,32.000000,9.000000,0.000000:
0000
0000
0000
0000
,
0000
0000
0000
0000
,
0000
0000
0000
0000
0010
0100
0001
2000
0000
3000
0100
0010
0001
0100
0020
0000
,
0030
1000
0001
0100
0001
1000
0020
0000
0000
0030
0100
0001
1000
0000
0001
0000
,
1000
0000
1001
0000
0001
0000
0001
1000
0000
1000
0010
0100
0001
0000
1001
0000
,
1000
0000
1010
0000
0010
0000
0100
0010
0000
0010
0100
0001
0100
0000
0110
0000
,
0010
0000
1010
0000
1000
0000
0001
0100
0000
0100
0001
0100
0001
0000
0011
0000
,
0001
0000
0101
0000
0100
0010
0100
0001
1000
0000
0010
0000
0110
0000
0000
0000
,
0001
1000
0100
0010
0001
0000
1001
0000
1001
0000
0000
0000
0001
1000
0010
0100
,
0001
1000
0100
0010
0001
0000
1001
0000
1001
0000
0000
0000
0010
0100
0001
0100
,
0010
1000
0100
0010
0001
1000
0001
1000
0001
0000
0100
0000
0010
0000
1000
0100
,
0010
0001
0100
0010
1000
0000
1000
0001
0100
0000
0100
0001
1000
0000
1001
0000
,
2002
0000
0000
0000
0000
0000
3003
0000
0000
0000
0000
0000
1001
0000
0000
0000
0220
0000
0000
0000
0330
0000
0000
0000
0110
0000
0000
0000
2002
0000
0000
0000
3003
0000
0000
0000
0001
0000
0000
1000
0000
0000
0000
0000
0000
1000
0000
0000
,
0001
0000
0000
0000
0200
0000
0000
0000
0300
0000
0000
0000
0010
0000
0000
1000
0000
0000
0001
0000
0000
0000
0000
0000
0100
0000
0000
0000
0000
0000
0001
0000
0000
0010
0000
0000
0100
0000
0000
1000
0000
0000
0001
0000
0000
0100
0000
0000
,
0010
0000
0010
0000
1000
0100
1000
0020
0000
0030
0100
0001
0010
0100
1000
0002
,
0000
0003
0100
0010
1000
0100
0010
0002
0000
0003
0100
0010
1000
0000
0001
0000
,
0100
0000
0010
0000
1001
0000
0110
0000
0010
0100
0001
0100
0010
0100
0001
0010
,
0100
0010
0001
0100
0020
0000
0030
0000
1000
0100
1000
0010
1000
0001
0100
0010
,
1000
0100
0010
0001
0200
0000
0300
0010
1000
0001
0010
0000
0011
0000
0000
0000
,
1001
0000
0000
1000
0001
0100
0010
1000
0001
2002
0000
0000
,
0000
0000
0000
0000
3003
0000
0000
0000
0000
0000
0000
0000
0010
0000
0000
1000
0000
0000
0001
0000
0000
0000
0000
0000
0100
0000
0000
0000
0000
0000
0010
0000
0000
1000
0000
0000
0100
0000
0000
0010
0000
0000
0100
0000
0000
1000
0000
0000
,
0001
0000
0001
0100
0010
0100
0001
0000
0010
0000
0100
1000
0001
0000
1000
0000
,
0010
0100
0010
0100
0010
0000
0100
0000
0001
0000
1000
0000
0100
0000
0000
0000
1000
0000
0000
0000
1010
0000
0000
0000
1001
0000
0000
0000
0101
0000
0000
0000
,
0011
0000
0101
0000
0010
0100
0001
0000
1000
0000
0100
0010
0001
0000
1001
0000
,
0110
0000
0000
0000
0010
0100
0001
0100
0020
0030
1000
0100
1000
0010
0100
0001
,
0020
0030
0001
0100
0010
1000
0100
0010
0001
0000
0001
0100
0010
0000
0010
0000
,
1000
0001
1000
0001
1000
0000
0010
0000
0100
0000
0001
0000
0010
0000
0100
0000
1000
0000
0000
0000
1000
0000
0001
0000
1000
0000
0010
0000
0100
0000
0001
0000
,
1000
0100
0010
0001
0100
0010
0100
0000
0001
0000
1000
0010
1000
0000
0001
0000
,
1001
0000
0000
0000
0000
0000
M00M
M00M
0M00
00M0
0M00
000M
M000
0000
0000
0000
0000
0000
0010
0000
0100
0000
0001
0000
1000
0000
0000
0000
0100
0000
0000
0000
,
0010
0000
0001
0100
0010
0000
1000
0000
0001
0000
0100
0001
0010
0001
0100
0010
,
1000
0000
0001
0000
1001
0000
0000
0000
0000
0001
1000
0010
0100
0001
1000
0100
,
0010
0001
0100
0010
0100
0000
0100
0010
0000
0010
0100
0000
1001
0000
0000
0000
,
0220
0000
0330
0000
0010
0000
0100
0001
0000
0001
1000
0010
0100
0000
0001
0000
,
0010
0000
0100
0000
0010
0000
0001
0100
0000
0100
0010
1000
0001
0000
1000
0000
,
0100
0000
0010
0000
0100
0000
1000
0010
0000
0010
1000
0010
0100
0000
0001
0000
,
0010
0000
0100
0000
0010
0001
0100
0010
1000
0000
0001
0000
1001
0000
0000
0000
,
0110
0000
0000
0000
0010
0000
0100
0001
0000
0001
0010
0100
1000
0000
1000
0001
,
0000
0001
1000
0010
0100
0000
0100
0010
0000
0010
1000
0001
0010
0000
0010
0001
,
0000
0001
0100
0000
0010
0000
1000
0100
0000
0100
1000
0010
0100
0000
0001
1000
,
0000
1000
0010
0100
0001
0000
0010
0100
0000
0100
0010
0001
0100
0010
0100
0001
,
0010
0001
1000
0010
0100
0000
1001
0000
0001
1000
0010
0100
0001
0010
0100
1000
,
0001
0100
0010
1000
0200
0000
0000
0300
1000
0010
1000
0010
0100
0001
0010
0001
,
0100
0010
1000
0001
0020
0000
0030
0001
0100
0010
1000
0000
1001
0000
0000
0000
,
0110
2002
3003
1001
0011
0101
0110
1010
1100
0220
0000
0000
,
0330
0000
0000
0000
0010
0001
0100
0000
0010
0000
0010
1000
0010
0100
0001
0010
,
0001
0000
0001
1000
0100
0010
0001
0000
0100
0000
0010
0100
0001
0000
1000
0000
,
0100
1000
0100
1000
0100
0000
1000
0000
0100
0000
1000
0000
0010
0000
0000
0000
0100
0000
0000
0000
0101
0000
0000
0000
0011
0000
0000
0000
1001
0000
0000
0000
,
1010
0000
1100
0000
0100
1000
0010
0000
0100
0000
0001
0010
0100
0000
1001
0000
,
0220
0000
0330
0000
0010
1000
0001
0010
0001
0000
0001
0100
0001
0010
0100
0010
,
0001
0000
0001
1000
0010
0100
0001
1000
0100
0000
0100
1000
0100
0000
0100
0000
,
1000
0010
1000
0010
1000
0000
0010
0000
0100
0000
0001
0000
0010
0000
0001
0000
0100
0000
0000
0000
0100
0000
0100
0000
0001
0000
0010
0000
0100
0000
1000
0000
,
0001
0100
0010
1000
0100
0010
0002
0000
0000
0003
1000
0010
0100
0000
0000
0000
,
2002
0000
0000
3003
0000
0000
0000
0000
;
