#TITLE:Magic Girl;
#SUBTITLE:;
#ARTIST:Orange Caramel;
#TITLETRANSLIT:;
#SUBTITLETRANSLIT:;
#ARTISTTRANSLIT:;
#GENRE:;
#CREDIT:;
#MUSIC:Magic Girl.ogg;
#BANNER:Magic Girl.png;
#BACKGROUND:Magic Girl-BG.png;
#CDTITLE:;
#SAMPLESTART:44.795;
#SAMPLELENGTH:20.432;
#SELECTABLE:YES;
#OFFSET:0.150;
#BPMS:0.000=136.000
,70.000=68.000
,78.000=136.000
,186.000=127.000
,186.500=117.000
,187.000=110.000
,187.500=103.000
,188.000=95.000
,188.500=75.000
,189.000=68.000
,197.000=136.000
;
#STOPS:;
#BGCHANGES:;
#FGCHANGES:;

//--------------- dance-single - Alex ----------------
#NOTES:
     dance-single:
     Alex:
     Beginner:
     1:
     0,0,0,0,0:
0000
0000
0000
0000
,
0000
0000
1000
0000
,
0000
0000
0001
0000
,
0000
0000
0001
0000
,
0000
0000
1000
0000
,
0000
0000
0010
0000
,
0000
0000
0100
0000
,
0000
0000
0010
0000
,
0000
0000
1000
0000
,
0000
0000
1000
0000
,
0000
0000
0001
0000
,
0000
0000
0100
0000
,
0000
0000
0100
0000
,
0000
0000
0010
0000
,
0000
0000
1000
0000
,
0000
0000
0010
0000
,
0000
0000
0100
0000
,
0000
0000
0001
0000
,
0000
0000
1000
0000
,
0000
0000
0001
0000
,
0000
0000
1000
0000
,
0000
0000
0001
0000
,
0000
0000
1001
0000
,
0000
0000
0010
0000
,
0010
0000
0010
0000
,
0000
0000
1000
0000
,
1000
0000
1000
0000
,
0000
0000
0001
0000
,
0001
0000
0001
0000
,
0000
0000
0100
0000
,
0100
0000
0100
0000
,
0000
0000
0010
0000
,
0010
0000
0010
0000
,
0000
0000
0100
0000
,
0100
0000
0100
0000
,
0000
0000
0001
0000
,
0001
0000
0001
0000
,
0000
0000
1000
0000
,
1000
0000
1000
0000
,
0000
0000
1001
0000
,
0000
0000
0001
0000
,
0000
0000
1000
0000
,
0000
0000
1000
0000
,
0000
0000
0001
0000
,
0000
0000
0100
0000
,
0000
0000
0010
0000
,
0000
0000
1000
0000
,
0000
1001
0000
0000
,
0000
0110
0000
0000
,
0000
0010
0000
0000
,
0000
1000
0000
0000
,
0000
0001
0000
0000
,
0000
0100
0000
0000
,
0000
0001
0000
0001
,
0000
0001
0000
0000
,
0000
1000
0000
1000
,
0000
1000
0000
0000
,
0000
0010
0000
0010
,
0000
0010
0000
0000
,
0000
0100
0000
0100
,
0000
0100
0000
0000
,
0000
1001
0000
0000
;

//--------------- dance-single - Alex ----------------
#NOTES:
     dance-single:
     Alex:
     Easy:
     3:
     0,0,0,0,0:
0000
0000
0000
0000
,
0000
0000
1000
0000
,
0001
0000
1000
0000
,
0000
0000
0010
0000
,
0100
0000
0010
0000
,
0000
0000
0100
0000
,
0001
0000
1000
0000
,
0000
0000
0001
0000
,
1000
0000
1001
0000
,
0000
0000
0010
0010
,
0010
0000
1000
1000
,
1000
0000
0001
0001
,
1001
0000
1000
1000
,
1001
0000
0001
0100
,
0001
0000
1000
0010
,
1000
0000
0100
0100
,
1001
0000
0010
0010
,
1001
0000
0001
0100
,
0010
0000
1000
0100
,
0010
0000
0001
1000
,
0001
0000
1000
0001
,
1000
0000
1001
0000
,
1001
0000
2002
0000
,
3003
0000
0001
0100
,
0001
0000
1000
0010
,
1000
0000
0001
0000
,
0100
0000
0010
0000
,
1010
0000
1000
1000
,
1000
0000
0001
0001
,
0001
0000
0100
0000
,
0010
0000
0220
0000
,
0330
0000
0010
0100
,
0100
0000
0001
1000
,
1000
0000
0001
0000
,
0100
0000
0010
0000
,
1001
0000
1000
1000
,
0100
0000
0010
0010
,
0001
0000
0100
0000
,
0010
0000
2020
0000
,
3030
0000
0001
0000
,
1000
0000
0001
0000
,
1000
0000
0010
0000
,
0100
0000
0001
0000
,
1000
0000
0001
1000
,
0001
0000
1000
0001
,
1000
0000
0010
0100
,
0010
0000
1001
0000
,
0000
0001
1000
0001
,
0000
1000
0010
1000
,
0000
0001
0100
0100
,
0000
0010
0010
1000
,
0000
0001
0000
1000
,
0000
2002
0000
3003
,
0000
0001
1000
0001
,
0000
1000
0001
1000
,
0000
0001
0000
1000
,
0000
0001
0000
0101
,
0000
0100
0100
0010
,
0000
1000
0001
0001
,
0000
1000
0000
0010
,
0000
0200
0000
0000
,
0300
1001
0000
0000
;

//--------------- dance-single - Alex ----------------
#NOTES:
     dance-single:
     Alex:
     Medium:
     5:
     0,0,0,0,0:
0000
0000
0000
0000
,
0000
0000
0001
1000
,
0010
0100
0001
1000
,
0100
0000
0010
0001
,
0100
0000
0010
0000
2000
0000
0000
3001
,
0000
0101
0001
0100
,
0001
0001
1000
0010
,
1000
0000
0001
1000
,
0100
0010
1001
0000
,
0000
0000
0001
0100
,
0010
1000
0001
0010
,
0001
0100
0010
1000
,
1010
0000
0010
0100
,
0101
0000
0001
0010
,
0100
1000
0001
0100
,
0010
1000
0001
0001
,
1001
0000
1000
1000
,
1001
0000
0001
1001
,
1000
0010
0100
0000
0001
0010
0100
1000
,
0001
0000
1001
0000
0001
0100
0001
0100
,
0001
0000
0000
0000
1000
0010
1000
0010
,
1000
0000
0010
0010
,
0100
0100
0110
0000
,
1001
1001
0001
0100
,
1000
0100
0001
1000
,
0010
0000
1000
0001
,
0010
0000
0100
0000
2000
0000
0000
3100
,
0000
1100
0100
1000
,
0010
0100
0001
0010
,
0001
0000
0100
0010
,
1000
0010
0200
0000
,
0300
0000
0001
0010
,
0100
1000
0001
0100
,
0010
0000
0010
1000
,
0001
0000
0100
0000
0020
0000
0000
1030
,
0000
1010
0010
0100
,
0001
1000
0100
0001
,
0001
0000
0010
0001
,
0010
1000
2002
0000
,
3003
0000
0001
0100
,
0001
0001
1000
0010
,
1000
1000
0001
1000
,
0001
0001
1000
0100
,
1000
1000
0010
1010
,
1000
1001
0001
0101
,
0100
0110
0010
1010
,
1000
1100
2002
0000
,
0000
3003
0001
1000
0001
0000
1000
0010
,
1000
0000
0001
0100
0010
1000
0200
0000
,
0000
0300
1000
0000
0001
0000
0100
0000
,
0001
1000
0010
0010
,
0000
0100
0001
0010
,
0100
2000
0000
3000
,
0000
0001
1000
0010
,
0100
0001
1000
0001
,
1001
1000
1000
0001
,
0100
0000
0020
0000
0000
0130
0000
0000
,
0110
0010
1000
0001
,
0011
0001
0100
0010
,
1010
1000
0001
0100
,
0010
0000
2000
0000
0000
0000
0000
3000
,
0000
1001
0000
0000
;

//--------------- dance-single - Alex ----------------
#NOTES:
     dance-single:
     Alex:
     Hard:
     7:
     0,0,0,0,0:
0000
0000
0000
0000
,
0000
0000
0000
0000
0001
0100
0001
1000
,
0000
0010
1000
0100
0000
0010
0001
0200
,
0000
0300
0000
0001
0100
0001
1000
0010
,
0100
0001
1000
0100
0000
0010
0001
1000
,
0000
0000
1001
0000
0001
0100
0001
1000
,
0000
0010
1000
0100
0000
0010
0001
2000
,
0000
0000
3000
0000
0001
0100
0010
0100
,
0000
0001
1000
0200
0000
0000
0300
0000
,
0000
0000
0000
0000
1000
0010
0100
0000
,
0001
0010
0100
0000
1000
0001
0100
0010
,
1000
0001
1001
0110
,
1001
0000
0011
2002
,
0010
3003
0000
0000
0000
0000
0000
0000
0001
0000
0100
0000
0001
0000
0000
0000
,
1000
0100
1000
0000
0010
0100
0001
0010
,
0100
1000
0101
1010
,
1100
0000
0011
0202
,
0010
0303
0000
0000
0000
0000
0000
0000
0000
0000
0001
1000
0001
0000
0000
1000
,
0000
0010
0000
0100
0000
0001
0000
0000
0010
0100
1000
0000
0001
0100
0001
1000
,
0000
0010
0000
0100
0000
0001
0000
0000
1000
0000
0100
0000
0010
0000
0001
0000
,
2000
0000
3000
0000
0001
0100
0001
1000
,
0020
0000
0000
0030
0000
0000
0100
0000
0100
0000
0010
0000
,
0010
0000
1000
0000
1000
0000
0001
0000
0000
0000
0000
0000
,
1001
0000
0110
0000
0010
0100
0001
1000
,
0000
0100
0010
0001
0000
1000
0010
0200
,
0000
0000
0300
0000
0001
0100
0001
0010
,
0001
0100
0010
2000
0000
0000
0000
3001
,
0000
0000
1001
0000
0001
1000
0001
0100
,
0000
0010
1000
0001
0000
0010
0001
0200
,
0000
0000
0300
0000
0010
1000
0100
0010
,
0000
0001
1000
0020
0000
0000
0000
0000
,
0000
0000
0030
0000
0100
0001
0001
1000
,
0000
0001
1000
1000
0000
0010
0100
0200
,
0000
0000
0300
0000
0001
1000
0010
0100
,
0001
1000
0010
0200
0000
0000
0000
0310
,
0000
0000
0110
0000
0010
1000
0001
0010
,
0000
0001
0100
0010
0000
1000
0001
0200
,
0000
0000
0300
0000
0001
1000
1000
0001
,
0000
0001
1000
0010
0110
0000
0000
0000
,
0000
0000
0000
0000
0010
0000
0010
1000
,
0001
0000
0001
1000
0100
0000
0100
1000
,
0001
0000
0001
0100
0010
0000
0010
1000
,
0001
0000
0001
0010
0001
0000
1000
0010
,
1000
0000
0001
0100
0100
0000
0001
1000
,
0100
0000
0010
0001
0100
0000
0010
1000
,
0001
0000
0010
0001
1000
0000
0100
1000
,
0001
0000
0100
0010
0200
0000
0000
0000
,
0000
0000
0000
0000
0310
0100
0001
1000
0000
0100
0000
0010
0000
0001
0000
1000
,
0000
0000
0000
0000
0010
0100
0001
0010
0001
0100
0010
2000
0000
0000
0000
0000
,
0000
0000
3001
0010
0001
0100
0000
0010
,
1000
0001
0000
0010
0001
1000
0000
0000
,
1001
0000
0001
0100
0001
1000
0000
0100
,
0010
0001
0200
0000
0000
0000
0000
0000
,
0300
0000
0010
1000
0001
0100
0000
0010
,
1000
0001
0000
0010
0001
2000
0000
0000
,
3000
0000
0001
0100
0010
1000
0100
1000
,
1000
0002
0000
0000
0000
1003
0000
0000
,
1001
0000
0001
0100
0010
0100
0000
0001
,
1000
0100
0000
0010
0001
0200
0000
0300
,
0110
0000
0010
1000
0001
0010
0000
0001
,
1000
0010
0200
0000
0000
0000
0000
0000
,
0300
1001
0000
0000
;

//--------------- dance-single - Alex ----------------
#NOTES:
     dance-single:
     Alex:
     Challenge:
     9:
     0,0,0,0,0:
0000
0000
0000
0000
,
0000
0000
0000
0000
0001
0010
0100
0020
,
0000
0031
0100
0020
0000
1030
0001
0200
,
0300
1001
1001
0000
0001
0010
1000
0010
,
0001
0100
0010
1010
0000
0100
1000
0001
,
0000
1001
1001
0000
0001
0100
0010
0200
,
0000
0301
0010
0002
0000
1003
0010
2000
,
3000
1010
1010
0000
0010
0100
0001
0020
,
0000
0031
0100
0020
0000
1030
0001
0100
,
0010
0000
0000
0000
0000
0000
1000
0000
0001
0000
1000
0000
0001
0000
0000
0000
0000
0000
0001
0000
0000
0000
0000
0000
1000
0000
0000
0100
0000
0000
1000
0000
0000
0000
0000
0000
0001
0000
0000
0000
0000
0000
0100
0000
0000
0000
0000
0000
,
0010
0100
0001
0000
1000
0000
0100
0000
0010
0100
1000
0000
0001
0000
0100
0000
,
0010
0100
0001
0000
0100
0000
0010
0000
1010
0000
0000
0000
0202
0000
0000
0000
,
1010
0303
1100
1010
,
0002
0003
2000
3000
0020
0030
0200
0300
0001
0010
0001
0000
0100
0000
0001
0000
,
1000
0010
1000
0000
0001
0000
1000
0000
0100
0010
0001
0000
0100
0000
0010
0000
,
1000
0001
0100
0000
0010
0000
0100
0000
0011
0000
0000
0000
2200
0000
0000
0000
,
0011
3300
0101
1010
,
0002
0003
0020
0030
0200
0300
2000
3000
1001
0000
0001
0100
0010
0100
0001
0020
,
0030
0200
0300
2000
3000
0020
0000
0000
1030
0001
0100
0010
0000
0010
1000
0001
,
0000
0000
0001
0000
0010
0000
0001
0000
0000
0000
0011
0000
0000
0000
0001
0100
0010
0000
0000
0000
1000
0000
0000
0000
0100
0000
0000
0000
0010
0000
0000
0000
,
0002
0000
0000
0000
1003
0000
1000
0001
0100
0000
0001
0000
0010
0000
0001
0000
,
2000
0000
0000
0000
0000
0000
3010
0000
0000
0100
0000
0000
0101
0000
0000
0000
1010
0000
0000
0000
1100
0000
0000
0000
,
0011
0000
0000
0000
0000
0000
0000
0000
0101
0000
0000
0000
0000
0000
0000
0000
0110
0000
0000
0000
0000
0000
0000
0000
0001
0000
0000
0010
0000
0000
0001
0000
0000
0100
0000
0000
0001
0000
0000
0010
0000
0000
0100
0000
0000
1000
0000
0000
,
0001
0000
1001
0000
0020
0100
1000
0130
,
0002
0010
1000
0013
1000
0100
0010
0001
,
1000
0000
1001
0000
0001
0100
1000
0100
,
0001
0010
0001
0100
1010
0000
0100
0011
,
0000
0000
2002
0000
0100
3003
0000
0000
0002
0000
0100
0000
0010
0000
0103
0000
,
2000
0010
0100
3010
0001
0010
1000
0010
,
0001
0000
0011
0000
0001
0100
0010
1000
,
0100
0000
0001
0000
0100
0000
1000
0000
0010
1000
0010
0100
0001
0010
0001
1000
,
0010
0100
0001
1000
0100
0000
0000
0000
0020
0000
0001
0000
0100
0000
0031
0000
,
0002
0100
1000
0103
2000
0010
0100
3001
,
0101
0000
1010
0000
0010
0100
0001
1000
,
0100
0000
0010
0000
0001
0000
0100
0000
0010
0100
0001
0010
0001
0100
0010
1000
,
0100
0000
1100
0000
2000
0100
0010
3100
,
0002
0100
1000
0103
0020
0001
0001
0130
,
1100
0000
0011
0000
0001
0100
0010
0100
,
0100
0000
0001
0000
1000
0000
0100
0000
0010
0001
0100
0001
1000
0010
1000
0001
,
0010
0001
0100
0010
1000
0000
0000
0000
0100
0000
1000
0100
1000
0000
0010
0000
,
1010
0000
0000
0010
0100
0000
0001
0000
1001
0000
0000
0001
0010
0000
0001
0000
,
0101
0000
0000
0100
0010
0000
0010
1000
0001
0000
1000
0001
0100
0000
0010
0000
,
1000
0000
0001
0010
0001
0000
0100
0000
0010
0000
1000
0100
0010
0000
0001
0000
,
0100
0000
0010
0100
0001
0000
1000
0000
0001
0000
0010
0000
0100
0000
1000
0000
,
0001
0100
1000
0100
0001
1000
0010
1000
,
0001
0010
0010
0001
0100
0010
1000
0100
,
0010
0000
0001
0000
1000
0010
0100
0001
0020
0000
0000
0000
0000
0000
0000
0000
,
0000
0000
0000
0000
0031
1000
0010
0100
0000
0001
0010
0001
0000
1000
0010
0200
,
0000
0000
0300
0000
0001
0010
0001
0100
0010
1000
0100
0020
0000
0000
0030
0002
,
0000
0003
2001
0010
0001
3100
0002
0010
,
0100
0013
1000
0100
0010
0001
0101
0000
,
0110
0000
0010
1000
0001
0010
0001
0100
,
0100
0000
0010
0000
1000
0100
1000
0010
1000
0010
0100
0001
0100
0001
0010
0100
,
1000
0000
0000
0000
0001
0100
0001
0000
1000
0000
0010
0000
0100
0001
1000
0000
,
0100
0000
0010
0000
0001
0100
0010
0000
1000
0000
0100
0000
0110
0000
0000
0000
,
0011
0000
0000
0000
0001
0000
0100
0001
0100
0000
0010
0000
1000
0000
0001
1000
,
0001
0000
0100
0000
0010
1000
0010
0100
0001
0010
0100
1000
0001
0000
0000
0000
,
0101
0000
0000
0000
0010
0100
0010
0000
1000
0000
0100
0000
1000
0100
1000
0000
,
0010
0000
1000
0000
0001
0010
0001
0000
0100
0000
0010
0000
1010
0000
0000
0000
,
0110
0000
0000
0000
0010
0000
0100
0001
0010
0000
0001
0000
1000
0000
0010
1000
,
0100
0000
0010
0000
0001
0100
0000
0100
0010
0000
0010
1000
0000
1000
0001
0000
,
0001
0000
0000
0100
0000
0000
0010
0000
0000
1000
0000
0000
0200
0000
0000
0000
0000
0000
0000
0000
0000
0000
0000
0000
0000
0000
0000
0000
0000
0000
0000
0000
0300
0000
0000
0000
0000
0000
0000
0000
0000
0000
0000
0000
0000
0000
0000
0000
;
