#TITLE:Maestro;
#SUBTITLE:;
#ARTIST:Seventeen;
#TITLETRANSLIT:;
#SUBTITLETRANSLIT:;
#ARTISTTRANSLIT:;
#GENRE:;
#CREDIT:;
#MUSIC:Maestro.ogg;
#BANNER:Maestro.png;
#BACKGROUND:Maestro-BG.png;
#CDTITLE:;
#SAMPLESTART:73.627;
#SAMPLELENGTH:15.584;
#SELECTABLE:YES;
#OFFSET:0.139;
#BPMS:0.000=152.000;
#STOPS:;
#BGCHANGES:0.500=Maestro.avi=1.000=1=0=0=StretchNoLoop==CrossFade==,
99999.000=-nosongbg-=1.000=0=0=0=StretchNoLoop====
;
#FGCHANGES:;

//--------------- dance-single - Alex ----------------
#NOTES:
     dance-single:
     Alex:
     Beginner:
     1:
     0.083271,0.123018,0.033889,0,0,86,81,5,0,0,0,0.083271,0.123018,0.033889,0,0,86,81,5,0,0,0:
0000
0000
0000
0000
,
0000
0000
0000
0000
,
0000
0000
0000
0000
,
0000
0000
0000
0000
,
0000
0000
0000
0000
,
0000
0000
0000
0000
,
0000
0000
0000
0001
,
0000
0000
0000
1000
,
0000
0000
0000
0010
,
0000
0000
0000
0010
,
0000
0000
0000
1000
,
0000
0000
0000
0001
,
0000
0000
0000
1000
,
0000
0000
0000
0001
,
0000
0000
0000
0100
,
0000
0000
0000
0001
,
0000
0000
0000
1000
,
0000
0000
0000
1000
,
0000
0000
0000
0010
,
0000
0000
0000
0010
,
0000
0000
0000
1000
,
0000
0000
0000
0001
,
0000
0000
0000
1000
,
0000
0000
0000
0010
,
0000
0000
0000
0001
,
0000
0000
0000
1000
,
0000
0000
0000
0100
,
0000
0000
0000
0001
,
0000
0000
0000
0010
,
0000
0000
0000
0001
,
0000
0000
0000
1000
,
0000
0000
0000
0010
,
0000
0000
0000
1000
,
0000
0000
0000
0001
,
0000
0000
0000
0100
,
0000
0000
0000
0010
,
0000
0000
0000
0100
,
0000
0000
0000
0001
,
0000
0000
0000
1000
,
0000
0000
0000
0010
,
0000
0000
0000
0100
,
0000
0000
0000
0001
,
0000
0000
0000
1000
,
0000
0000
0000
1000
,
0000
0000
0000
0010
,
0000
0000
0000
0010
,
0000
0000
0000
0100
,
0000
0000
0000
0001
,
0000
0000
0000
1000
,
0000
0000
0000
1000
,
0000
0000
0000
0001
,
0000
0000
0000
0010
,
0000
0000
0000
0001
,
0000
0000
0000
0100
,
0000
0000
0000
0010
,
0000
0000
0000
0010
,
0000
0000
0000
1000
,
0000
0000
0000
1000
,
0000
0000
0000
0010
,
0000
0000
0000
0100
,
0000
0000
0000
0001
,
0000
0000
0000
1000
,
0000
0000
0000
0010
,
0000
0000
0000
0010
,
0000
0000
0000
1001
,
0000
0000
0000
0000
,
0000
0000
0000
1001
,
0000
0000
0000
0000
,
0000
0000
0000
0110
,
0000
0000
0000
0000
,
0000
0000
0000
0110
,
0000
0000
0000
0000
,
0000
0000
0000
1000
,
0000
0000
0000
1000
,
0000
0000
0000
0001
,
0000
0000
0000
0001
,
0000
0000
0000
0100
,
0000
0000
0000
0001
,
0000
0000
0000
1000
,
0000
0000
0000
1000
,
0000
0000
0000
0010
,
0000
0000
0000
0010
,
0000
0000
0000
0100
,
0000
0000
0000
0001
,
0000
0000
0000
0001
,
0000
0000
0000
1000
,
0000
0000
0000
0010
,
0000
0000
0000
0100
,
0000
0000
0000
0001
,
0000
0000
0000
0001
,
0000
0000
0000
1001
;

//--------------- dance-single - Alex ----------------
#NOTES:
     dance-single:
     Alex:
     Easy:
     2:
     0.183002,0.312629,0.142335,0.054223,0,189,168,21,8,0,0,0.183002,0.312629,0.142335,0.054223,0,189,168,21,8,0,0:
0000
0000
0000
0000
,
0000
0000
0000
0000
,
0000
0000
0000
0000
,
0000
0000
0000
0000
,
0000
0000
0000
1000
,
0000
0000
0000
0010
,
0000
0000
0000
1000
,
0000
0001
0000
1000
,
1000
1000
0000
1001
,
0000
0000
0000
0010
,
0000
0100
0000
0010
,
0000
0000
0000
1000
,
0000
0001
0000
1000
,
0000
0000
0000
0001
,
0000
0100
0000
0001
,
0000
0001
0000
1000
,
0010
1000
0000
1010
,
0000
0000
0000
0010
,
0000
0010
0000
1001
,
0000
0000
0000
0001
,
0000
1000
0000
1100
,
0000
0000
0000
1000
,
0000
0001
0000
0010
,
0000
0010
0000
0001
,
1000
0001
0000
1001
,
0000
0000
0000
0001
,
0100
0001
0100
0001
,
0000
0000
0000
1000
,
0010
1000
0010
1000
,
0000
0000
0000
0001
,
1000
0001
1000
0001
,
0000
1000
0000
0001
,
1000
0001
0000
0000
,
0000
1000
0000
0010
,
0000
1000
1000
0000
,
0000
0010
0000
0100
,
0000
0010
0010
0000
,
0000
1000
0000
0001
,
0000
1000
1000
1000
,
0000
0010
0000
0200
,
0000
0000
0300
1001
,
0000
0000
0000
0110
,
0000
0000
0000
0010
,
0000
0100
0000
0010
,
0000
1000
0001
0020
,
0030
0002
0003
2000
,
3000
0020
0030
0100
,
0000
0100
0000
0010
,
0010
0010
0000
1001
,
0000
0000
0000
0001
,
0000
0100
0000
0001
,
0000
0000
0000
1000
,
0000
0001
0000
1000
,
0000
0000
0000
0010
,
0000
0100
0000
0010
,
0000
0010
0000
1000
,
1000
1000
0000
1001
,
0000
0000
0000
0010
,
0000
0010
0000
1001
,
0000
0000
0000
0001
,
0000
0001
0000
0101
,
0000
0000
0000
1000
,
0000
1000
0000
0010
,
0000
0010
0000
1000
,
1000
1000
0000
0002
,
0000
0103
0000
0020
,
0000
1030
0000
2000
,
0000
3001
0000
1001
,
0000
0000
0000
0110
,
0000
0000
0000
1001
,
0000
0000
0000
0110
,
0000
0000
0000
1001
,
0000
0000
0000
0010
,
0000
0010
0000
0100
,
0100
0100
0000
0001
,
0000
1000
0000
0001
,
0000
1000
0000
0010
,
0000
1000
0000
0001
,
0000
1000
0000
0001
,
0000
0100
0000
0001
,
0000
1000
0000
0010
,
0010
0100
0100
0010
,
0010
0110
0000
1001
,
0000
0000
0000
0001
,
0000
1000
0000
1001
,
0000
0000
0000
0001
,
0000
0100
0000
0101
,
0000
0000
0000
0010
,
0000
1000
0000
0010
,
0000
0010
0000
1000
,
1000
1000
0000
0001
,
0000
0001
0000
0100
,
0100
0110
0000
0000
;

//--------------- dance-single - Alex ----------------
#NOTES:
     dance-single:
     Alex:
     Medium:
     4:
     0.271115,0.312629,0.183002,0.142335,0,280,253,27,21,0,0,0.271115,0.312629,0.183002,0.142335,0,280,253,27,21,0,0:
0000
0000
0000
0000
,
0000
0000
0000
0000
,
0000
0000
0000
0000
,
0000
0000
0000
0000
,
0000
0000
0000
0100
,
0100
0100
0000
0010
,
0010
0010
0000
1001
,
0000
1001
0000
0010
,
0010
2002
3003
0001
,
0000
1000
0000
0010
,
0100
0001
1001
1000
,
0000
0010
0000
1000
,
0100
0010
0011
0001
,
0000
0100
0000
0010
,
1000
0001
0100
0110
,
0000
0110
0000
0010
,
0100
2002
3003
0001
,
1000
0010
0000
0100
,
0100
0001
0001
1000
,
0100
0010
0000
0001
,
1000
0020
0030
0100
,
0001
0100
0000
0010
,
0010
1000
1000
0001
,
0010
0100
1000
0001
,
0100
0220
0330
0010
,
0000
0010
0000
1000
,
0000
0001
1000
0001
,
0000
1000
0000
0010
,
0000
1000
0100
0010
,
0000
0001
0000
0100
,
0000
0010
0100
0010
,
0000
0010
0000
1000
,
0001
2000
3000
0001
,
0000
1000
0000
0001
,
0000
0001
0000
1000
,
0000
0001
0000
0100
,
0000
0001
0000
0001
,
0000
0010
0000
0001
,
0000
1000
0000
0010
,
0000
0100
0000
0010
,
0000
1000
0001
2000
,
3000
0001
1000
0002
,
0003
1000
0010
1000
,
0001
1000
0000
0010
,
0000
0100
0000
0101
,
0000
0101
0000
1010
,
0000
1010
0000
0010
,
0010
1000
1000
0001
,
0100
0020
0030
0100
,
0000
0001
0000
1000
,
0001
1000
1010
0010
,
0000
1000
0000
0001
,
0100
0001
0101
0100
,
0000
0010
0000
1000
,
0010
1000
1100
1000
,
1000
0001
0001
0100
,
0010
0200
0300
0010
,
1000
0001
0000
0010
,
0001
0100
0100
0001
,
1000
0010
0000
0010
,
1000
0200
0300
1000
,
0001
1000
0000
0001
,
0100
0010
0010
0110
,
0000
0110
0000
0010
,
0100
1001
0000
0020
,
0000
0130
0000
0002
,
0000
1003
0000
2000
,
0000
3001
0000
0001
,
0000
1000
0001
1001
,
0000
0001
0100
0110
,
0000
0010
1000
1001
,
0000
0001
0010
0022
,
0000
0000
0000
0033
0000
0000
0001
0000
,
0001
1000
1000
0010
,
0100
0110
0000
0010
,
0000
1000
0000
0001
,
0000
1000
0000
0010
,
0000
0100
0000
0001
,
0000
1000
0000
0001
,
0010
0100
1000
0001
,
0100
0010
1000
0001
,
0010
0100
1000
0010
,
0100
2002
3003
0001
,
1000
0010
0000
0010
,
0100
0001
0001
1000
,
0100
1000
0000
0010
,
1000
0020
0030
0100
,
0001
0100
0000
0001
,
0010
0100
1000
0001
,
0001
1000
1000
0001
,
0100
1001
0000
0010
,
0100
0010
0010
1000
,
0001
1001
0000
0000
;

//--------------- dance-single - Alex ----------------
#NOTES:
     dance-single:
     Alex:
     Hard:
     8:
     0.498657,0.53435,0.298226,0.352449,0.528674,515,471,44,52,33,0,0.498657,0.53435,0.298226,0.352449,0.528674,515,471,44,52,33,0:
0000
0000
0000
0000
,
0000
0000
0000
0000
,
0000
0000
0000
0000
,
0000
0000
0000
0000
,
0000
0000
0000
1001
,
1000
1000
1000
0110
,
0100
0100
0100
0011
,
1010
0000
0000
1100
0000
0000
0101
0000
0000
1001
0000
0001
,
1000
0000
1000
0002
0000
0000
0003
0000
0000
0010
0000
0000
,
1000
0000
0001
1000
0000
0000
0010
0000
0100
0001
0000
0000
,
0100
0000
0010
1000
0000
0100
0010
0000
0000
0001
0000
0000
,
0100
0000
0001
0100
0000
0000
0010
0000
1000
0010
0000
0000
,
1000
0000
0001
1000
0000
1000
0010
0000
0000
0100
0000
0000
,
0001
0000
1000
0100
0000
0000
0010
0000
0001
0100
0000
0000
,
0010
0000
1000
0001
0000
0001
0010
0000
0000
0011
0000
0000
,
0101
0000
0000
1100
0000
0000
1010
0000
0000
0010
0000
0100
,
0010
0000
0010
0200
0000
0000
0300
0000
0000
0020
0000
0000
,
2030
0000
0000
0000
0000
0000
3200
0000
0000
0000
0000
0000
0000
0000
0000
0300
0010
0000
0001
0000
0000
0000
0001
0000
,
0100
0000
0100
0010
0000
0000
0110
0000
0000
0020
0000
0000
,
2030
0000
0000
0000
0000
0000
3002
0000
0000
0000
0000
0000
0000
0000
0000
0003
0100
0000
0010
0000
0000
0000
0010
0000
,
1000
0000
1000
0200
0000
0000
0300
0000
0000
0020
0000
0000
,
0032
0000
0000
0000
0000
0000
0203
0000
0000
0000
0000
0000
0000
0000
0000
0300
0010
0000
1000
0000
0000
0000
1000
0000
,
0001
0000
0001
0100
0000
0000
0100
0000
0000
0101
0000
0000
,
1010
0000
0000
0011
0000
0000
1100
0000
0000
0001
0000
1000
,
0001
0000
0001
0020
0000
0000
0030
0000
0000
0001
0000
1000
,
0001
0000
0001
0100
0000
0100
0001
0000
0001
1000
0000
1000
,
0010
0000
0010
1000
0000
0000
0001
0000
0000
1000
0000
0010
,
0100
0000
0100
0010
0000
0010
1000
0000
1000
0001
0000
0001
,
0100
0000
0000
0010
0000
0000
1000
0000
0000
0001
0000
0001
,
0100
0000
0100
0001
0000
0001
0010
0000
0010
0100
0000
0100
,
1000
0000
1000
0001
0000
0000
0100
0000
0000
0010
1000
0020
,
0000
0000
0030
0100
0001
0200
0000
0000
0300
0001
1000
0001
,
1000
0001
1000
0002
0000
0000
0003
0000
0000
1001
0000
0000
,
0000
0000
0010
0100
0000
0100
0001
0000
0001
0010
0000
0010
,
0100
0000
0100
1000
0000
1000
0010
0000
0000
1010
0000
0000
,
0000
0000
0000
0010
0000
0010
1000
0000
1000
0001
0000
0001
,
0100
0000
0100
0001
0000
0001
1000
0000
2002
0000
3003
0000
,
0000
0000
0000
0001
0000
0001
0100
0000
0100
0010
0000
0010
,
1000
0000
1000
0100
0000
0010
0000
0001
0000
0100
0000
0010
,
0000
1000
0000
0001
0000
0100
0020
0000
0000
0000
0000
0000
,
0000
0000
0000
0000
0030
0000
0000
0000
0000
0000
0000
0000
0010
0000
0000
0000
0000
0000
0000
0000
0000
1000
0000
0000
0000
0000
0000
0000
0000
0000
0001
0000
0000
0000
0000
0000
0200
0000
0000
0000
0000
0000
0000
0000
0000
0000
0000
0000
,
0300
0000
0000
0000
0001
0000
0000
0100
0000
0000
0001
0000
2000
0000
0000
0000
,
3000
0000
0000
0000
0010
0000
0000
1000
0000
0000
0010
0000
0100
0000
0000
0001
,
0000
0000
1000
0000
0001
0000
0000
0001
0000
0000
0100
0000
0001
0000
0000
1000
,
0000
0000
0010
0000
1000
0000
0000
0001
0000
0000
0100
0000
0020
0000
0000
0000
,
0030
0000
1000
0010
2000
0000
0000
0000
3000
0000
0001
0100
0002
0000
0000
0000
,
0003
0000
1000
0001
2000
0000
0000
0000
3000
0000
0000
0000
0011
0000
0000
0000
,
0101
0000
0000
1010
0000
0000
0101
0000
0000
1000
0000
0010
,
0100
0000
0100
0020
0000
0000
0030
0000
0000
1000
0000
0000
,
0001
0000
0010
0001
0000
0000
0100
0000
0010
1000
0000
0000
,
0001
0000
1000
0100
0000
0100
1000
0000
0000
0010
0000
0000
,
0100
0000
0001
0100
0000
0000
0001
0000
1000
0001
0000
0000
,
0001
0000
0100
0001
0000
0001
0100
0000
0000
0010
0000
0000
,
1000
0000
0010
1000
0000
0000
0001
0000
0010
0001
0000
0000
,
0100
0000
0010
1000
0000
0100
0010
0000
0000
0011
0000
0000
,
0101
0000
0000
1010
0000
0000
1100
0000
0000
0110
0000
0001
,
1000
0000
1000
0020
0000
0000
0030
0000
0000
0200
0000
0000
,
0302
0000
0000
0000
0000
0000
0023
0000
0000
0000
0000
0000
0000
0000
0000
0030
0100
0000
0001
0000
0000
0000
0001
0000
,
1000
0000
1000
0010
0000
0000
1001
0000
0000
0002
0000
0000
,
0203
0000
0000
0000
0000
0000
0320
0000
0000
0000
0000
0000
0000
0000
0000
0030
0100
0000
0001
0000
0000
0000
0001
0000
,
1000
0000
1000
0020
0000
0000
0030
0000
0000
2000
0000
0000
,
3002
0000
0000
0000
0000
0000
0203
0000
0000
0000
0000
0000
0000
0000
0000
0300
0001
0000
1000
0000
0000
0000
1000
0000
,
0001
0000
0001
0010
0000
0000
0010
0000
0000
0011
0000
0000
,
0101
0000
0000
1010
0000
0000
0011
0000
0000
0010
0000
0010
,
0100
0000
0000
0000
0000
0000
0000
0000
0100
0000
0000
0000
0020
0000
0000
0000
0000
0000
0000
0000
0000
0000
0000
0000
0030
0000
0000
0000
0000
0000
0000
0000
0000
0000
0000
0000
0001
0000
0000
0000
0000
0000
0000
0000
0000
1000
0000
0000
,
0000
0000
0010
0000
1000
0000
0001
0000
0100
0000
0000
0000
0010
0000
0000
1000
,
0000
0000
0001
0000
0010
0000
0001
0000
1000
0000
0000
0000
0010
0000
0000
0100
,
0000
0001
1000
0100
1000
0001
0200
0000
,
0300
0010
1000
0001
0010
0100
1000
MMMM
,
0000
0010
0100
0001
1000
0010
0100
MMMM
,
0000
0001
0010
0001
0100
0010
1000
MMMM
,
0000
0001
1000
0010
1000
0001
0010
0000
,
0000
0100
0000
1001
,
0110
0000
0000
1001
0000
0000
0110
0000
0000
0010
0000
0010
,
0100
0000
0100
0020
0000
0000
0030
0000
0000
1000
0000
0010
,
1000
0000
1000
0001
0000
0001
0100
0000
0100
0001
0000
0001
,
1000
0000
1000
0010
0000
0010
1000
0000
1000
0001
0000
0001
,
0010
0000
0010
0001
0000
0001
0100
0000
0100
0010
0000
0010
,
1000
0000
1000
0001
0000
0001
0100
0000
0100
0001
0000
0001
,
0010
0000
0010
0001
0000
0001
1000
0000
1000
0010
0000
0010
,
1000
0000
1000
0100
0000
0100
0010
0000
0010
0001
0000
0000
,
1001
0000
0000
1000
0000
0000
1001
0000
0000
0001
0000
1000
,
0001
0000
0001
0200
0000
0000
0300
0000
0000
0020
0000
0000
,
2030
0000
0000
0000
0000
0000
3200
0000
0000
0000
0000
0000
0000
0000
0000
0300
0010
0000
0001
0000
0000
0000
0001
0000
,
0100
0000
0100
0010
0000
0000
1010
0000
0000
2000
0000
0000
,
3002
0000
0000
0000
0000
0000
0203
0000
0000
0000
0000
0000
0000
0000
0000
0300
0010
0000
0100
0000
0000
0000
0100
0000
,
0001
0000
0001
2000
0000
0000
3000
0000
0000
0002
0000
0000
,
0203
0000
0000
0000
0000
0000
0320
0000
0000
0000
0000
0000
0000
0000
0000
0030
0100
0000
0001
0000
0000
0000
0001
0000
,
1000
0000
1000
0010
0000
0000
0010
0000
0000
1010
0000
0000
,
1100
0000
0000
0011
0000
0000
1010
0000
0000
0010
0000
0100
,
0010
0000
0010
0200
0000
0000
0300
0000
0000
000M
0000
0000
,
M000
0000
0000
00M0
0000
0000
0M00
0000
0000
000M
0000
M000
,
000M
0000
000M
M000
0000
MMMM
0000
MMMM
0000
MMMM
0000
0000
;

//--------------- dance-single - Alex ----------------
#NOTES:
     dance-single:
     Alex:
     Challenge:
     10:
     0.718454,0.785809,0.989569,0.765899,0.89129,742,596,146,113,42,51,0.718454,0.785809,0.989569,0.765899,0.89129,742,596,146,113,42,51:
0000
0000
0000
0000
,
0000
0000
0000
0000
,
0000
0000
0000
0000
,
0000
0000
0000
0000
,
0000
0000
0000
2000
,
3002
0023
2030
3200
,
0320
2030
3200
0312
,
2013
0000
0000
0000
0000
0000
3210
0000
0000
0000
0000
0000
1320
0000
0000
0000
0000
0000
0132
0000
0000
0003
1000
0000
,
1010
0000
0100
2002
0000
0000
3003
0000
0000
0001
0000
0000
,
1000
0000
0010
0101
0000
0000
1000
0000
0100
0011
0000
0000
,
0001
0000
1000
0011
0000
0100
1001
0000
0000
0010
0000
0000
,
1000
0000
0001
0110
0000
0000
1000
0000
0001
1010
0000
0000
,
0100
0000
0010
0101
0000
1000
0011
0000
0000
0100
0000
0000
,
0001
0000
1000
0101
0000
0000
0001
0000
0010
0101
0000
0000
,
0010
0000
1000
0110
0000
0001
1010
0000
0000
0102
0000
0000
,
2013
0000
0000
0000
0000
0000
3120
0000
0000
0000
0000
0000
1032
0000
0000
0000
0000
0000
2013
0000
0000
3000
0010
0000
,
1010
0000
1000
2002
0000
0000
3003
0000
0000
0102
0000
0000
,
2013
0000
0000
0000
0000
0000
3120
0000
0000
0000
0000
0000
0000
0000
0000
0030
0100
0000
0011
0000
0000
0000
0010
0000
,
1100
0000
0100
1001
0000
0000
0110
0000
0000
2010
0000
0000
,
3102
0000
0000
0000
0000
0000
0123
0000
0000
0000
0000
0000
0000
0000
0000
0030
0100
0000
0011
0000
0000
0000
0001
0000
,
1010
0000
0000
0000
1000
0000
0202
0000
0000
0000
0000
0000
0000
0000
0000
0303
0000
0000
2010
0000
0000
0000
0000
0000
,
3102
0000
0000
0000
0000
0000
2013
0000
0000
0000
0000
0000
0000
0000
0000
3000
0001
0000
0110
0000
0000
0000
1000
0000
,
1100
0000
0001
0011
0000
0000
1001
0000
0000
0201
0000
0000
,
0312
0000
0000
0000
0000
0000
2013
0000
0000
0000
0000
0000
3120
0000
0000
0000
0000
0000
2031
0000
0000
3000
0001
0000
,
1001
0000
1000
2002
0000
0000
3003
0000
0000
0001
1000
0010
,
1000
0001
0100
0001
1000
0100
0010
0100
1000
0001
0100
0010
,
0100
0001
0010
0100
1000
0001
0010
0001
1000
0010
1000
0001
,
0100
0001
0010
0001
0100
0001
1000
0010
0100
0001
1000
0100
,
0010
0001
0100
0010
1000
0010
0100
0001
0010
0100
1000
0010
,
1000
0001
0100
0001
0010
0001
1000
0001
0100
0010
1000
0001
,
0010
0100
0010
0001
0100
0010
1000
0100
0010
0002
1003
0010
,
1000
0001
0100
0002
0103
0010
1000
0100
0010
0002
0003
0100
,
0010
1000
0001
0020
0031
1000
0010
1000
0001
0100
0010
0100
,
0001
0010
0001
0100
0001
1000
0010
1000
0010
0100
0010
1000
,
0100
0010
0001
1000
0010
1000
0001
0100
0001
0010
0100
0010
,
0001
1000
0010
0100
0001
1000
0100
1000
0001
0100
0001
0010
,
0100
0010
0001
1000
0010
0100
0001
0010
0100
1000
0001
0100
,
0010
1000
0010
0100
0001
1000
0100
0010
0001
0100
0010
1000
,
0001
0010
0001
0100
0001
1000
0010
1000
0001
1000
0100
0010
,
0001
1000
0010
0100
0001
0010
0100
1000
0001
0100
0010
1000
,
0010
0000
0000
0000
0100
0000
0000
0000
0001
0000
0000
0000
0010
0000
0000
0000
0000
0000
0000
0000
0000
0001
0000
0000
0000
0000
0000
0000
0000
0000
0100
0000
0000
0000
0000
0000
0020
0000
0000
0000
0000
0000
0000
0000
0000
0000
0000
0000
,
0030
0000
0000
0000
1000
0000
0000
0100
0000
0000
0001
0000
0200
0000
0000
0000
,
0300
0000
0000
0000
1000
0000
0000
0010
0000
0000
0001
0000
0010
0000
0000
1000
,
0000
0000
0001
0000
0100
0000
0000
1000
0000
0000
0100
0000
0010
0000
0000
1000
,
0000
0000
0001
0000
0010
0000
0000
0010
0000
0000
0001
0000
0100
0000
0010
0000
,
1000
0000
0001
0100
0010
0000
1000
0000
0001
0000
0010
0100
1000
0000
0001
0000
,
0100
0000
0010
0100
0001
0000
1000
0000
0100
0000
0010
0000
0012
0000
0000
0000
,
2013
0000
0000
0000
0000
0000
3102
0000
0000
0000
0000
0000
0123
0000
0000
0000
0000
0000
2031
0000
0000
3000
0010
0000
,
0101
0000
1000
0220
0000
0000
0330
0000
0000
1000
0000
0000
,
0010
0000
0100
0101
0000
0000
0001
0000
1000
1001
0000
0000
,
0001
0000
0010
0101
0000
0010
1100
0000
0000
0011
0000
0000
,
0001
0000
1000
1010
0000
0000
0100
0000
0010
1001
0000
0000
,
0100
0000
0001
0110
0000
1000
0110
0000
0000
1001
0000
0000
,
0001
0000
1000
1010
0000
0000
0001
0000
0100
0011
0000
0000
,
0100
0000
1000
1100
0000
0001
1010
0000
0000
0210
0000
0000
,
0321
0000
0000
0000
0000
0000
2130
0000
0000
0000
0000
0000
3102
0000
0000
0000
0000
0000
0213
0000
0000
0300
0010
0000
,
1010
0000
0100
0202
0000
0000
0303
0000
0000
2001
0000
0000
,
3012
0000
0000
0000
0000
0000
0213
0000
0000
0000
0000
0000
0000
0000
0000
0300
0010
0000
0011
0000
0000
0000
0001
0000
,
0101
0000
1000
1010
0000
0000
0101
0000
0000
1020
0000
0000
,
0132
0000
0000
0000
0000
0000
0213
0000
0000
0000
0000
0000
0000
0000
0000
0300
0010
0000
1010
0000
0000
0000
0100
0000
,
0011
0000
0000
0000
0100
0000
2020
0000
0000
0000
0000
0000
0000
0000
0000
3030
0000
0000
1002
0000
0000
0000
0000
0000
,
2013
0000
0000
0000
0000
0000
3210
0000
0000
0000
0000
0000
0000
0000
0000
0300
0001
0000
1010
0000
0000
0000
1000
0000
,
0011
0000
0100
0110
0000
0000
1001
0000
0000
1002
0000
0000
,
2013
0000
0000
0000
0000
0000
3210
0000
0000
0000
0000
0000
1302
0000
0000
0000
0000
0000
0213
0000
0000
0300
0010
0000
,
0101
0000
0000
0000
0000
0000
0000
0000
0010
0000
0000
0000
2020
0000
0000
0000
0000
0000
0000
0000
0000
0000
0000
0000
3030
0000
0000
0000
0000
0000
0000
0000
0000
0000
0000
0000
1000
0000
0000
0000
0000
0000
0000
0000
0000
0001
0000
0000
,
0000
0000
0100
0000
0001
0000
1000
0000
0010
1000
0000
1000
0010
0000
0000
0100
,
0000
0000
0001
0000
0010
0000
0100
0000
0010
0001
0000
0001
0100
0000
0000
0010
,
0000
0000
1000
0000
0001
0000
1000
0000
0100
1000
0000
1000
0200
0000
0000
0000
,
0300
1000
0010
1000
0001
0100
0110
MMMM
,
0000
0001
0010
0100
1000
0001
1001
MMMM
,
0000
1000
0010
1000
0001
0100
0110
MMMM
,
0000
0010
0100
0001
0010
0001
0022
0000
,
0000
0000
0000
0000
0000
0033
0012
0000
,
2103
0000
0000
0000
0000
0000
3102
0000
0000
0000
0000
0000
0123
0000
0000
0000
0000
0000
0132
0000
0000
0003
0100
0000
,
0110
0000
0100
2002
0000
0000
3003
0000
0000
0001
1000
0010
,
0100
0001
0010
0100
1000
0001
0100
0010
0100
0001
0010
0001
,
1000
0010
0100
0001
0010
0100
0010
0001
1000
0010
0100
0001
,
1000
0001
0100
0001
1000
0010
1000
0001
0010
0001
1000
0100
,
0010
0001
1000
0010
0100
0001
0010
0100
0010
0001
1000
0010
,
0100
0010
1000
0001
1000
0100
1000
0001
0100
0001
0010
0001
,
1000
0010
1000
0001
0100
0010
1000
0001
0010
0200
0000
0000
,
2300
0000
0000
3020
0000
0000
0032
0000
0000
0203
0000
0310
,
0002
0000
1003
0020
0000
0000
0030
0000
0000
0012
0000
0000
,
2013
0000
0000
0000
0000
0000
3210
0000
0000
0000
0000
0000
0000
0000
0000
0300
0010
0000
0101
0000
0000
0000
0010
0000
,
1100
0000
0100
0011
0000
0000
1001
0000
0000
2010
0000
0000
,
3012
0000
0000
0000
0000
0000
0213
0000
0000
0000
0000
0000
0000
0000
0000
0300
0010
0000
1010
0000
0000
0000
0001
0000
,
0101
0000
1000
2200
0000
0000
3300
0000
0000
0210
0000
0000
,
2310
0000
0000
0000
0000
0000
3012
0000
0000
0000
0000
0000
0000
0000
0000
0003
0100
0000
0011
0000
0000
0000
0100
0000
,
1010
0000
0100
1001
0000
0000
0101
0000
0000
1020
0000
0000
,
2130
0000
0000
0000
0000
0000
3102
0000
0000
0000
0000
0000
0213
0000
0000
0000
0000
0000
0312
0000
0000
0003
1000
0000
,
1010
0000
0001
0202
0000
0000
0303
0000
0000
00MM
0000
0000
,
0M0M
0000
0000
0MM0
0000
0000
M0M0
0000
0000
MM00
0000
00MM
,
0M0M
0000
M0M0
M00M
0000
MMMM
0000
MMMM
0000
MMMM
0000
0000
;
