#TITLE:Love Me Like This;
#SUBTITLE:;
#ARTIST:Nmixx;
#TITLETRANSLIT:;
#SUBTITLETRANSLIT:;
#ARTISTTRANSLIT:;
#GENRE:;
#CREDIT:;
#MUSIC:Love Me Like This.ogg;
#BANNER:Love Me Like This.png;
#BACKGROUND:Love Me Like This-BG.png;
#CDTITLE:;
#SAMPLESTART:45.614;
#SAMPLELENGTH:24.330;
#SELECTABLE:YES;
#OFFSET:0.232;
#BPMS:0.000=97.000;
#STOPS:;
#BGCHANGES:1.500=Love Me Like This.avi=1.000=1=0=0=StretchNoLoop==CrossFade==,
99999.000=-nosongbg-=1.000=0=0=0=StretchNoLoop====
;
#FGCHANGES:;

//--------------- dance-single - Alex ----------------
#NOTES:
     dance-single:
     Alex:
     Beginner:
     1:
     0.0761,0.11931,0.109459,0.029189,0,73,58,15,4,0,0,0.0761,0.11931,0.109459,0.029189,0,73,58,15,4,0,0:
0000
0000
0000
0000
,
0000
0000
0000
0000
,
0000
0000
0001
0000
,
0000
0000
1000
0000
,
0000
0000
1000
0000
,
0000
0000
0010
0000
,
0000
0000
0100
0000
,
0000
0000
0100
0000
,
0000
0000
0001
0000
,
0000
0000
0010
0000
,
0000
0000
0001
0000
,
0001
0000
0002
0000
,
0003
0000
1000
0000
,
1000
0000
2000
0000
,
3000
0000
1001
0000
,
0000
0000
0110
0000
,
0000
0000
1001
0000
,
0000
0000
0110
0000
,
0000
0000
0010
0000
,
0000
0000
1000
0000
,
0000
0000
0001
0000
,
0000
0000
1000
0000
,
0000
0000
1001
0000
,
0000
0000
0100
0000
,
0000
0000
0010
0000
,
0000
0000
0010
0000
,
0000
0000
1000
0000
,
0000
0000
0001
0000
,
0000
0000
0100
0000
,
0000
0000
0010
0000
,
0000
0000
1001
0000
,
0000
0000
0110
0000
,
0000
0000
1001
0000
,
0000
0000
0220
0000
,
0330
0000
0010
0000
,
0010
0000
0010
0000
,
0000
0000
1000
0000
,
1000
0000
1000
0000
,
0000
0000
1001
0000
,
0000
0000
0110
0000
,
0000
0000
1001
0000
,
0000
0000
0110
0000
,
0000
0000
1000
0000
,
0000
0000
0001
0000
,
0000
0000
1000
0000
,
0000
0000
1001
0000
,
0000
0000
0100
0000
,
0000
0000
0010
0000
,
0000
0000
1000
0000
,
0000
0000
0001
0000
,
1000
0000
0001
0000
,
0000
0000
1000
0000
,
0000
0000
0001
0000
,
0000
0000
0100
0000
,
0000
0000
0110
0000
;

//--------------- dance-single - Alex ----------------
#NOTES:
     dance-single:
     Alex:
     Easy:
     2:
     0.149072,0.19885,0.13135,0.021892,0,143,125,18,3,0,0,0.149072,0.19885,0.13135,0.021892,0,143,125,18,3,0,0:
0000
0000
0000
0000
,
0000
0000
0000
0000
,
0000
0000
0001
0000
,
1000
0000
0001
0000
,
1000
0000
0010
0000
,
0100
0000
0010
0000
,
0100
0000
0001
0000
,
0010
0000
0100
0000
,
1000
0000
0001
0000
,
0001
0000
1000
0000
,
1000
0000
0001
0001
,
1000
1000
0001
0001
,
1000
0000
0010
0000
,
0100
0000
0010
0010
,
0010
0010
0110
0000
,
1001
0000
0110
0000
,
0100
0100
0110
0000
,
1001
0000
0110
0000
,
0010
0010
1001
0000
,
0001
0000
1001
0000
,
1000
0000
1010
0000
,
0010
0000
0100
0100
,
0100
0000
0010
0000
,
1000
0000
0001
0000
,
1000
0000
0100
0000
,
0010
0000
0001
0100
,
0001
0000
1000
0000
,
0010
0000
1000
0000
,
0001
0000
0100
0000
,
0010
0000
1000
0001
,
1000
0000
0020
0030
,
0100
0100
0002
0003
,
1000
1000
0020
0030
,
0010
0010
0110
0000
,
1001
0000
0001
1000
,
0001
0000
1000
0001
,
1000
0000
0010
0000
,
0100
0000
0010
0000
,
1000
0000
1001
0000
,
0100
0000
0110
0000
,
0010
0000
1010
0000
,
1000
0000
1001
0000
,
1001
0000
0001
0001
,
0001
0000
1000
1000
,
1000
0000
0010
0010
,
0010
0000
0100
0000
,
0110
0000
0010
0000
,
1000
0000
0001
0000
,
1000
0000
0100
0000
,
1000
0000
0010
0000
,
0100
0100
0001
0000
,
0010
0000
0100
0000
,
1000
0000
0001
0000
,
1000
0000
0010
0000
,
0100
0100
1001
0000
;

//--------------- dance-single - Alex ----------------
#NOTES:
     dance-single:
     Alex:
     Medium:
     4:
     0.222045,0.240809,0.160539,0.043783,0,213,191,22,6,0,0,0.222045,0.240809,0.160539,0.043783,0,213,191,22,6,0,0:
0000
0000
0000
0000
,
0000
0000
0000
0000
,
0000
0000
0001
1000
,
0001
0000
1000
0010
,
1000
0000
0110
0000
,
1001
0000
0011
0000
,
0101
0000
0100
0010
,
0100
0000
0001
1000
,
0001
0000
1001
0000
,
0110
0000
0011
0000
,
1100
0000
1000
0010
,
0100
0001
1000
0100
,
0020
0030
0001
0100
,
0001
1000
1001
0110
,
1001
0000
0000
0001
0100
0000
0000
0010
,
1000
0000
0000
0100
0010
0000
0000
0001
,
1000
0001
1000
0001
1000
0000
0000
0010
,
0100
0000
0000
0001
0010
0000
0000
0001
,
1000
1001
0001
1000
,
0020
0030
0100
0001
,
2000
3000
0100
1000
,
0020
0030
0100
0001
,
1000
1001
0001
0100
,
0001
0001
1000
0100
,
1000
1000
0010
0100
,
0010
0010
1000
0001
,
0010
0011
0001
0100
,
0010
1000
1000
0100
,
1000
0010
0100
0001
,
1000
0100
0100
1000
,
0010
0100
1001
0000
,
0001
1000
0001
1000
0001
0000
0000
0000
,
1000
0010
1000
0010
1000
0000
0000
0000
,
0001
0100
0001
0100
0002
0000
0000
0003
,
0000
0000
1000
0010
,
1010
0000
0001
0100
,
0101
0000
0100
0100
,
0110
0000
0010
0100
,
0101
0000
0000
0001
1000
0000
0000
0100
,
1000
0000
0000
0010
0100
0000
0000
0001
,
0010
0001
0010
0001
0010
0000
0000
0001
,
1000
0000
0000
0100
1000
0000
0000
0010
,
0100
0110
0010
0010
,
1000
0000
0001
1000
,
1000
0000
0100
0010
,
0001
0000
0100
0010
,
0100
1001
0001
0001
,
1000
1000
0100
0100
,
0010
0010
0001
0100
,
0010
1000
0001
0010
,
0001
0101
0100
0100
,
0010
1000
0100
0100
,
1000
1000
0010
0100
,
0001
1000
0100
1000
,
0010
0100
0020
0000
,
0030
0000
0000
0000
;

//--------------- dance-single - Alex ----------------
#NOTES:
     dance-single:
     Alex:
     Hard:
     7:
     0.331503,0.401349,0.124053,0.197026,0.043783,318,301,17,27,0,0,0.331503,0.401349,0.124053,0.197026,0.043783,318,301,17,27,0,0:
0000
0000
0000
0000
,
0000
0000
0000
0000
,
0000
0000
0000
0000
0001
0100
0010
0100
,
0001
0000
1000
0000
0100
0010
0001
1000
,
0010
0100
1002
1000
,
1000
0000
1003
1000
1020
0000
0100
0000
,
0100
0000
0100
0100
0130
0001
1000
0010
,
0100
0001
1000
0000
0100
0010
0001
0100
,
0010
1000
0001
0000
0012
0000
0100
0000
,
0010
0000
0100
0103
0210
0000
0010
0000
,
0010
0000
0010
0010
0310
1000
0001
0100
,
0001
1000
0100
0010
0001
0100
0010
1000
,
0002
0000
0003
0100
0001
0100
0010
1000
,
0100
0010
0100
1000
1001
0000
0101
0000
,
0011
0001
0101
0100
0120
0000
0030
1000
,
0002
0000
0003
0100
0020
0000
0030
1000
,
0100
1000
0010
0100
0002
0000
0003
0010
,
0200
0000
0300
1000
0002
0000
0003
1000
,
0010
0000
0000
0000
1010
0000
0000
0000
0000
0000
0010
0000
0000
0100
0000
0000
,
0001
0000
0000
0010
0000
0000
0100
0000
0000
0000
1000
0000
0000
0010
0000
0000
,
0100
0000
0000
0001
0000
0000
1000
0000
0000
0000
0001
0000
0000
0100
0000
0000
,
0100
0000
0000
0020
0000
0000
0030
0000
1000
0000
0001
0000
0010
0000
0001
0000
,
0100
0010
2000
3000
0001
0100
0001
0000
,
1000
0010
1000
0000
0001
0010
0100
1000
,
0010
0100
0001
0000
1000
0100
1000
0000
,
0010
0100
0010
0000
0100
0001
0010
0100
,
1000
0000
1001
0000
0001
1000
0001
0000
,
1000
0010
1000
0000
0010
0100
0001
0100
,
0010
1000
0100
0000
0010
0001
0100
0000
,
0010
1000
0100
0000
0010
0001
0100
0010
,
1000
1001
0020
0030
,
0100
0001
0010
0100
2000
0000
3000
0000
,
0001
1000
0010
1000
0002
0000
0003
0000
,
0100
0001
0010
0100
1000
0000
0010
0000
,
1010
0000
1001
0000
0001
0100
0001
0010
,
0100
2000
0000
3010
0100
0001
1000
0100
,
0010
0002
0000
0103
0100
0010
1000
0001
,
0020
0000
0030
0001
0100
0010
1000
0100
,
0020
0030
0001
0100
0020
0000
0030
1000
,
0002
0000
0003
0100
0020
0000
0030
1000
,
0100
1000
0010
0100
0002
0000
0003
0010
,
0200
0000
0300
1000
0002
0000
0003
0100
,
0010
0000
0000
0000
0110
0000
0000
0000
0000
0000
0010
0000
0000
0100
0000
0000
,
0001
0000
0000
1000
0000
0000
0100
0000
0000
0000
0010
0000
0000
0001
0000
0000
,
1000
0000
0000
0010
0000
0000
0100
0000
0000
0000
0001
0000
0000
0001
0000
0000
,
1000
0000
0000
1000
0000
0000
0000
0000
1000
0000
0010
0000
0100
0000
0001
0000
,
1000
0010
0110
0000
0010
0100
0010
0000
,
1000
0001
1000
0000
0001
0010
0001
0100
,
0001
0010
0001
0000
0100
0100
0010
0000
,
1000
1000
0100
0000
1000
0010
1000
0001
,
0010
0000
0110
0000
0010
0100
1000
0000
,
0001
0100
0001
0000
1000
0100
1000
1000
,
0001
0001
0100
0000
0010
1000
0100
0000
,
0010
0001
0100
0000
0010
1000
0100
0010
,
0001
0100
0010
1000
0002
0000
0000
0000
,
0003
0000
0000
0000
;

//--------------- dance-single - Alex ----------------
#NOTES:
     dance-single:
     Alex:
     Challenge:
     9:
     0.572313,0.583939,0.124053,0.510807,0.60932,549,532,17,70,0,2,0.572313,0.583939,0.124053,0.510807,0.60932,549,532,17,70,0,2:
0000
0000
0000
0000
0000
0000
0000
0010
0000
0100
0001
0000
1001
0000
0000
0010
,
0000
0100
0001
0000
1001
0000
0000
0010
0000
0100
0001
0000
1001
0000
0001
1000
,
0100
1000
0001
0010
0001
0000
0001
0100
0010
0000
1000
0000
0100
0000
0010
0000
,
0001
0100
0000
0100
0000
0010
1000
0100
1000
0000
0010
0000
0100
0000
0001
0000
,
0010
0001
0000
0100
0000
0010
1000
0100
0010
0000
0001
0000
0101
0000
0100
0000
,
0010
1000
1001
0001
0010
0100
0110
0010
,
0001
0000
0100
0000
0110
0000
0010
1000
0100
0000
1000
0000
0010
0000
0100
0000
,
0001
1000
0000
0010
0000
0100
0001
0100
0010
0000
1000
0000
0100
0000
0010
0000
,
0001
0100
0000
0100
0000
0001
0010
0100
1000
0000
0001
0000
1001
0000
1000
0000
,
0010
0100
0101
0001
0001
0010
0011
0001
,
1000
0000
0100
0000
1100
0000
0100
0000
1000
0010
1000
0010
0100
0001
0100
0001
,
0010
0100
0010
0100
0010
0001
0100
0010
1000
0100
0010
0001
0100
0010
1000
0200
,
0000
0000
0000
0000
0000
0300
1000
0010
1000
0010
0100
0001
0010
0000
0100
1000
,
0010
0100
0001
0010
0001
0000
0100
0010
1000
0200
0000
0300
0010
0002
0000
0003
,
0100
0010
1000
0001
0010
0001
1000
0010
0200
0000
0300
0000
0020
0000
2030
0000
,
3002
0000
0023
0230
2300
0000
3020
0230
,
0302
0023
0032
0203
0320
0000
2030
3200
,
2300
0000
3020
0230
0302
0000
2003
3200
,
0320
0000
0000
0000
1031
0000
0000
0000
0001
0000
0001
0100
0000
0100
0010
0000
,
0010
1000
0000
1000
0100
0000
0010
0000
0001
0000
1000
0001
0000
0001
1000
0000
,
1000
0010
0000
0010
0100
0000
0001
0000
0010
0000
0100
0010
0000
0010
0001
0000
,
0001
0100
0000
0100
0010
0000
1000
0000
0002
0000
0023
0000
0230
0000
2300
0000
,
3020
0000
0230
0000
0302
0000
1003
0100
1000
0010
0100
0000
0001
0000
1000
0100
,
0000
0100
1000
0000
0010
0000
0100
0001
0100
0010
0100
0000
0001
0000
0001
0010
,
0000
0010
0001
0000
0100
0000
0010
1000
0001
0010
0001
0000
0100
0000
0001
0010
,
0000
0010
0100
0000
1000
0000
0010
0100
0001
1000
0100
0000
0010
0000
0001
0100
,
0010
0100
0001
0010
0200
0000
0000
0000
1300
0010
1000
0000
0010
0000
0100
0001
,
0000
0001
1000
0000
0010
0000
0001
0100
0010
0100
0001
0000
0001
0000
1000
0100
,
0000
0100
1000
0000
1000
0000
0010
0100
0001
1000
0100
0000
0010
0000
0001
0100
,
0000
0100
0010
0000
1000
0000
0001
0010
0001
0100
0010
0000
0100
0000
0001
0010
,
0100
1000
0001
0100
0010
0000
1000
0000
2200
0000
0000
0000
3300
0000
0000
0000
,
0001
0010
0001
0100
0010
0100
0001
0010
0200
0000
0000
0000
0300
0000
0000
0000
,
1000
0010
0100
0010
1000
0100
0010
0001
0200
0000
0000
0000
0300
0000
0000
0000
,
0010
1000
0001
0010
0001
0100
0010
0100
0001
0000
1000
0000
0100
0000
0010
0000
,
0001
0000
1001
0000
1001
0000
0001
0100
0001
0000
0010
0000
0100
0000
1000
0010
,
0100
0000
0001
0000
1000
0000
0100
0010
0001
0000
0100
0000
0010
0000
1000
0010
,
0100
0000
0001
0000
1000
0000
0100
0000
0010
0000
0001
0000
0100
0000
0010
0100
,
0000
0100
0001
0000
0010
0000
0100
1000
0001
0000
0100
0000
0010
0000
1000
0100
,
0000
0100
1000
0000
0010
0000
0100
0001
0020
0000
0000
0000
0230
0000
2300
0000
,
3002
0000
2003
3020
0230
0000
0302
0023
,
0032
0203
0320
2030
3200
0000
2300
3020
,
0032
0000
0023
2030
3200
0000
0320
0032
,
0203
0000
0000
0000
1310
0000
0000
0000
0010
0000
0010
1000
0000
1000
0001
0000
,
0001
0100
0000
0100
0010
0000
1000
0000
0100
0000
0010
0001
0000
0001
0100
0000
,
0100
0010
0000
0010
1000
0000
0001
0000
1000
0000
0001
0100
0000
0100
0001
0000
,
0010
0100
0000
0100
1000
0000
0010
0000
0200
0000
0302
0000
2003
0000
3200
0000
,
0320
0000
0032
0000
0203
0000
0310
1000
0001
0010
0001
0000
0100
0000
0010
0100
,
0000
0100
0001
0000
0010
0000
0100
1000
0001
1000
0001
0000
0100
0000
0010
0100
,
0000
0100
0001
0000
0010
0000
0100
1000
0100
1000
0100
0000
1000
0000
0010
1000
,
0000
1000
0001
0000
0100
0000
0010
0100
0001
0100
0010
0000
1000
0000
0100
0010
,
0001
0100
0010
1000
0200
0000
0000
0000
1300
0010
1000
0000
0001
0000
0001
0100
,
0000
0100
0001
0000
0010
0000
0100
1000
0001
0100
0010
0000
0100
0000
0001
1000
,
0000
1000
0100
0000
0010
0000
0010
0001
0100
0010
0100
0000
0001
0000
0001
0010
,
0000
0010
0001
0000
0001
0000
0100
0010
1000
0100
0010
0000
0001
0000
0001
0100
,
0010
0100
0001
0010
0100
0000
1001
0000
0001
0100
0010
0100
0001
1000
0200
0000
,
0000
0000
0000
0300
0000
0000
0000
0000
0000
0000
0000
0000
0000
0000
0000
0000
;
