#TITLE:Like Jennie;
#SUBTITLE:;
#ARTIST:Jennie;
#TITLETRANSLIT:;
#SUBTITLETRANSLIT:;
#ARTISTTRANSLIT:;
#GENRE:;
#CREDIT:;
#MUSIC:Like Jennie.ogg;
#BANNER:Like Jennie.png;
#BACKGROUND:Like Jennie-BG.png;
#CDTITLE:;
#SAMPLESTART:26.760;
#SAMPLELENGTH:13.769;
#SELECTABLE:YES;
#OFFSET:-0.106;
#BPMS:0.000=130.000
,54.000=65.000
,56.000=130.000
;
#STOPS:;
#BGCHANGES:;
#FGCHANGES:;

//--------------- dance-single - Alex ----------------
#NOTES:
     dance-single:
     Alex:
     Beginner:
     1:
     0,0,0,0,0:
0000
0000
0000
0000
,
0000
0000
0000
0000
,
0000
0000
0000
0000
,
0000
0000
0000
0000
,
0000
0000
0000
0000
,
0000
0000
1001
0000
,
0000
0000
1000
0000
,
0000
0000
0001
0000
,
0000
0000
0010
0000
,
0000
0000
0100
0000
,
0000
0000
1000
0000
,
0000
0000
0010
0000
,
0000
0000
1000
0000
,
0000
0000
0000
0000
,
0010
0000
0000
0000
,
0100
0000
0000
0000
,
0001
0000
0000
0000
,
0001
0000
0000
0000
,
1001
0000
0000
0000
,
1000
0000
0000
0000
,
0001
0000
0000
0000
,
1000
0000
0000
0000
,
0010
0000
0010
0000
,
0010
0000
0000
0000
,
0100
0000
0100
0000
,
0100
0000
0000
0000
,
1001
0000
0000
0000
,
0010
0000
0000
0000
,
1000
0000
0000
0000
,
1000
0000
0000
0000
,
0110
0000
0000
0000
,
0001
0000
0000
0000
,
0001
0000
0000
0000
,
1000
0000
0000
0000
,
0010
0000
0000
0000
,
1000
0000
0000
0000
,
0001
0000
0000
0000
,
1000
0000
0000
0000
,
1001
0000
0000
0000
,
0001
0000
0000
0000
,
1000
0000
0000
0000
,
0010
0000
0000
0000
,
0100
0000
0000
0000
,
0001
0000
0000
0000
,
1000
0000
0000
0000
,
0010
0000
0000
0000
,
1001
0000
0000
0000
,
0001
0000
0000
0000
,
1000
0000
0000
0000
,
0100
0000
0000
0000
,
1000
0000
0000
0000
,
1000
0000
0000
0000
,
0001
0000
0000
0000
,
0001
0000
0000
0000
,
1000
0000
1000
0000
,
1000
0000
0000
0000
,
0010
0000
0010
0000
,
0010
0000
0000
0000
,
0110
0000
0000
0000
,
0001
0000
0000
0000
,
0001
0000
0000
0000
,
1000
0000
0000
0000
,
0010
0000
0000
0000
,
0010
0000
0000
0000
,
1000
0000
0000
0000
,
0001
0000
0000
0000
,
1001
0000
0000
0000
;

//--------------- dance-single - Alex ----------------
#NOTES:
     dance-single:
     Alex:
     Easy:
     3:
     0,0,0,0,0:
0000
0000
0000
0000
,
0000
0000
0000
0000
,
0000
0000
0000
0000
,
0000
0000
0000
0000
,
0000
0000
0000
0000
,
0000
0000
0010
0000
,
0010
0000
0100
0000
,
0100
0000
0001
0000
,
0001
0000
1000
0000
,
1000
0000
1001
0000
,
0010
0000
0100
0100
,
0100
0000
0001
0000
,
1000
0000
0001
0001
,
0001
1001
0000
0000
,
1000
0000
0001
1000
,
0001
0000
0100
0010
,
0100
0000
0001
1000
,
0001
0000
1001
0000
,
0010
0000
0010
0000
,
1000
0000
1000
0000
,
0001
0000
0001
0000
,
2002
0000
3003
0000
,
0001
0001
0001
0000
,
1000
0000
1000
0000
,
0010
0010
0010
0000
,
0100
0000
0100
0000
,
0001
1000
0001
0000
,
1000
0000
1000
0000
,
0010
1000
0010
0000
,
0100
0000
0100
0000
,
0010
0010
0010
0000
,
0100
0100
0100
0000
,
0001
0000
0001
0000
,
1000
0001
1000
0000
,
1001
0000
1001
0000
,
0010
0010
0100
0100
,
0001
0000
1000
0000
,
0001
0000
1000
0000
,
1001
0000
0010
0000
,
1000
0010
1000
0000
,
0001
0000
1000
0000
,
2002
0000
0000
3003
,
1001
0000
0010
0010
,
0100
0000
0001
0001
,
1000
0000
0100
0100
,
0100
0000
1001
0000
,
0010
0000
1000
0001
,
1000
0000
0001
0000
,
1000
0000
0010
0100
,
0010
0000
0100
0100
,
1001
0000
0001
1000
,
0001
0000
1000
0000
,
1000
0000
0010
1000
,
0010
0000
0100
0000
,
1001
0000
1001
0000
,
0110
0000
0110
0000
,
1000
0001
1000
0001
,
1000
0000
0001
1000
,
0010
0000
0010
0010
,
0010
0000
0100
0100
,
0100
0000
0010
0010
,
0010
0000
1000
0001
,
2000
0000
3000
0000
,
0002
0000
0003
0000
,
0200
0000
0300
0000
,
0020
0000
0000
0000
,
0030
0000
0000
0000
;

//--------------- dance-single - Alex ----------------
#NOTES:
     dance-single:
     Alex:
     Medium:
     5:
     0,0,0,0,0:
0000
0000
0000
0000
,
0000
0000
0000
0000
,
0000
0000
0000
0000
,
0000
0000
0000
0000
,
0000
0000
0000
0000
,
0000
0000
0001
1000
,
0010
0100
0001
1000
,
0100
1000
0100
0000
1000
0000
0010
0000
,
0100
0001
0010
0100
,
0010
0001
0010
0000
1001
0000
0001
0000
,
1000
0010
1000
0001
,
0100
0001
0100
0000
0001
0000
0010
0000
,
0100
0000
1000
0000
0010
1000
0010
1000
,
0010
0000
1001
0000
0000
1001
0000
1001
,
0010
0000
0100
0000
0001
0000
1000
0100
,
1000
0000
0001
0000
0100
0000
0010
0100
,
0010
0000
0100
0000
0001
0000
1000
0001
,
1000
0000
0001
0000
0100
0000
0010
0100
,
0020
0000
1000
1030
,
2000
0000
0001
3001
,
0002
0000
0100
0103
,
0020
0000
1000
1030
,
1001
0001
0100
0010
,
0100
0000
0001
0000
1000
0100
1000
0000
,
0001
0001
1000
1000
,
0010
0000
0100
0000
0001
1000
0001
0000
,
1001
0000
0001
0000
0100
0001
0100
0000
,
0010
0000
1000
0000
0010
1000
0010
0000
,
1000
0000
0100
0000
1000
0100
1000
0000
,
0001
0000
0100
0000
0010
0100
0010
0000
,
1000
0001
1000
1001
,
0001
1000
0010
1010
,
0010
0010
1000
0100
,
0100
1000
0001
0100
,
0110
0110
0110
0000
,
0001
1000
0001
1000
0001
1000
0001
0000
,
1000
0010
1000
1000
,
0001
0000
0100
0000
0010
0100
0010
0000
,
1001
0000
1001
0000
,
0001
1000
0001
0100
,
0110
0000
1001
0000
,
0001
1000
2002
3003
,
1001
0000
0001
0000
0100
0000
0010
0100
,
0010
0000
1000
0000
0001
0000
1000
0100
,
1000
0000
0001
0000
0100
0000
0010
0100
,
0010
0100
0001
1000
,
1100
0100
1000
1000
,
0010
1000
0001
0001
,
1000
0010
0100
0001
,
0010
0000
0100
0000
1000
0001
1000
0001
,
1000
0001
0100
0010
,
0100
0100
0200
0300
,
0010
0010
1000
0001
,
0010
0001
2000
3000
,
0001
0000
1000
0000
0001
1000
0001
0000
,
1000
0000
0001
0000
0100
0010
0100
0000
,
0001
0000
1000
0000
0100
1000
0100
0000
,
1000
0000
0001
0000
0010
0001
0010
0000
,
0011
0000
0001
1000
,
1001
0000
0000
0000
0010
0100
0010
0000
,
1001
0000
1000
0100
,
1100
0000
0000
0000
1000
0010
1000
0010
,
1000
1000
1000
1000
,
0001
0001
0001
0001
,
0100
0100
0100
0100
,
0010
0010
0010
0020
,
0030
0000
0000
0000
;

//--------------- dance-single - Alex ----------------
#NOTES:
     dance-single:
     Alex:
     Hard:
     9:
     0,0,0,0,0:
0000
0000
0000
0000
,
0000
0000
0000
0000
,
0000
0000
0000
0000
,
0000
0000
0000
0000
,
0000
0000
0000
0000
,
0000
0000
0000
0000
0001
1000
0010
1000
,
0001
0010
0100
1000
0001
0100
0010
1000
,
0200
0000
2300
0000
3010
0100
0001
0010
,
0100
0010
0001
0100
0010
1000
0100
1000
,
0020
0000
2030
0000
3001
0001
1000
1000
,
0010
0010
0100
0100
0001
0010
0100
0010
,
0002
0000
0203
0000
0310
1000
0100
0010
,
0002
0000
2003
0000
3010
1000
0001
0100
,
0010
0000
0000
0000
1000
0000
0000
0000
0200
0000
0000
0000
0000
0000
0300
0000
0000
0000
1000
0000
0001
0000
0000
0000
0001
0100
0001
0100
0001
0000
0000
0000
,
0002
0000
0000
0000
0000
0003
0010
0000
0100
0000
0000
0000
1000
0000
0000
0000
0010
0000
0000
0000
0100
0000
0000
0000
0001
0000
0000
0000
0001
0000
0000
0000
,
0200
0000
0000
0000
0000
0300
0010
0000
1000
0000
0000
0000
0001
0000
0000
0000
0010
0000
0000
0000
0001
0000
0000
0000
1000
0000
0000
0000
0010
0000
0000
0000
,
2000
0000
0000
0000
0000
3000
0001
0000
0100
0000
0000
0000
0001
0000
0000
0000
0010
0000
0000
0000
0100
0000
0000
0000
0010
0000
0000
0000
0001
0000
0000
0000
,
0200
0000
0000
0000
0000
0300
0010
0000
1000
0000
0000
0000
0001
0000
0000
0000
0100
0000
0000
0000
0010
0000
0000
0000
1000
0000
0000
0000
0001
0000
0000
0000
,
1002
0000
0000
0100
0000
0000
0103
0000
0010
1000
0010
1000
0010
1000
0010
0000
,
2100
0000
0000
0100
0000
0000
3100
0000
1000
0001
1000
0001
1000
0001
1000
0000
,
1002
0000
0000
0100
0000
0000
1003
0000
0010
1000
0010
1000
0010
1000
0010
0000
,
0120
0000
0000
0100
0000
0000
1030
0000
0001
0000
1000
0010
1000
0010
1000
0000
,
0002
0000
0000
0000
0000
0003
0100
0000
0010
0000
0000
0000
1000
0000
0000
0000
0100
0000
0000
0000
0001
0000
0000
0000
0100
0000
0000
0000
1000
0000
0000
0000
,
0020
0000
0000
0000
0000
0030
1000
0000
0001
0000
0000
0000
0010
0000
0000
0000
0001
0000
0000
0000
0100
0000
0000
0000
0001
0000
0000
0000
0010
0000
0000
0000
,
0200
0000
0000
0000
0000
0300
1000
0000
0001
0000
0000
0000
1000
0000
0000
0000
0010
0000
0000
0000
1000
0000
0000
0000
0001
0000
0000
0000
0100
0000
0000
0000
,
0002
0000
0000
0000
0000
0003
1000
0000
0010
0000
0000
0000
1000
0000
0000
0000
0001
0000
0000
0000
0100
0000
0000
0000
0001
0000
0000
0000
1000
0000
0000
0000
,
1010
0000
0000
0010
1000
0000
1000
0000
0001
0000
0100
0000
0010
0000
0000
0000
,
0110
0000
0000
0100
0001
0000
0010
0000
0001
0000
0001
0000
0100
0000
0000
0000
,
1010
0000
0000
1000
0010
0000
0010
0000
1000
0000
0001
0000
1000
0000
0000
0000
,
1001
0000
0000
0001
0100
0000
0001
0000
1000
0000
0010
0000
0200
0000
0300
0000
,
0010
1000
0000
0010
0000
1000
0010
0000
0100
0000
0001
0000
1000
0000
0000
0000
,
0001
1000
0000
0001
1000
0000
0001
0000
0100
0000
0001
0000
1000
0000
0000
0000
,
0010
0100
0000
0010
0000
0100
0010
0100
0010
0000
1000
0000
0001
0000
0100
0001
,
1000
0000
0010
0000
1000
0000
0001
1000
0010
0000
0100
0000
0001
0000
1000
0000
,
1001
0000
0000
0110
0000
0000
1000
0001
1000
0001
0000
0000
,
0001
1000
0001
1000
0001
1000
0010
0100
0010
0100
0000
0000
,
0010
0000
0100
0000
0001
0000
0010
0100
1000
0000
0001
0000
1000
0010
0000
0000
,
0100
0001
0100
0001
0100
0000
0010
0000
1000
0000
0001
0000
0010
0000
0100
0000
,
1000
0000
0000
0001
1000
0000
0010
0000
0100
0000
0000
0001
0100
0000
0010
0100
,
0010
0100
0001
0010
0100
1000
0001
1000
,
0010
0000
0000
0010
1000
0000
0001
0000
1000
0000
0000
0100
1000
0000
0001
0000
,
0100
0000
0010
0000
0010
0000
0100
0001
0100
0000
0001
0000
1000
0000
0010
0000
,
2000
0000
0000
0000
0000
3000
0001
0000
0100
0000
0000
0000
0001
0000
0000
0000
0010
0000
0000
0000
0001
0000
0000
0000
0100
0000
0000
0000
0010
0000
0000
0000
,
0200
0000
0000
0000
0000
0300
0001
0000
0010
0000
0000
0000
0010
0000
0000
0000
0001
0000
0000
0000
1000
0000
0000
0000
0010
0000
0000
0000
1000
0000
0000
0000
,
0002
0000
0000
0000
0000
0003
1000
0000
0010
0000
0000
0000
1000
0000
0000
0000
0100
0000
0000
0000
0001
0000
0000
0000
0100
0000
0000
0000
1000
0000
0000
0000
,
0020
0000
0000
0000
0000
0030
0100
0000
0001
0000
0000
0000
0100
0000
0000
0000
0001
0000
0000
0000
1000
0000
0000
0000
0010
0000
0000
0000
1000
0000
0000
0000
,
1001
0000
0000
0001
0100
0000
0001
0000
1000
0000
0010
0000
0100
0000
0001
0000
,
0011
0000
0000
0001
0010
0000
0001
0000
1000
0000
0010
0000
1000
0000
0001
0000
,
1001
0000
0000
0001
1000
0000
0100
0000
1000
0000
0001
0000
0100
0000
0001
0000
,
1001
0000
0000
0001
0010
0000
0001
0000
0100
0000
0010
0000
0100
0000
0001
0000
,
1000
0010
0000
0000
0010
1000
0000
0000
1000
0001
0000
0000
0001
1000
0000
0000
,
1001
0000
0110
0000
2002
0000
3003
0001
,
0100
0001
0000
0000
0001
0100
0000
0000
0100
0010
0000
0000
0010
1000
0000
0000
,
1100
0011
2002
3003
,
0001
0100
0001
0100
0001
0100
0001
0100
,
0010
1000
0100
1000
0010
1000
0100
1000
,
0010
0100
0001
0010
0100
1000
0001
0100
,
0010
1000
0001
0010
0001
1000
0010
1000
,
0001
0000
0000
0001
0100
0000
0010
0000
0100
0000
0001
0000
1000
0000
0000
0000
,
0100
0000
0000
0010
0001
0000
0100
0000
0010
0000
0100
0000
0001
0000
0000
0000
,
1000
0000
0000
0001
1000
0000
0001
0000
1000
0000
0010
0000
1000
0000
0000
0000
,
0001
0000
0000
0010
0001
0000
0100
0000
0010
0000
0100
0000
0001
0000
0100
0000
,
0120
0100
0100
0130
,
2001
0001
0001
3001
,
0012
0010
0010
0013
,
2100
0100
0100
3100
;
