#TITLE:Last Farewell;
#SUBTITLE:;
#ARTIST:Big Bang;
#TITLETRANSLIT:;
#SUBTITLETRANSLIT:;
#ARTISTTRANSLIT:;
#GENRE:;
#CREDIT:;
#MUSIC:Last Farewell.ogg;
#BANNER:Last Farewell.png;
#BACKGROUND:Last Farewell-BG.png;
#CDTITLE:;
#SAMPLESTART:20.967;
#SAMPLELENGTH:13.333;
#SELECTABLE:YES;
#OFFSET:-0.156;
#BPMS:0.000=135.000
,112.000=67.500
,128.000=135.000
;
#STOPS:;
#BGCHANGES:;
#FGCHANGES:;

//--------------- dance-single - Alex ----------------
#NOTES:
     dance-single:
     Alex:
     Beginner:
     1:
     0,0,0,0,0:
0000
0000
0000
0000
,
0000
0000
0000
0000
,
0000
0000
0000
0000
,
0000
0000
0000
0000
,
0010
0000
0000
0000
,
1000
0000
0000
0000
,
1000
0000
0000
0000
,
0001
0000
0000
0000
,
1000
0000
0000
0000
,
0001
0000
0000
0000
,
0100
0000
0000
0000
,
0010
0000
0000
0000
,
1001
0000
0000
0000
,
1000
0000
0000
0000
,
0010
0000
0000
0000
,
1000
0000
0000
0000
,
0001
0000
0000
0000
,
0100
0000
0000
0000
,
0010
0000
0000
0000
,
1000
0000
0000
0000
,
0001
0000
0001
0000
,
0001
0000
0000
0000
,
1000
0000
1000
0000
,
1000
0000
0000
0000
,
0010
0000
0010
0000
,
0010
0000
0000
0000
,
0100
0000
0100
0000
,
0100
0000
0000
0000
,
1001
0000
0000
0000
,
1000
0000
0000
0000
,
0010
0000
0000
0000
,
0100
0000
0000
0000
,
0001
0000
0000
0000
,
1000
0000
0000
0000
,
0010
0000
0000
0000
,
1000
0000
0000
0000
,
0001
0000
0000
0000
,
0001
0000
0000
0000
,
1000
0000
0000
0000
,
0100
0000
0000
0000
,
1000
0000
1000
0000
,
1000
0000
0000
0000
,
0010
0000
0010
0000
,
0010
0000
0000
0000
,
0100
0000
0100
0000
,
0100
0000
0000
0000
,
0001
0000
0001
0000
,
0001
0000
0000
0000
,
1001
0000
0000
0000
,
1000
0000
0000
0000
,
0001
0000
0000
0000
,
0100
0000
0000
0000
,
0110
0000
0000
0000
,
0010
0000
0000
0000
,
1000
0000
0000
0000
,
0001
0000
1000
0000
,
0001
0000
0000
0000
;

//--------------- dance-single - Alex ----------------
#NOTES:
     dance-single:
     Alex:
     Easy:
     3:
     0,0,0,0,0:
0000
0000
0000
0000
,
0000
0000
0000
0000
,
0000
0000
0000
0000
,
1001
0000
1001
0000
,
0010
0000
0100
0000
,
0001
0000
1000
0000
,
1000
0000
0010
0000
,
1000
0000
0001
0000
,
0001
0100
0001
0000
,
1000
0010
1000
0000
,
0010
0100
0010
0000
,
1000
0001
1000
0000
,
0011
0000
0011
0000
,
0001
0100
0001
0000
,
1001
0000
1001
0000
,
1000
0001
1000
0000
,
1010
0000
1010
0000
,
0010
1000
0010
0000
,
0110
0000
0101
0000
,
0001
0001
1000
1000
,
0010
0000
0100
0000
,
0001
0000
1000
0000
,
1000
0000
0100
0000
,
1000
0000
0010
0000
,
0100
0000
0001
0000
,
0010
0000
0001
0000
,
1000
0000
0010
0000
,
0100
0100
0100
0100
,
0110
0000
0010
0000
,
1000
0000
0000
0000
0001
1000
0001
1000
,
0001
0000
1000
0000
,
0100
0000
1000
0000
,
1001
0000
1001
0000
,
0010
0100
0010
0000
,
0101
0000
1010
0000
,
1000
0100
1000
0000
,
0011
0000
1001
0000
,
0001
1000
0001
0000
,
1001
0000
0101
0000
,
0010
0100
0010
0100
,
0010
0000
0010
0000
,
1000
0000
1000
0000
,
0001
0000
0001
0000
,
0100
0000
0100
0000
,
0001
0000
1000
0000
,
0010
0000
1000
0000
,
1000
0000
0001
0000
,
1000
1000
0001
0001
,
1000
0001
1000
0000
,
0010
0100
0010
0000
,
0100
0001
0100
0000
,
0010
1000
0010
1000
,
0001
1000
0001
0000
,
1000
0100
1000
0000
,
0001
0010
0001
0000
,
0100
0100
0010
0010
,
1001
0000
0000
0000
;

//--------------- dance-single - Alex ----------------
#NOTES:
     dance-single:
     Alex:
     Medium:
     5:
     0,0,0,0,0:
0000
0000
0000
0000
,
0000
0000
0000
0000
,
0000
0000
0000
0000
,
0010
0100
0010
0100
,
0001
0001
1000
1000
,
0010
0100
0100
0001
,
0010
0010
0001
1000
,
0010
0010
1000
0001
,
0100
0010
1000
1001
,
0001
0010
0001
0011
,
0001
0100
0001
1001
,
1000
0000
1000
0000
0010
0000
0010
1000
,
0100
0010
0001
1000
,
0010
0100
0101
0000
,
0001
0010
0100
1000
,
1001
0000
1000
0010
0100
0000
0000
0000
,
0001
0010
0001
0100
,
0010
1000
1100
0000
,
0100
0100
1000
0010
,
1010
0000
0010
0100
0001
0000
0000
0000
,
0001
1000
0001
0001
,
0100
0010
1000
0000
,
0001
0010
0100
0010
,
0001
1000
1010
0000
,
0010
0010
1000
0001
,
0001
1000
0100
0000
,
0010
0001
0100
0010
,
1000
0001
1000
0001
,
1001
0000
0020
0030
,
0200
0000
0300
0000
0001
1000
0001
1000
,
0002
0003
2000
3000
,
0020
0000
0030
0000
0100
0001
1000
0100
,
0010
0001
0100
0100
,
0010
1000
0001
0000
,
0001
1000
0010
0100
,
0101
0000
0001
0010
0100
0000
0000
0000
,
1000
0010
1000
1000
,
0001
0001
0010
0000
,
0001
0100
0010
1000
,
1100
0000
0100
1000
0010
0000
0000
0000
,
0010
1000
0001
0100
,
0010
1000
1000
0001
,
0001
0100
0010
1000
,
0001
0010
0001
0010
,
0001
1000
0001
0100
,
0001
0001
1000
1000
,
0010
0100
0001
1000
,
0100
1000
1010
0000
,
0010
0100
0001
1001
,
0001
1000
1000
1001
,
0001
0100
0001
0011
,
0001
1000
0010
0000
,
0010
1000
0100
1100
,
0100
1000
0001
1001
,
0001
1000
1000
0010
,
0100
0000
0001
0000
1000
0010
0100
0001
,
2000
0000
3000
0000
;

//--------------- dance-single - Alex ----------------
#NOTES:
     dance-single:
     Alex:
     Hard:
     8:
     0,0,0,0,0:
0000
0000
0000
0000
,
0000
0000
0000
0000
,
0000
0000
0000
0000
,
1001
0110
0011
1100
,
0100
1000
0100
0000
0010
0001
0010
0000
,
0001
1000
0010
0000
0100
0001
1000
0000
,
0100
0010
0001
0000
1000
0010
0100
0000
,
0001
0100
0001
0000
1000
0100
1000
0000
,
0001
0010
0100
1000
0010
0000
1010
0000
,
0010
1000
0001
0010
0001
0000
0011
0000
,
0001
0100
0001
1000
0010
0000
1010
0000
,
0010
1000
0100
0010
0001
0100
0010
0010
,
1000
0000
0001
0000
0010
0000
0001
0000
1000
0000
0000
1000
0000
0000
0001
0000
,
0000
0001
1000
0010
0100
0001
1001
0000
,
0001
0000
0010
0000
0001
0000
0100
0000
0010
0000
0000
0010
0000
0000
1000
0000
,
0000
0100
1000
0010
1000
0001
0011
0000
,
0001
0000
0100
0000
0001
0000
1000
0000
0010
0000
0000
0010
0000
0000
1000
0000
,
0000
1000
0001
0100
0001
1000
1100
0000
,
0100
0000
1000
0000
0010
0000
0100
0000
0001
0000
0000
0001
0000
0000
0010
0000
,
0001
0100
0001
0010
0100
1000
0001
1000
,
0010
0000
0010
0000
0100
0000
0001
0100
0000
0000
0001
0000
1000
0000
0000
0000
,
0001
0000
0010
0001
0000
0000
1000
0010
0000
0000
0010
0000
0100
0000
0000
0000
,
0001
0000
1000
0000
0100
0000
1000
0100
0000
0000
0100
0000
1000
0000
0000
0000
,
1000
0001
0100
0001
1000
0010
0100
0000
,
0001
0000
0010
0000
0001
0000
0100
0010
0000
0000
0010
0000
1000
0000
0000
0000
,
0001
0000
0001
0000
1000
0000
0100
1000
0000
0000
1000
0000
0010
0000
0000
0000
,
0010
0000
1000
0000
0001
0000
0001
0010
0000
0000
0001
0000
0100
0000
0001
0000
,
1000
0100
1000
0010
1000
0001
0010
0000
,
0002
0003
0200
0300
,
0020
0000
0030
0000
1000
0001
0010
0100
,
2000
3000
0002
0003
,
0200
0000
0300
0000
0010
1000
0001
0100
,
0010
0000
0100
0000
0001
0000
0010
0000
0001
0000
0000
0001
0000
0000
0100
0000
,
0000
0100
0010
1000
0100
1000
0001
0000
,
0001
0000
0001
0000
0100
0000
0100
0000
0010
0000
0000
1000
0000
0000
0100
0000
,
0000
0010
0001
0100
0010
1000
1001
0000
,
0001
0000
0010
0000
0001
0000
0100
0000
0010
0000
0000
0010
0000
0000
1000
0000
,
0000
0001
0100
0001
1000
0100
0010
0000
,
0001
0000
0100
0000
0001
0000
0010
0000
0001
0000
0000
0001
0000
0000
0100
0000
,
0010
1000
0001
0100
0010
1000
1001
0000
,
0001
0000
0100
0000
0001
0000
0100
0001
0000
0000
0001
0000
0100
0000
0000
0000
,
0100
0000
0010
0000
1000
0000
0010
0100
0000
0000
0100
0000
0001
0000
0000
0000
,
0001
0000
1000
0000
0010
0000
0010
1000
0000
0000
1000
0000
0001
0000
0000
0000
,
0001
1000
0100
0010
0001
0100
0010
0000
,
0010
0000
1000
0000
0001
0000
0001
0100
0000
0000
0100
0000
0001
0000
0000
0000
,
0001
0000
0010
0000
0100
0000
1000
0100
0000
0000
0010
0000
0001
0000
0000
0000
,
0100
0000
0100
0000
0010
0000
0010
1000
0000
0000
0001
0000
0100
0000
0010
0000
,
1000
1000
0001
0001
0010
0100
1100
0000
,
0100
1000
0010
0100
0001
0000
0101
0000
,
0001
0100
0001
1000
0010
0000
1010
0000
,
0010
0100
0010
1000
0001
0000
1001
0000
,
0001
0010
0001
0100
0001
0010
0001
0000
,
0001
0001
1000
1000
0001
0000
1001
0000
,
0001
1000
0010
0010
1000
0000
1010
0000
,
1000
0000
0100
0000
1000
0000
0010
1000
0000
0000
0001
0000
0100
0000
0001
0000
,
1000
1000
0001
0001
0100
0010
1000
0100
,
0020
0000
0030
0000
;

//--------------- dance-single - Alex ----------------
#NOTES:
     dance-single:
     Alex:
     Challenge:
     10:
     0,0,0,0,0:
0000
0000
0000
0000
,
0000
0000
0000
0000
,
0000
0000
0000
0000
,
0011
0101
0110
1001
,
0001
0000
0100
0000
0010
0000
1000
0100
1000
0000
0010
0000
0100
0000
0001
1000
,
0001
0000
0010
0000
0001
0000
0100
0001
0100
0000
0010
0000
1000
0000
0001
1000
,
0010
0000
0100
0000
0001
0000
1000
0100
0010
0000
0001
0000
0100
0000
0001
0100
,
0001
0000
0010
0000
0001
0000
1000
0010
0100
0000
0001
0000
1000
0000
0000
0000
,
0001
0010
0100
1000
0001
0010
0001
0100
0010
0000
0000
0000
1001
0000
0000
0000
,
0001
1000
0001
0100
0001
1000
0010
0100
0001
0000
0000
0000
1001
0000
0000
0000
,
1000
0100
1000
0100
1000
0010
1000
0010
0100
0000
0000
0000
0101
0000
0000
0000
,
0001
0010
0001
0100
0010
0100
0001
0010
0100
1000
0001
0010
0001
1000
0010
0100
,
0001
0000
1000
0000
0100
0000
0010
0000
0011
0000
0000
1100
0000
0000
0101
0000
,
0001
0000
0100
0000
0010
0000
1000
0000
0001
0000
0010
0000
0011
0000
0000
0001
,
0100
0000
0010
0000
1000
0000
0100
0000
1100
0000
0000
0110
0000
0000
0011
0000
,
0001
1000
0010
0001
0010
1000
1010
0000
,
0010
0000
1000
0000
0100
0000
1000
0000
1001
0000
0000
0101
0000
0000
0110
0000
,
0010
0000
1000
0000
0001
0000
0010
0000
0001
0000
0100
0000
0110
0000
0000
0100
,
0010
0000
1000
0000
0100
0000
1000
0000
1010
0000
0000
0101
0000
0000
0011
0000
,
0001
0001
1000
1000
0010
0100
0001
1000
,
0100
0000
0010
0000
0001
0000
0100
0001
0000
0001
0100
0000
0010
0000
1000
0000
,
0001
0000
0010
0000
0001
0000
1000
0010
0000
0010
1000
0000
0100
0000
1000
0000
,
0010
0000
0010
0000
0100
0000
0001
0100
0000
0100
0001
0000
1000
0000
1000
0000
,
0010
0000
0100
0000
0001
0000
1000
0100
0010
0000
0001
0000
0011
0000
0000
0000
,
0001
0000
0001
0000
0100
0000
0100
0010
0000
0010
1000
0000
0001
0000
0010
0000
,
0001
0000
1000
0000
0010
0000
0100
0001
0000
0001
1000
0000
0100
0000
0010
0000
,
0001
0000
1000
0000
0010
0000
0010
1000
0000
1000
0010
0000
0100
0000
0001
0000
,
0010
0100
1000
0001
0100
0010
1010
0000
,
0020
0000
0000
0030
2000
0000
0000
3000
,
0002
0000
0000
0000
0000
0000
0003
0000
0200
0300
0020
0030
2000
3000
0002
0003
,
0200
0300
0020
0030
,
2000
0000
0000
0000
3000
0000
0000
0000
0001
0010
0100
1000
0001
0010
0001
1000
,
0010
0000
1000
0000
0001
0000
0100
0000
0110
0000
0000
0101
0000
0000
0011
0000
,
0001
0000
1000
0000
0010
0000
0100
0000
0001
0000
1000
0000
1001
0000
0000
0001
,
1000
0000
1000
0000
0100
0000
1000
0000
1010
0000
0000
0110
0000
0000
0101
0000
,
0001
0010
0001
1000
0010
0010
0110
0000
,
0010
0000
0100
0000
0001
0000
1000
0000
1100
0000
0000
1010
0000
0000
1001
0000
,
0001
0000
0010
0000
0001
0000
0100
0000
0010
0000
1000
0000
1001
0000
0000
0001
,
0100
0000
0100
0000
0001
0000
0010
0000
0011
0000
0000
1100
0000
0000
1001
0000
,
0001
0100
0001
1000
0010
1000
0001
0010
0001
1000
0010
0100
0001
0000
0000
0000
,
1000
0000
0100
0000
0010
0000
0001
0010
0000
0010
0001
0000
0100
0000
0010
0000
,
1000
0000
0001
0000
1000
0000
0100
1000
0000
1000
0100
0000
1100
0000
0000
0000
,
0100
0000
1000
0000
0010
0000
0010
1000
0000
1000
0001
0000
0100
0000
0010
0000
,
1001
0001
0010
0001
1000
0010
0110
0000
,
0100
0000
0001
0000
0010
0000
0001
0100
0000
0100
0001
0000
1000
0000
1000
0000
,
0010
0000
1000
0000
0100
0000
0010
0001
0000
0001
0010
0000
0011
0000
0000
0000
,
0001
0000
0100
0000
0001
0000
1000
0010
0000
0010
1000
0000
0001
0000
0010
0000
,
0100
1000
0001
0100
0010
1000
1001
0000
,
0001
0100
0001
0010
0001
0100
0001
0010
0001
0000
0000
0000
0101
0000
0000
0000
,
0010
1000
0010
0100
0010
1000
0100
1000
0010
0000
0000
0000
1010
0000
0000
0000
,
0010
1000
0100
0010
0001
1000
0010
0100
0001
0000
0000
0000
1001
0000
0000
0000
,
1001
0001
1001
1000
1001
0001
0101
0000
,
0010
0100
0001
0010
0001
1000
0010
0100
0001
0000
0000
0000
1001
0000
0000
0000
,
0001
1000
0100
1000
0001
0100
0001
1000
0010
0000
0000
0000
0110
0000
0000
0000
,
0010
0000
0010
0000
1000
0000
0001
0100
0000
0100
0001
0000
1000
0000
0100
0000
,
0010
0000
0001
1000
0010
0000
0100
0001
1000
0000
0100
0010
0001
0000
1000
0010
,
0220
0000
0330
0000
;
