#TITLE:La La La La;
#SUBTITLE:;
#ARTIST:Stray Kids;
#TITLETRANSLIT:;
#SUBTITLETRANSLIT:;
#ARTISTTRANSLIT:;
#GENRE:;
#CREDIT:;
#MUSIC:La La La La.ogg;
#BANNER:La La La La.png;
#BACKGROUND:La La La La-BG.png;
#CDTITLE:;
#SAMPLESTART:85.553;
#SAMPLELENGTH:18.135;
#SELECTABLE:YES;
#OFFSET:0.125;
#BPMS:0.000=126.000;
#STOPS:;
#BGCHANGES:11.500=La La La La.avi=1.000=1=0=0=StretchNoLoop==CrossFade==,
254.500=La La La La-BG.png=1.000=1=0=1===CrossFade==,
99999.000=-nosongbg-=1.000=0=0=0=StretchNoLoop====
;
#FGCHANGES:;

//--------------- dance-single - Alex ----------------
#NOTES:
     dance-single:
     Alex:
     Beginner:
     1:
     0.071658,0.175563,0.055734,0,0,63,56,7,0,0,0,0.071658,0.175563,0.055734,0,0,63,56,7,0,0,0:
0000
0000
0000
0000
,
0000
0000
0000
0000
,
0000
0000
0000
0000
,
0000
0000
0000
0000
,
0000
0000
0000
0000
,
0100
0000
0000
0000
,
0010
0000
0000
0000
,
1000
0000
0000
0000
,
1000
0000
0000
0000
,
0001
0000
0000
0000
,
0100
0000
0000
0000
,
0010
0000
0000
0000
,
0000
0000
0000
0000
,
1000
0000
0000
0000
,
0001
0000
0000
0000
,
1000
0000
0000
0000
,
1000
0000
0000
0000
,
0100
0100
0100
0000
,
0010
0010
0010
0000
,
0001
0000
0000
0000
,
1000
0000
0000
0000
,
0001
0000
0000
0000
,
0100
0000
0000
0000
,
0010
0000
0000
0000
,
1000
0000
0000
0000
,
1000
0000
0000
0000
,
0001
0000
0000
0000
,
1001
0000
0000
0000
,
0000
0000
0000
0000
,
0110
0000
0000
0000
,
0000
0000
0000
0000
,
1001
0000
0000
0000
,
0000
0000
0000
0000
,
0110
0000
0000
0000
,
0000
0000
0000
0000
,
0100
0000
0000
0000
,
0010
0000
0000
0000
,
0010
0000
0000
0000
,
1000
0000
0000
0000
,
0001
0000
0000
0000
,
1000
0000
0000
0000
,
0010
0000
0000
0000
,
1000
0000
0000
0000
,
1001
0000
0000
0000
,
0000
0000
0000
0000
,
0110
0000
0000
0000
,
0000
0000
0000
0000
,
0100
0000
0000
0000
,
0001
0000
0000
0000
,
1000
0000
0000
0000
,
0010
0000
0000
0000
,
0100
0000
0000
0000
,
0100
0000
0000
0000
,
0001
0000
0000
0000
,
1000
0000
0000
0000
,
0001
0000
0000
0000
,
0100
0000
0000
0000
,
0100
0000
0000
0000
,
0010
0000
0000
0000
,
1000
0000
0000
0000
,
0100
0000
0000
0000
,
1000
0000
0000
0000
,
0001
0000
0000
0000
,
1001
0000
0000
0000
;

//--------------- dance-single - Alex ----------------
#NOTES:
     dance-single:
     Alex:
     Easy:
     3:
     0.170615,0.225724,0.143317,0.03981,0,150,132,18,5,0,0,0.170615,0.225724,0.143317,0.03981,0,150,132,18,5,0,0:
0000
0000
0000
0000
,
0000
0000
0000
0000
,
0000
0000
0000
0000
,
0010
0000
0010
0000
,
1001
0000
0001
0001
,
1000
0000
0001
0000
,
1000
0000
0010
0000
,
1000
0000
0100
0000
,
0010
0000
0001
0000
,
0100
0100
0001
0000
,
0001
0001
1000
0000
,
1001
0000
0000
0000
,
0110
0000
0000
0000
,
0010
0000
0100
0000
,
0001
0000
1000
0001
,
1000
0000
0010
0000
,
1000
0000
0001
0010
,
0001
0000
0100
0000
,
0010
0000
1000
0001
,
1001
0000
0001
0000
,
1000
0000
0001
0000
,
1000
0000
0010
0000
,
0100
0000
0001
0000
,
0010
0000
0100
0000
,
1000
0000
0001
0000
,
0001
0000
1000
0000
,
1000
0000
0010
0000
,
2000
0000
3000
0000
,
0002
0000
0003
0000
,
0200
0000
0300
0000
,
0020
0000
0030
0000
,
1001
0000
1001
0000
,
0110
0000
0110
0000
,
0010
1000
0001
0100
,
0020
0000
0030
0000
,
1001
0000
0000
0000
,
1000
1000
0001
0001
,
1001
0000
0000
0000
,
0010
0010
0100
0100
,
0110
0000
0000
0000
,
0010
0010
1000
1000
,
1100
0000
0000
0000
,
0001
0000
1000
0000
,
1001
0000
0000
1001
,
1001
0000
0000
0000
,
0010
0000
0000
0110
,
0110
0000
0000
0100
,
0001
0000
1000
0000
,
0001
0000
1000
0000
,
0010
0000
0100
0000
,
0001
0000
0010
0000
,
0100
0000
1000
0000
,
0001
0000
0100
0001
,
0100
0000
0010
1000
,
0010
0000
1000
0001
,
1000
0000
0001
0100
,
0001
0000
0010
0100
,
1000
0000
0010
0100
,
0001
0000
1000
0001
,
1000
0000
0010
0100
,
0010
0000
1001
0000
,
0010
0000
1000
0000
,
0001
0000
0100
0010
,
0100
0000
0000
0000
;

//--------------- dance-single - Alex ----------------
#NOTES:
     dance-single:
     Alex:
     Medium:
     5:
     0.285496,0.355306,0.159241,0.071658,0,251,231,20,9,0,0,0.285496,0.355306,0.159241,0.071658,0,251,231,20,9,0,0:
0000
0000
0000
0000
,
0000
0000
0000
0000
,
0000
0000
0000
0000
,
1000
0001
1000
1000
,
0001
1000
1001
0000
,
0010
0100
0001
0100
,
0010
0010
1000
0100
,
0010
0100
1000
0001
,
0100
0010
0100
0001
,
0010
0100
0100
1000
,
0001
1000
1001
0000
,
0001
1000
0001
0001
,
1000
0010
1010
0000
,
0010
0000
0110
0100
,
0100
0001
0010
0100
,
1100
0000
0001
1000
,
0010
0100
0001
0010
,
0011
0011
1001
0000
,
1010
1010
1001
0000
,
0001
0100
0010
1000
,
0001
0000
0010
0000
0001
0100
0001
0000
,
0100
0010
1000
0100
,
0010
0000
0001
0000
1000
0001
1000
0000
,
0010
0100
0100
0001
,
0010
0000
0100
0000
1000
0100
1000
0000
,
0001
0100
0100
0001
,
0010
0000
0100
0000
1000
0010
1000
0000
,
0020
0130
0002
0013
,
2000
3100
0020
0130
,
2000
3001
0020
0031
,
0200
0300
0010
1000
,
0001
0100
0001
0010
,
0100
1000
0010
0100
,
0100
0000
0001
0000
1000
0010
1000
0020
,
0000
0000
0030
0000
,
1001
0000
0001
0000
,
1000
0010
0100
0001
,
0011
0000
1100
0000
,
0100
1000
0010
1000
,
1001
0000
0110
0000
,
0010
0100
0001
0010
,
0011
0000
0000
0000
,
0001
1000
0001
0001
,
1000
0010
1000
0001
,
0100
0100
0010
0000
,
1000
0100
0010
0001
,
1000
0010
1010
0000
,
0010
0100
0001
0001
,
1000
0100
0010
0010
,
0001
1000
0100
0100
,
1000
1000
0001
0100
,
0010
0010
1000
0001
,
0010
0001
1001
0000
,
0001
0000
1000
0000
0010
0000
0100
0001
,
0100
0000
0001
0000
0010
0000
0100
1000
,
0100
0000
1000
0000
0010
0000
1000
0001
,
1000
0000
0001
0000
0100
0000
0010
0100
,
0010
0000
1000
0000
0100
0000
0010
0001
,
0100
0000
0010
0000
1000
0000
0001
1000
,
0001
0000
0100
0000
0010
0000
1000
0100
,
1000
0010
0100
0001
,
1001
1000
1000
0001
,
0010
0000
0100
0000
1000
0000
0001
0100
,
0020
0000
0000
0030
;

//--------------- dance-single - Alex ----------------
#NOTES:
     dance-single:
     Alex:
     Hard:
     8:
     0.483409,0.482201,0.159241,0.135355,0.19507,425,405,20,17,0,0,0.483409,0.482201,0.159241,0.135355,0.19507,425,405,20,17,0,0:
0000
0000
0000
0000
,
0000
0000
0000
0000
,
0000
0000
0000
0000
,
0001
0000
0000
1000
0000
0000
0010
0000
0100
0000
0000
0000
0101
0000
0000
0000
,
0001
0000
0000
1000
0000
0000
0100
0000
1000
0000
0010
0000
1000
0010
1000
0010
,
1000
0000
0000
0010
1000
0000
0001
0000
0100
0000
0001
0000
1000
0000
0100
0000
,
0010
0000
0000
0001
0100
0000
0001
0000
0010
0000
0010
0000
0001
0000
1000
0000
,
0010
0000
0000
0010
1000
0000
0001
0000
0100
0000
0001
0000
1000
0000
0100
0000
,
1000
0000
0000
1000
0001
0000
0100
0000
0001
0000
0010
0000
0100
0000
1000
0000
,
1001
0000
0000
0001
0000
0000
0100
0000
0010
0000
1000
0100
1000
0000
0100
0000
,
1100
0000
0000
0000
0000
0000
0000
0000
0000
0100
0000
0000
0000
0000
0000
0000
0000
0000
1000
0000
0000
0000
0000
0000
0010
0000
0000
0000
0100
0000
0000
0000
0010
0000
0000
0000
0100
0000
0000
0000
0000
0000
0000
0000
0000
0000
0000
0000
,
0001
0000
0000
1000
0000
0000
0010
0000
1010
0000
0000
0000
0101
0000
0000
0000
,
0001
0000
0000
0010
0000
0000
0001
0000
0101
0000
0001
0000
0100
0000
0010
0000
,
1010
0000
0000
0000
0101
0000
0000
0000
0001
0000
0100
0000
0001
0000
1000
0010
,
1000
0010
0100
0001
1000
0100
0010
0001
,
0011
0000
0000
0000
1100
0000
0000
0000
0100
0000
1000
0000
0010
0000
0100
0001
,
0100
0001
0010
0001
0100
0010
1000
0001
,
1001
0000
1001
0000
0001
0100
0010
1000
,
1100
0000
0000
1100
0000
0000
0100
1000
0100
1000
0000
0000
,
0001
1000
0010
1000
0001
0100
0001
0010
,
0100
1000
0001
0100
0010
1000
0100
0010
,
0001
0000
0001
1000
0010
0100
0001
0010
,
0001
0001
1000
0100
1000
1000
0010
1000
,
1100
0000
0000
0000
0100
0000
1000
0000
0010
0000
0100
0000
0001
1000
0010
0000
,
0100
0000
0001
0000
0010
0000
0100
0000
1000
0000
0001
0000
1000
0001
1000
0000
,
0001
0100
0001
0010
0100
1000
0010
0000
,
1000
0000
0000
0100
0000
0000
1000
0000
0000
0001
0000
0000
1000
0000
0001
0000
1000
0000
0001
0000
0000
0000
0000
0000
,
0002
2003
3200
2300
,
3020
0032
0023
2030
,
3200
0302
0203
2300
,
3020
0000
0000
0030
0100
1000
0010
0100
,
0001
1000
0010
1000
0001
0100
0001
0010
,
0001
0100
0010
0100
0001
0010
0100
1000
,
0001
1000
0010
0100
0001
1000
0100
0020
,
0002
0000
0000
0000
0033
0001
0010
0001
,
1000
0000
0000
0000
1001
0000
0000
0001
,
0100
0001
1000
0010
0100
0001
0010
0100
,
1000
0000
0000
0000
1010
0000
0000
0010
,
0100
0001
0100
0010
0010
1000
0001
0010
,
0011
0000
0000
0000
1100
0000
0000
0100
,
1000
0100
1000
0001
0100
0001
1000
0010
,
0100
0000
0000
0000
0000
0000
0000
0000
0000
1000
0010
1000
,
0010
0100
0001
1000
0100
0010
0001
0000
0000
1001
0000
0000
,
0001
0000
0000
1000
0000
0000
0010
0000
0100
0000
0000
0000
0100
0000
0000
0000
,
0001
0000
0000
0010
0000
0000
0001
0000
2000
0000
0000
0000
3000
0000
0000
0000
,
0001
0000
0000
0001
0000
0000
0001
0000
0100
0000
0000
0000
0100
0000
0000
0000
,
0010
0000
0000
0010
0000
0000
1000
0000
0001
0000
0010
0000
0001
0010
0001
0010
,
0001
0000
0000
0001
0100
0000
0010
0000
1000
0000
0001
0000
0010
0000
0001
0000
,
1000
0000
0000
0010
1000
0000
0100
0000
1000
0000
0010
0000
0100
0000
0001
0000
,
1000
0000
0000
0001
0100
0000
0001
0000
0010
0000
0001
0000
0100
0000
0010
0000
,
1000
0000
0000
0001
1000
0000
0100
0000
1000
0000
0010
0000
0100
0000
0001
0000
,
0010
0000
0000
0010
0000
0000
0001
0000
0100
0000
0010
0000
1000
0000
0001
0000
,
1000
0000
0000
0000
0000
0000
0000
0000
0000
1000
0000
0000
0000
0000
0000
0000
0000
0000
0001
0000
0000
0000
0000
0000
0001
0000
0000
0000
0100
0000
0000
0000
0001
0000
0000
0000
0100
0000
0000
0000
0000
0000
0010
0000
0000
0000
0000
0000
,
0100
0000
0100
0010
1000
0100
0010
0100
,
1000
0000
0001
0100
0001
0100
0100
0010
,
1000
0000
0001
0010
0001
0100
0010
1000
,
0100
0000
0100
0000
0010
0000
0001
1000
,
0010
0000
0010
1000
0001
0100
0001
1000
,
0100
0000
0010
0001
0100
0010
0100
0001
,
0010
0000
0001
1000
0100
0100
1000
0010
,
0100
0000
0000
0100
0000
0000
0001
1000
0001
1000
0000
0000
,
0001
0000
0000
1000
0000
0000
0001
0000
1000
0000
0000
0000
0010
0000
0000
0000
,
0100
0000
0000
0001
0000
0000
0010
0000
0100
0000
0000
0000
1000
0001
1000
0001
,
2000
0000
0000
3000
;
