#TITLE:Killin' It;
#SUBTITLE:;
#ARTIST:P1Harmony;
#TITLETRANSLIT:;
#SUBTITLETRANSLIT:;
#ARTISTTRANSLIT:;
#GENRE:;
#CREDIT:;
#MUSIC:Killin' It.ogg;
#BANNER:Killin' It.png;
#BACKGROUND:Killin' It-BG.png;
#CDTITLE:;
#SAMPLESTART:53.158;
#SAMPLELENGTH:14.896;
#SELECTABLE:YES;
#OFFSET:0.134;
#BPMS:0.000=180.000;
#STOPS:;
#BGCHANGES:18.000=Killin' It.avi=1.000=1=0=0=StretchNoLoop==CrossFade==,
387.000=Killin' It-BG.png=1.000=1=0=1===CrossFade==,
99999.000=-nosongbg-=1.000=0=0=0=StretchNoLoop====
;
#FGCHANGES:;

//--------------- dance-single - Alex ----------------
#NOTES:
     dance-single:
     Alex:
     Beginner:
     1:
     0.106671,0.18523,0.076979,0.015396,0,97,87,10,2,0,0,0.106671,0.18523,0.076979,0.015396,0,97,87,10,2,0,0:
0000
0000
0000
0000
,
0000
0000
0000
0000
,
0000
0000
0000
0000
,
0000
0000
0000
0000
,
0000
0000
0000
0000
,
0000
0000
0000
0000
,
0000
0000
0000
0000
,
0000
0000
0000
0000
,
0000
0000
0001
0000
,
0000
0000
0001
0000
,
0000
0000
1000
0000
,
0000
0000
1000
0000
,
0000
0000
0001
0000
,
0000
0000
1000
0000
,
0000
0000
0100
0000
,
0000
0000
1000
0000
,
0000
0000
0010
0000
,
0000
0000
0010
0000
,
0000
0000
1000
0000
,
0000
0000
0001
0000
,
0000
0000
0001
0000
,
0000
0000
0100
0000
,
0000
0000
0001
0000
,
0000
0000
1000
0000
,
1000
0000
1000
0000
,
0000
0000
0001
0000
,
0000
0000
1000
0000
,
0000
0000
0001
0000
,
0000
0000
0100
0000
,
0000
0000
0010
0000
,
0000
0000
0100
0000
,
0000
0000
0100
0000
,
0000
0000
1001
0000
,
0000
0000
0000
0000
,
0000
0000
1001
0000
,
0000
0000
0000
0000
,
0000
0000
0010
0000
,
0010
0000
0010
0000
,
0000
0000
0100
0000
,
0100
0000
0100
0000
,
0000
0000
1001
0000
,
0000
0000
0001
0000
,
0000
0000
1000
0000
,
0000
0000
0001
0000
,
0000
0000
0010
0000
,
0000
0000
0001
0000
,
0000
0000
0100
0000
,
0000
0000
0100
0000
,
0000
0000
0001
0000
,
0000
0000
0001
0000
,
0000
0000
1000
0000
,
0000
0000
1000
0000
,
0000
0000
0010
0000
,
0000
0000
1000
0000
,
0000
0000
0001
0000
,
0000
0000
1000
0000
,
0000
0000
1001
0000
,
0000
0000
0000
0000
,
0000
0000
1001
0000
,
0000
0000
0000
0000
,
0000
0000
0010
0000
,
0000
0000
0010
0000
,
0000
0000
0100
0000
,
0000
0000
0100
0000
,
0000
0000
1001
0000
,
0000
0000
0001
0000
,
0000
0000
0001
0000
,
0000
0000
1000
0000
,
0000
0000
1000
0000
,
0000
0000
0010
0000
,
0000
0000
0010
0000
,
0000
0000
0100
0000
,
0000
0000
1001
0000
,
0000
0000
0000
0000
,
0000
0000
1001
0000
,
0000
0000
0000
0000
,
0000
0000
0001
0000
,
0001
0000
0001
0000
,
0000
0000
1000
0000
,
1000
0000
1000
0000
,
0000
0000
1001
0000
,
0000
0000
0010
0000
,
0000
0000
0010
0000
,
0000
0000
1000
0000
,
0000
0000
1000
0000
,
0000
0000
0001
0000
,
0000
0000
0001
0000
,
0000
0000
0100
0000
,
0000
0000
0100
0000
,
0000
0000
0010
0000
,
0000
0000
1000
0000
,
0000
0000
0010
0000
,
0000
0000
0010
0000
,
0000
0000
0100
0000
,
0000
0000
0100
0000
,
0000
0000
2002
0000
,
0000
3003
0000
0000
;

//--------------- dance-single - Alex ----------------
#NOTES:
     dance-single:
     Alex:
     Easy:
     3:
     0.168254,0.259322,0.084677,0.092374,0,153,142,11,12,0,0,0.168254,0.259322,0.084677,0.092374,0,153,142,11,12,0,0:
0000
0000
0000
0000
,
0000
0000
0000
0000
,
0000
0000
0000
0000
,
0000
0000
0000
0000
,
0000
0000
0000
0000
,
0000
0000
0000
0000
,
0000
0000
0000
0000
,
0000
0000
0000
0000
,
0000
0000
0001
0000
,
0001
0000
0001
0000
,
0000
0000
1000
0000
,
1000
0000
1000
0000
,
0000
0000
0010
0000
,
0010
0000
0010
0000
,
0000
0000
0100
0000
,
0100
0000
0001
1000
,
0001
0000
1000
0000
,
0001
0000
1000
0000
,
0000
0000
0001
0000
,
0010
0000
0001
0000
,
0000
0000
1000
0000
,
0010
0000
1000
0000
,
0000
0000
0001
0000
,
0100
0000
0001
0100
,
0001
0000
1001
0000
,
0001
0000
1000
0010
,
0000
0020
0030
0010
,
0010
0100
0100
0100
,
0000
0020
0030
1000
,
1000
0001
0001
1000
,
0000
0001
0100
0000
,
0100
0000
0001
0001
,
0001
0000
2002
0000
,
0000
0000
3003
0000
,
0000
0000
0220
0000
,
0000
0000
0330
0000
,
0000
0000
0010
0000
,
0100
0000
0010
0000
,
0000
0000
1000
0000
,
0001
0000
1000
0000
,
0000
0000
1001
0000
,
0000
0000
0001
0000
,
0100
0000
0001
0000
,
0000
0000
1000
0000
,
0010
0000
1000
0000
,
0000
0000
0001
0000
,
1000
0000
0001
0000
,
0000
0000
1000
0001
,
1000
0000
1001
0000
,
0000
0000
0001
0000
,
1000
0000
0010
0000
,
0000
0000
0100
0000
,
0001
0000
1000
0000
,
0000
0000
0001
0000
,
0010
0000
0001
0000
,
0000
0000
1000
0010
,
1000
0000
1010
0000
,
0000
0000
0010
0000
,
0000
0000
0100
0000
,
0000
0000
0001
0000
,
0000
0000
1000
0000
,
0001
0000
1000
0000
,
0001
0000
1000
0000
,
1000
0000
2002
0000
,
3003
0000
0001
0000
,
1000
0000
0001
0000
,
0000
0000
1000
0000
,
0010
0000
1000
0000
,
0000
0000
0001
0000
,
0100
0000
0010
0000
,
0000
0000
0100
0000
,
0010
0000
0100
0000
,
0000
0000
0022
0000
,
0000
0000
0033
0000
,
0000
0000
2200
0000
,
0000
0000
3300
0000
,
0000
0000
1000
0000
,
0100
0000
1000
0000
,
0000
0000
0001
0000
,
0100
0000
0001
0000
,
0000
0000
1001
0000
,
0000
0000
0001
0000
,
1000
0000
0010
0000
,
0000
0000
0010
0000
,
1000
0000
0100
0000
,
0000
0000
1000
0000
,
0001
0000
1000
0000
,
0000
0000
0001
0100
,
0001
0000
0101
0000
,
0000
0000
0001
0000
,
0100
0000
0001
0000
,
0000
0000
1000
0000
,
0010
0000
1000
0000
,
0000
0000
0010
0000
,
0100
0000
0010
0000
,
0000
0000
0100
0010
,
0100
0010
0000
0000
;

//--------------- dance-single - Alex ----------------
#NOTES:
     dance-single:
     Alex:
     Medium:
     6:
     0.374996,0.444552,0.10777,0.100072,0,341,327,14,13,0,0,0.374996,0.444552,0.10777,0.100072,0,341,327,14,13,0,0:
0000
0000
0000
0000
,
0000
0000
0000
0000
,
0000
0000
0000
0000
,
0000
0000
0000
0000
,
0000
0000
0000
0000
,
0000
0000
0000
0000
,
0000
0000
0000
0000
,
0000
0000
0000
0000
,
0000
0000
0010
0100
,
0010
0010
0100
0001
,
1000
1000
0001
0010
,
0100
1000
0001
0100
,
0010
0000
0100
0001
,
0010
0100
0010
0001
,
1000
0010
1000
0001
,
1000
0100
1000
0001
,
1001
0000
0001
0100
,
0010
0100
0001
1000
,
0100
0100
1000
0010
,
1000
0001
0010
0001
,
0100
0000
0001
1000
,
0010
1000
0001
0010
,
0100
1000
0001
0100
,
0010
0100
0001
0010
,
0001
0001
1001
0001
,
1000
0010
0100
0020
,
0000
0130
0100
0001
,
1000
0100
1000
0002
,
0000
1003
1000
0001
,
0010
0100
1000
0020
,
0000
0130
0001
0100
,
0010
0100
0001
0001
,
1000
1000
1001
0001
,
1000
0010
0100
0001
,
2000
0000
3000
0001
,
0010
0100
1000
0001
,
0100
0010
0100
0000
,
0001
1000
0020
0000
,
0030
0100
0100
0001
,
1000
0001
2002
0000
,
3003
0000
0010
1000
,
0001
0100
0010
0010
,
0100
0100
0001
0010
,
0100
0010
0001
1000
,
0001
0001
1000
0010
,
1000
0001
1000
0100
,
0100
1000
0010
0100
,
0001
0000
1000
0000
0001
1000
0001
0000
,
1001
1001
0001
0100
,
0010
0100
0001
0001
,
1000
1000
0100
0010
,
0001
1000
0010
0100
,
0001
0010
0100
0100
,
0010
0001
1000
0001
,
0100
0010
0010
1000
,
0001
0000
1000
0000
0010
0100
0010
0000
,
1001
1001
0000
0000
,
0001
0000
1000
0000
,
0001
0000
1000
0001
,
1000
0000
0001
0100
,
0001
0100
0000
0010
,
1000
0100
0010
0100
,
1000
0001
0001
0100
,
0100
0010
1000
0001
,
2002
3003
0001
0001
,
0100
0100
0001
1000
,
0001
0001
1000
0010
,
1000
1000
0001
0010
,
0100
0010
0001
0100
,
0010
0100
0100
0001
,
1000
0100
0100
1000
,
0001
0000
1000
0000
0010
1000
0010
0000
,
1000
0001
1000
0001
,
0100
0010
0100
0001
,
2000
0000
3000
0001
,
0100
0010
0100
0001
,
0001
1000
0100
0000
,
1000
0001
0020
0000
,
0030
0001
0100
0010
,
0100
0001
2002
0000
,
3003
0000
0001
0001
,
1000
1000
0001
0010
,
0100
1000
0001
0001
,
0100
0100
0010
0100
,
0001
1000
0100
0010
,
0100
1000
0001
0100
,
0100
0010
1000
0001
,
0010
0000
0001
0000
1000
0010
1000
0000
,
1010
1010
0010
1000
,
1000
0010
0100
0001
,
0010
0100
0010
0001
,
0100
0010
0100
0100
,
0001
0001
1000
0100
,
1000
0001
1000
0010
,
0100
0001
0001
1000
,
0100
0000
0010
0000
0001
1000
0001
0000
,
1001
1001
0000
0000
;

//--------------- dance-single - Alex ----------------
#NOTES:
     dance-single:
     Alex:
     Hard:
     9:
     0.541051,0.594276,0.207843,0.277123,0,492,465,27,36,8,0,0.541051,0.594276,0.207843,0.277123,0,492,465,27,36,8,0:
0000
0000
0000
0000
,
0000
0000
0000
0000
,
0000
0000
0000
0000
,
0000
0000
0000
0000
,
0000
0000
0000
0000
,
0000
0000
0000
0000
,
0000
0000
0000
0000
,
0000
0000
0000
0000
,
0000
0000
0000
0000
0001
1000
0010
0100
,
0001
0000
0001
0000
1000
0100
1000
0001
,
0200
0000
0310
0000
0010
1000
0010
0100
,
0010
0000
0010
0000
1000
0001
1000
0010
,
2000
0000
3001
0000
0100
0000
0100
0010
,
0100
0000
0100
0001
1000
0010
1000
0001
,
0020
0000
0031
0000
1000
0000
0010
1000
,
0010
0000
1000
0000
0001
0010
0001
0000
,
1001
0110
0010
1000
,
0001
0000
0001
1000
0100
0000
1000
0000
,
0010
0100
0001
0100
0010
0000
1000
0000
,
0001
1000
0010
1000
0001
0100
0001
1000
,
0100
0000
1100
0000
1000
0000
0010
1000
,
0010
1000
0010
0100
0001
0000
0001
0000
,
1000
0000
0100
0000
1000
0000
0010
1000
,
0010
0000
0100
0000
0001
1000
0001
0000
,
1001
0000
0110
0000
0010
0000
1000
0010
,
0100
0001
1000
0100
0010
0000
0022
0000
,
0033
0000
1100
0000
MM00
0000
1000
0010
,
1000
0001
1000
0010
1000
0000
2002
0000
,
3003
0000
0110
0000
0MM0
0000
0010
0100
,
0001
0100
0010
1000
0001
0000
0022
0000
,
0033
0000
0011
0000
0001
0100
0010
0100
,
0001
0000
0001
1000
0000
1000
0010
1000
,
0001
1001
0002
0023
,
0230
2300
3020
0230
,
0302
0000
0003
2000
,
3200
0320
0032
2003
,
3010
1000
0001
0100
0010
0000
0010
0000
,
0100
0001
0010
0100
2000
0000
0000
0000
,
3000
0000
0010
1000
0010
1000
0001
1000
,
0010
1000
0001
0100
0020
0000
0030
0000
,
0100
0001
1000
0100
1000
0000
0001
0000
,
0100
0000
0010
0100
0010
0000
1000
0000
,
0001
0010
0001
1000
0010
0000
0010
0100
,
0001
0000
1000
0000
0100
0000
1000
0100
,
1000
0000
1100
0000
0011
0000
0001
0100
,
0010
0000
0100
0000
0001
0000
1000
0010
,
1000
0001
1000
0000
0010
0000
0100
0001
,
0100
0001
0100
0000
0010
1000
0010
0000
,
1010
0000
0101
0000
0001
0000
1000
0001
,
1000
0000
0001
0000
0100
0000
0001
0100
,
0001
0100
0010
0100
0001
0000
0001
0010
,
0100
0000
1000
0000
0010
0000
1000
0010
,
1000
0001
1000
0010
1000
0000
0001
0100
,
0001
0000
1000
0000
0100
0000
0010
0001
,
0100
0010
0100
0001
1000
0000
0010
0100
,
0001
0100
0010
0000
1000
0100
0010
0000
,
0011
1100
M00M
0001
,
0100
1000
0100
0001
,
1000
0010
0001
0010
,
1000
0001
0001
0100
,
0100
0000
0010
0000
1000
0000
0001
0010
,
0100
1000
0001
0010
0100
1000
0001
1000
,
0001
1000
0010
1000
0001
0000
0000
0000
,
0100
0000
0010
0000
1000
0010
1000
0000
,
1010
0000
0000
0000
0010
0000
1000
0010
,
1000
0000
0001
0000
1000
0000
0100
1000
,
0100
0000
0010
0001
0010
0000
0001
1000
,
0010
0000
0100
0000
0001
0000
1000
0100
,
1000
0000
0010
1000
0010
0000
0100
0001
,
0100
0000
0001
0000
0010
0000
0001
0010
,
0001
0000
0100
0001
0100
0000
0010
0100
,
0010
0000
1000
0000
0001
1000
0001
0000
,
1001
0110
0000
0020
,
0230
0302
2003
3200
,
0320
0000
0030
0002
,
0203
0320
0230
0302
,
1003
0100
0010
0001
1000
0000
0010
0000
,
0100
0001
1000
0001
0200
0000
0000
0000
,
0300
0000
0010
1000
0010
1000
0001
0100
,
0001
0010
0100
0100
2000
0000
3000
0000
,
0001
1000
0010
1000
0001
0000
0100
0000
,
0001
0000
1000
0100
1000
0000
0001
1000
,
0010
1000
0001
0100
0001
0000
0010
0001
,
0010
0000
0001
0000
0100
0000
0010
0100
,
0010
0000
0110
0000
1001
0000
0001
1000
,
0010
0000
0100
0000
0001
0000
1000
0001
,
1000
0001
0010
0001
0100
0000
0100
0001
,
0100
0010
0100
0000
0001
1000
0010
0000
,
1010
0000
0101
0000
0001
0000
1000
0001
,
1000
0000
0001
0000
1000
0000
0010
0010
,
1000
0010
0100
0001
1000
0000
0100
0010
,
0001
0000
0100
0000
0010
0000
0100
0001
,
0100
0001
0010
0001
0100
0000
0010
1000
,
0001
0000
1000
0000
0001
0000
0100
0010
,
0100
0000
0001
1000
0001
0000
0000
1000
,
0010
0100
0001
0000
1000
0100
0010
0000
,
0011
1100
M00M
0000
;
