#TITLE:Kill This Love;
#SUBTITLE:;
#ARTIST:Blackpink;
#TITLETRANSLIT:;
#SUBTITLETRANSLIT:;
#ARTISTTRANSLIT:;
#GENRE:;
#CREDIT:;
#MUSIC:Kill This Love.ogg;
#BANNER:Kill This Love.png;
#BACKGROUND:Kill This Love-BG.png;
#CDTITLE:;
#SAMPLESTART:72.206;
#SAMPLELENGTH:13.381;
#SELECTABLE:YES;
#OFFSET:0.010;
#BPMS:0.000=132.000
,202.000=66.000
,206.000=132.000
;
#STOPS:;
#BGCHANGES:1.750=Kill This Love.avi=1.000=1=0=0=StretchNoLoop==CrossFade==,
99999.000=-nosongbg-=1.000=0=0=0=StretchNoLoop====
;
#FGCHANGES:;

//--------------- dance-single - Alex ----------------
#NOTES:
     dance-single:
     Alex:
     Beginner:
     1:
     0,0,0,0,0:
0000
0000
0000
0000
,
0000
0000
0000
0000
,
0000
0000
0000
0000
,
0000
0000
0000
0000
,
0000
0000
1000
0000
,
0000
0000
0010
0000
,
0000
0000
1000
0000
,
0000
0000
0001
0000
,
0000
0000
0100
0000
,
0000
0000
0001
0000
,
0000
0000
1000
0000
,
0000
0000
0010
0000
,
0000
0000
1000
0000
,
0000
0000
0001
0000
,
0000
0000
0100
0000
,
0000
0000
0010
0000
,
0000
0000
1001
0000
,
0000
0000
0001
0000
,
0000
0000
0100
0000
,
0000
0000
0001
0000
,
0000
0000
1000
0000
,
0000
0000
0010
0000
,
0000
0000
1000
0000
,
0000
0000
0001
0000
,
0000
0000
1001
0000
,
0000
0000
0000
0000
,
0000
0000
0110
0000
,
0000
0000
0000
0000
,
0000
0000
0011
0000
,
0000
0000
0000
0000
,
0000
0000
1100
0000
,
0000
0000
0000
0000
,
0000
0000
1000
0000
,
0000
0000
0001
0000
,
0000
0000
1000
0000
,
0000
0000
0010
0000
,
0000
0000
0100
0000
,
0000
0000
0010
0000
,
0000
0000
0100
0000
,
0000
0000
0001
0000
,
0000
0000
1001
0000
,
0000
0000
0000
0000
,
0000
0000
0010
0000
,
0000
0000
1000
0000
,
0000
0000
0001
0000
,
0000
0000
1000
0000
,
0000
0000
0100
0000
,
0000
0000
0100
0000
,
0000
0000
1000
0000
,
0000
0000
0010
0000
,
0000
0000
0100
0000
,
0000
0000
0001
0000
,
0000
0000
0010
0000
,
0000
0000
0001
0000
,
0000
0000
1000
0000
,
0000
0000
0010
0000
,
0000
0000
1000
0000
,
0000
0000
0100
0000
,
0000
0000
1000
0000
,
0000
0000
1001
0000
,
0000
0000
0010
0000
,
0000
0000
0100
0000
,
0000
0000
0100
0000
,
0000
0000
0010
0000
,
0000
0000
1000
0000
,
0000
0000
0001
0000
,
0000
0000
0100
0000
,
0000
0000
0010
0000
;

//--------------- dance-single - Alex ----------------
#NOTES:
     dance-single:
     Alex:
     Easy:
     2:
     0,0,0,0,0:
0000
0000
0000
0000
,
0000
0000
0000
0000
,
0000
0000
0000
0000
,
0000
0000
0000
0000
,
0000
0000
0010
0000
,
0010
0000
0100
0000
,
0001
0000
1000
0000
,
0001
0000
1001
0000
,
0000
0000
0010
0000
,
0100
0000
0010
0000
,
0010
0000
1000
0000
,
0001
0000
0100
0000
,
0001
0000
1000
0000
,
0010
0000
1000
0000
,
1000
0000
0001
0000
,
0100
0000
0010
0010
,
0010
0000
1001
0000
,
0000
0000
0001
0100
,
0001
0000
1000
0000
,
1000
0000
0010
1000
,
0010
0000
1010
0000
,
0100
0000
0001
0000
,
1000
0000
0001
0000
,
0100
0000
0010
0100
,
0010
0000
1001
0000
,
0000
0000
0110
0000
,
0000
0000
1001
0000
,
0000
0000
0010
0000
,
0010
0000
1010
0000
,
0000
0000
1100
0000
,
0000
0000
0011
0000
,
0000
0000
0001
0000
,
0100
0100
0200
0000
,
0300
0000
0010
0010
,
0010
0010
1001
0000
,
0000
0000
0001
0001
,
1000
1000
1001
0000
,
0000
0000
0001
0000
,
0000
0000
1000
0000
,
1000
0000
1000
0000
,
0000
0000
0110
0000
,
0000
0000
0110
0000
,
0000
0000
0010
0000
,
0010
0000
0010
0000
,
0000
0000
1000
0000
,
0001
0000
1000
0000
,
0000
0000
0001
0000
,
0100
0000
0001
0000
,
0000
0000
1000
0000
,
0010
0000
1000
0000
,
0100
0100
0100
0000
,
0000
0000
1001
0000
,
0001
0000
1000
0000
,
0001
0000
0200
0000
,
0300
0000
0000
0000
,
0000
0000
0010
0000
,
1000
0000
0001
0000
,
0010
0000
0002
0000
,
0003
0000
0000
0000
,
0000
0000
0100
0100
,
0100
0000
0010
0000
,
0010
0000
1000
1000
,
1000
0000
0001
0000
,
0001
0000
0100
0100
,
0100
0000
0010
0000
,
1000
0000
0001
0001
,
0001
0000
1000
1000
,
1000
0000
1001
0000
;

//--------------- dance-single - Alex ----------------
#NOTES:
     dance-single:
     Alex:
     Medium:
     5:
     0,0,0,0,0:
0000
0000
0000
0000
,
0000
0000
0000
0000
,
0000
0000
0000
0000
,
0000
0000
0000
0000
,
0000
0000
0010
0010
,
0100
0100
0001
0001
,
1000
1000
0001
0010
,
0100
1000
2002
0000
,
3003
0000
0001
0100
,
0010
0010
1000
0001
,
0100
0100
0001
1000
,
0100
0100
1000
1000
,
0010
0010
0100
0001
,
0010
0100
0010
0001
,
0100
0010
1000
0001
,
1000
0100
1000
0001
,
2002
3003
0001
0100
,
0020
0030
1000
0100
,
0020
0030
0001
1000
,
0002
0003
1000
0010
,
2000
3000
0001
0100
,
0001
0001
1000
0010
,
1000
1000
0010
0100
,
0001
1000
0100
0010
,
0001
1000
1001
0000
,
0010
0000
1001
0000
,
0100
0000
2002
0000
,
3003
0000
0010
0000
,
0100
0000
0110
0000
,
1000
0000
0110
0000
,
0001
0000
0220
0000
,
0330
0000
1000
0000
,
0001
0100
0020
0000
,
0030
1000
0001
0100
,
0010
1000
0001
0010
,
0200
0300
1000
0001
,
0100
0010
1000
0001
,
1000
0001
0100
0001
,
0100
0001
0010
0001
,
0010
0001
0100
0110
,
1010
1100
2002
0000
,
0000
0000
3003
0001
,
0001
1000
1001
0001
,
0100
0010
1000
0100
,
0010
0100
1000
0001
,
0100
0010
1000
0001
,
0001
0100
0010
1000
,
0100
1000
1000
0001
,
0100
0010
0100
0001
,
0010
0100
1000
0001
,
0100
0010
1001
0000
,
0000
0000
1000
0001
1000
0000
1000
0000
,
0001
0000
0001
0001
,
1000
0000
0010
0100
,
0010
0000
0100
0001
,
0100
0000
0010
1000
,
0010
0000
1000
0001
,
1000
0000
0001
0010
,
0001
0000
2002
0000
,
3003
0000
0010
0010
,
0100
0100
0001
1000
,
0100
1000
1000
0001
,
0100
0010
1000
0001
,
0010
0100
1000
0001
,
0100
0010
0100
0100
,
0001
0001
1000
0100
,
0010
0001
0100
0010
,
1000
0001
0022
0000
,
0033
0000
0000
0000
;

//--------------- dance-single - Alex ----------------
#NOTES:
     dance-single:
     Alex:
     Hard:
     8:
     0,0,0,0,0:
0000
0000
0000
0000
,
0000
0000
0000
0000
,
0MM0
M00M
0MM0
0000
,
0000
0000
0000
0M00
0000
0000
00M0
0000
0000
0M00
0000
00M0
,
0M00
0000
0M00
00M0
0000
0000
1000
0000
0000
0001
0000
1000
,
0010
0000
0000
0100
0000
0001
0010
0000
0000
0100
0000
1000
,
0001
0000
0001
0100
0000
0100
0010
0000
0010
1000
0000
1000
,
0001
0000
0001
0010
0000
0010
0004
0040
0000
0000
0000
0000
,
0000
0000
0000
0000
0033
0000
0001
0000
0100
0001
0000
0001
,
1000
0000
0000
0010
0000
1000
0010
0000
0010
0100
0000
0100
,
0001
0000
0000
1000
0000
0100
1000
0000
1000
0010
0000
0010
,
1000
0000
0000
0001
0000
0010
0001
0000
0001
0100
0000
0100
,
0010
0000
0000
1000
0000
0001
0100
0000
0100
0001
0000
0001
,
1000
0000
0000
0010
0000
1000
0100
0000
0100
1000
0000
1000
,
0010
0000
0000
1000
0000
0001
0100
0000
0100
0001
0000
0001
,
1000
0000
0000
0010
0000
0100
0001
0000
0001
1000
0000
1000
,
0002
0000
0000
0003
0000
0000
1000
0010
1000
0010
1000
0010
,
1000
0000
0000
0001
0000
0000
0100
0001
0100
0001
0100
0001
,
0100
0000
0000
0010
0000
0000
1000
0001
1000
0001
1000
0001
,
1000
0000
0000
0001
0000
0000
0100
0001
0100
0001
0100
0001
,
0100
0000
0000
0010
1000
0010
1000
0010
1000
0010
1000
0010
,
1000
0000
1000
0001
1000
0001
0100
0000
0100
0010
0100
0010
,
0100
0000
0000
0010
1000
0010
1000
0010
1000
0010
1000
0010
,
1000
0010
1000
0010
0100
0010
0100
0010
0100
0010
0100
0010
,
0100
0000
0000
0000
0010
0000
0000
0000
0100
0000
0000
0000
0010
0000
0000
0000
0000
0000
0000
0000
0000
0000
0000
0000
1000
0000
0000
0001
0000
0000
2000
0000
0000
0000
0000
0000
3000
0000
0000
0000
0000
0000
0000
0000
0000
0000
0000
0000
,
0010
0100
0020
0000
0030
0000
0000
0000
0100
0001
0200
0000
0300
0000
0000
0000
,
0010
1000
0020
0000
0030
0000
1000
0000
0002
0000
0000
0000
0000
0000
0000
0000
,
0003
0000
0000
0100
0020
0000
0030
1000
,
0200
0000
0000
0000
0300
0000
0010
0000
0001
0010
0002
0000
0003
0000
0000
0000
,
0100
0010
0200
0000
0300
0000
0000
0000
0001
1000
0002
0000
0003
0000
0000
0000
,
1000
0010
2000
0000
3000
0000
0001
0000
0200
0000
0000
0000
0000
0000
0000
0000
,
0300
0000
0000
0010
2000
0000
3000
0001
,
0100
0010
1000
0001
0020
0000
0000
0000
,
0030
0001
0100
0010
0100
0001
1000
0100
,
0010
0000
0001
0000
0100
0010
1000
0200
,
0000
0000
0300
0000
1000
0010
1000
0001
,
0010
0000
0000
0100
0000
0000
1000
0000
0000
0001
0000
0000
0100
0000
0010
0000
0100
0000
0010
0000
0100
0000
0010
0000
,
0100
0000
0010
0000
0100
0000
0020
0000
0000
0030
0000
0000
0010
0000
1000
0000
0010
0000
1000
0000
0010
0000
1000
0000
,
0010
0000
1000
0000
0010
0000
2000
0000
0000
3000
0000
0000
1000
0000
0001
0000
1000
0000
0001
0000
1000
0000
0001
0000
,
1000
0001
1000
0001
1000
0001
1000
0000
0000
0010
0000
0000
,
1000
0000
0000
1001
0000
0000
0110
0000
0000
0010
0000
0100
,
0010
0000
0000
0100
0000
0001
1000
0000
0000
0100
0000
1000
,
0001
0000
0001
1000
0000
0000
1001
0000
0000
0001
0000
0100
,
0001
0000
0000
0100
0000
0010
1000
0000
0000
0001
0000
0010
,
0001
0000
0001
0100
0000
0100
0010
0000
0000
1000
0000
0100
,
1000
0000
0000
1000
0000
0001
0100
0000
0000
0101
0000
0000
,
1010
0000
0000
1100
0000
0000
1001
0000
0000
0001
0000
0100
,
0010
0000
0000
0100
0000
0001
1000
0000
0000
0100
0000
0010
,
0001
0000
0001
0100
0000
0100
0010
0000
0000
1000
0000
0001
,
1000
0000
0000
0010
0000
1000
0100
0000
0000
1000
0000
0001
,
0100
0000
0000
0000
0000
0000
0000
0000
0001
0000
0000
0000
0000
0000
0000
0000
0100
0000
0000
0000
0000
0000
0000
0000
0001
0000
0000
0000
0000
0000
0000
0000
0100
0000
0000
0000
0000
0000
0000
0000
0001
0000
0000
0000
0000
0000
0000
0000
0100
0000
0000
0000
0000
0000
0000
0000
0000
0000
0000
0000
MMMM
0000
0000
0000
0000
0000
0000
MM0M
0000
0000
0000
0000
0000
0000
M0MM
0000
0000
0000
0000
0000
0000
MMMM
0000
0000
0000
0000
0000
0000
0000
0000
0000
0000
MMMM
0000
0000
0000
,
0000
0000
0000
MMMM
0000
0000
0000
0000
0000
0000
M000
0000
0000
0000
0000
0000
0000
M000
0000
0000
0000
0000
0000
0000
0001
0000
0000
0000
1000
0000
0000
0000
0001
0000
0000
0000
1000
0000
0000
0000
0001
0000
0000
0000
1000
0000
0000
0000
0001
0000
0000
0000
0000
0000
0000
0000
0000
0000
0000
0000
0000
0000
0000
0000
1000
0000
0000
0000
0000
0000
0000
0000
0010
0000
0000
0000
0000
0000
0000
0000
0000
0000
0000
0000
0000
0000
0000
0000
0010
0000
0000
0000
0000
0000
0000
0000
,
1000
0000
0000
0001
0000
0100
0001
0000
0001
0010
0000
0100
,
1000
0000
0000
0010
0000
0100
0001
0000
0001
1000
0000
1000
,
0010
0000
0000
1000
0000
0001
0010
0000
0010
0001
0000
0001
,
0100
0000
0000
0010
0000
1000
0100
0000
0100
1000
0000
1000
,
0010
0000
0000
1000
0000
0001
1000
0000
1000
0010
0000
0010
,
0100
0000
0000
0001
0000
0010
0100
0000
0100
0010
0000
0001
,
0100
0000
0000
0000
0000
0000
0010
0000
0000
0000
1000
0000
0002
0000
0000
0000
0000
0000
0000
0000
0000
0003
0000
0000
,
0000
0000
0000
1000
0000
0000
0010
0000
0000
0000
0000
0000
1010
0000
0000
0000
0010
0000
1000
0000
0000
0000
1000
0000
,
0010
0000
0010
0100
0000
0100
0001
0000
0001
1000
0000
1000
,
0001
0000
0001
0010
0001
0010
0001
0000
0100
0001
0000
0001
,
0100
0000
0100
0010
0000
0010
1000
0000
1000
0001
0000
0001
,
1000
0000
1000
0100
1000
0100
1000
0000
1000
0010
0000
0010
,
1000
0000
1000
0001
0000
0001
0100
0000
0100
0010
0000
0010
,
0100
0000
0100
0001
0100
0001
0100
0000
0100
0010
0000
0010
,
1000
0000
1000
0001
0000
0001
0010
0000
0000
0011
0000
0000
,
0101
0110
2002
0000
,
3003
0000
0000
0000
;
