#TITLE:Jump;
#SUBTITLE:;
#ARTIST:Blackpink;
#TITLETRANSLIT:;
#SUBTITLETRANSLIT:;
#ARTISTTRANSLIT:;
#GENRE:;
#CREDIT:;
#MUSIC:Jump.ogg;
#BANNER:Jump.png;
#BACKGROUND:Jump-BG.png;
#CDTITLE:;
#SAMPLESTART:28.794;
#SAMPLELENGTH:20.922;
#SELECTABLE:YES;
#OFFSET:0.139;
#BPMS:0.000=145.000
,79.000=72.500
,79.250=217.500
,80.000=145.000
,111.000=72.500
,111.250=217.500
,112.000=145.000
,143.000=72.500
,143.250=217.500
,144.000=145.000
,239.000=72.500
,239.250=217.500
,240.000=145.000
,247.000=290.000
,248.000=217.500
,248.750=72.500
,249.000=145.000
,271.000=72.500
,271.250=217.500
,272.000=145.000
,320.000=217.500
,320.750=72.500
,321.000=145.000
,335.000=72.500
,346.000=145.000
;
#STOPS:247.000=0.095
,247.500=0.095
;
#BGCHANGES:;
#FGCHANGES:;

//--------------- dance-single - Alex ----------------
#NOTES:
     dance-single:
     Alex:
     Beginner:
     1:
     0,0,0,0,0:
0000
0000
0000
0000
,
0000
0000
0000
0000
,
0000
0000
0000
0000
,
0000
0000
0000
0000
,
0000
1001
0000
0000
,
0000
0001
0000
0000
,
0000
0100
0000
0000
,
0000
0010
0000
0000
,
0000
0010
0000
0000
,
0000
0100
0000
0000
,
0000
0001
0000
0000
,
0000
0001
0000
0000
,
0000
1000
0000
0000
,
0000
1000
0000
0000
,
0000
0010
0000
0000
,
0000
0010
0000
0000
,
0000
1000
0000
0000
,
0000
0001
0000
0000
,
0000
1000
0000
0000
,
0000
0001
0000
0001
,
0000
0001
0000
0000
,
0000
1000
0000
0000
,
0000
0001
0000
0000
,
0000
0100
0000
0000
,
0000
0100
0000
0000
,
0000
0010
0000
0000
,
0000
0010
0000
0000
,
0000
0100
0000
0000
,
0000
1001
0000
0000
,
0000
0001
0000
0000
,
0000
0010
0000
0000
,
0000
0001
0000
0000
,
0000
1000
0000
0000
,
0000
1000
0000
0000
,
0000
0010
0000
0000
,
0000
0100
0000
0100
,
0000
0100
0000
0000
,
0000
0010
0000
0000
,
0000
0100
0000
0000
,
0000
0001
0000
0000
,
0000
1000
0000
0000
,
0000
0010
0000
0000
,
0000
0010
0000
0000
,
0000
1000
0000
0000
,
0000
1001
0000
0000
,
0000
0001
0000
0000
,
0000
0100
0000
0000
,
0000
0001
0000
0000
,
0000
0010
0000
0000
,
0000
0001
0000
0000
,
0000
1000
0000
0000
,
0000
1000
0000
0000
,
0000
1001
0000
0000
,
0000
0010
0000
0000
,
0000
0100
0000
0100
,
0000
0100
0000
0000
,
0000
0001
0000
0000
,
0000
0001
0000
0000
,
0000
1000
0000
0000
,
0000
0010
0000
0000
,
0000
1001
0000
0000
,
0000
0000
0000
0000
,
0000
1001
0000
0000
,
0000
0100
0000
0000
,
0000
0010
0000
0000
,
0000
0010
0000
0000
,
0000
0100
0000
0000
,
0000
0001
0000
0000
,
0000
1000
0000
0000
,
0000
1000
0000
0000
,
0000
0001
0000
0000
,
0000
1000
0000
0000
,
0000
0010
0000
0000
,
0000
0010
0000
0000
,
0000
1000
0000
0000
,
0000
0001
0000
0001
,
0000
0001
0000
0000
,
0000
1000
0000
0000
,
0000
0001
0000
0000
,
0000
0100
0000
0000
,
0000
0010
0000
0000
,
0000
0100
0000
0000
,
0000
0001
0000
0000
,
0000
1000
0000
0000
,
0000
0000
0000
0000
,
0000
0000
0000
0000
,
0000
0000
0100
0000
,
0000
0000
0010
0000
,
0000
0000
0100
0000
,
0000
0000
0001
0000
,
0000
0000
0001
0000
,
0000
0000
1000
0000
,
0000
0000
1000
0000
,
0000
0000
0010
0000
,
0000
1001
0000
0000
;

//--------------- dance-single - Alex ----------------
#NOTES:
     dance-single:
     Alex:
     Easy:
     3:
     0,0,0,0,0:
0000
0000
0000
0000
,
0000
0000
0000
0000
,
0000
0000
0000
0000
,
0000
0000
0000
0000
,
0000
0100
0000
0010
,
0000
0100
0000
0001
,
0000
1000
0000
1000
,
0000
0001
0000
0001
,
0000
0010
0000
0001
,
0000
0100
0000
0010
,
0000
1000
0000
0001
,
0000
1000
0000
1000
,
0000
0001
0100
0001
,
0000
1000
0010
1000
,
0000
0001
0000
1000
,
0000
0010
0000
0100
,
0000
0001
0001
0010
,
0000
0001
0001
0100
,
0000
0010
0000
1000
,
0000
0001
1000
0002
,
0003
1000
0000
0001
,
0000
1000
0001
1000
,
0000
0010
0000
0100
,
0000
0010
0100
0010
,
0000
1000
0000
0001
,
0000
1000
0001
1000
,
0000
0001
0000
0100
,
0000
0010
0100
0220
,
0330
0000
0000
0100
,
0100
0001
0001
2000
,
3000
0000
0000
0001
,
0100
0001
0100
0020
,
0030
0000
0000
0100
,
0100
0010
0010
2000
,
0000
3000
0000
0000
,
0000
0001
1000
0002
,
0003
1001
0000
0010
,
0000
1001
0000
0100
,
0000
0001
1000
0001
,
1000
0002
0000
0003
,
0000
0101
0000
0010
,
0000
1100
0000
1000
,
0000
0001
1000
0001
,
1000
0020
0000
0030
,
0000
0100
0000
0001
,
0000
0100
0000
0001
,
0000
1000
0000
0010
,
0000
1000
0000
0001
,
0000
1000
0000
0100
,
0000
0010
0000
0001
,
0000
1000
0000
0001
,
0000
0010
0000
0001
,
0000
1000
0010
1000
,
0000
0001
0100
0001
,
0000
1000
0000
0001
,
0000
1000
0000
1000
,
0000
0010
0100
0010
,
0000
0100
0010
0100
,
0000
0001
0000
1000
,
0000
0001
1000
0002
,
0003
1001
0000
0000
,
0000
1001
0000
0000
,
0000
0001
0000
1000
,
0000
0001
0100
0001
,
0000
1000
0000
0010
,
0000
1000
0010
1000
,
0000
0001
0000
0010
,
0000
0100
1000
2200
,
3300
0000
0000
1000
,
1000
0001
0001
0200
,
0300
0000
0000
0010
,
0010
0100
0100
0002
,
0003
0000
0000
1000
,
1000
0001
0001
2000
,
3000
0000
0000
0001
,
1000
0001
1000
1000
,
0000
1001
0000
0100
,
0000
0110
0000
0010
,
0000
1000
0001
1000
,
0001
2000
0000
3000
,
0000
1001
0000
0010
,
0000
0110
0000
0100
,
0000
0001
0010
0001
,
0010
0002
0003
0000
,
0000
0000
0000
0000
,
0000
0000
0000
0000
,
0000
0000
0001
0000
,
0001
0000
1000
0000
,
1000
0000
0010
0000
,
0010
0000
0100
0000
,
0100
0000
0001
0000
,
1000
0000
0001
0000
,
1000
0000
0010
0000
,
0100
0000
0001
0000
,
1000
0020
0030
0000
;

//--------------- dance-single - Alex ----------------
#NOTES:
     dance-single:
     Alex:
     Medium:
     6:
     0,0,0,0,0:
0000
0000
0000
0000
,
0000
0000
0000
0000
,
0000
0000
0000
0000
,
0000
0000
0000
0000
,
0000
0001
0100
0010
,
1000
0001
0010
0100
,
1000
0001
1000
0010
,
0100
0001
0010
0001
,
0001
1000
0010
0100
,
0001
1000
0100
0010
,
0100
1000
0001
0100
,
0010
0100
0100
0001
,
1000
0010
0100
0002
,
0003
1000
0100
0020
,
0030
0001
1000
0010
,
0100
0001
0001
1000
,
1000
0001
0010
0200
,
0300
1000
0010
0100
,
0001
0001
1000
0100
,
0010
0001
0100
0110
,
0220
0330
0010
1000
,
0001
0100
0100
1001
,
0220
0330
0010
1000
,
0100
0010
0001
0101
,
2020
3030
0001
0010
,
0100
1000
0001
0101
,
0220
0330
0010
1000
,
0100
0010
0001
2002
,
3003
0001
0100
0010
,
0100
0001
1000
0200
,
0300
1000
0001
0010
,
0100
1000
0001
0200
,
0300
0001
1000
0010
,
1000
0001
0010
0002
,
0003
0101
0000
0010
,
0000
1000
1000
1001
,
0110
0010
0000
0100
,
0001
2000
3000
0001
,
1000
0010
1000
0001
,
0001
0200
0000
0300
,
0000
0020
0030
1000
,
0001
0020
0030
0001
,
0100
0010
0100
0001
,
1000
0200
0000
0300
,
0000
1000
0001
1000
,
1000
0001
0100
0001
,
0001
1000
0010
0010
,
0100
0001
0010
0100
,
1000
1000
0001
1000
,
0010
1000
0001
0010
,
0010
0001
0100
0010
,
0100
0001
0010
0100
,
1000
0001
0001
2000
,
3000
0010
0100
0002
,
0003
1000
0100
0010
,
0001
0100
0010
1000
,
1000
0001
0010
0002
,
0003
1000
0010
1000
,
1000
0001
0100
0010
,
0100
0001
0001
1001
,
0220
0330
00M0
0000
,
0M00
0000
0000
0000
00M0
0000
1000
0001
,
2000
3000
0001
0000
0100
0000
0010
0000
,
0010
0100
0001
1001
,
0220
0330
0010
1000
,
0100
0010
0100
1100
,
0022
0033
0001
0100
,
0010
0100
0100
2002
,
3003
0001
1000
0010
,
1000
0001
0010
0002
,
0003
0100
0010
0100
,
0100
0001
1000
0200
,
0300
1000
0001
0010
,
0100
1000
0001
0200
,
0300
1001
0000
0010
,
0000
0100
0100
0010
,
0010
2000
3000
0001
,
0010
0002
0003
0100
,
0010
1000
0100
0010
,
0001
0200
0000
0300
,
0000
0002
0003
1000
,
0010
2000
3000
0001
,
0010
0100
1000
0010
,
0100
0000
0020
0000
0000
0000
0030
00M0
,
0000
0M00
0000
00M0
0000
0M00
0000
00M0
,
0000
0M00
0000
00M0
0000
0M00
0000
0010
,
0100
0010
0100
0010
0100
0000
0100
0000
,
0100
0100
0010
0010
,
0010
0010
1000
1000
,
1000
1000
0001
0001
,
0001
1001
0001
0100
,
0010
0100
0001
0001
,
1000
1000
0001
0010
,
0100
1000
0001
0100
,
0010
0200
0000
0300
;

//--------------- dance-single - Alex ----------------
#NOTES:
     dance-single:
     Alex:
     Hard:
     9:
     0,0,0,0,0:
0000
0000
0000
0000
,
0000
0000
0000
0000
,
0000
0000
0000
0000
,
0000
0000
0000
0000
,
0000
0000
1000
0000
0001
0000
1000
0001
,
1000
0000
0010
0000
0100
0000
0001
0010
,
0100
1000
0001
0000
1000
0000
0001
0100
,
0001
0100
0010
0100
0001
0000
0001
0010
,
0100
1000
0001
0000
1000
0000
0010
1000
,
0010
0000
0100
0000
0001
0000
1000
0100
,
0010
0100
1000
0001
0001
0000
0100
0010
,
0100
0000
0001
0000
0010
0000
0000
0000
0001
0000
0000
1000
0010
0000
0000
0000
,
1010
0000
0010
1000
0100
1000
0010
1000
,
0200
0300
1000
0001
0010
0001
1000
0001
,
0020
0030
0001
0100
0010
0100
0001
0100
,
0010
0100
0001
0000
1000
0000
0001
0100
,
0010
0000
0100
0000
0002
0000
0003
0000
1000
0000
0100
0000
0010
0001
0010
0000
,
0001
0000
0100
0000
0010
0000
0000
0000
0100
0000
0001
0000
1000
0001
1000
0000
,
0001
0100
0010
1000
0100
0010
0001
0100
,
0010
0000
1000
0000
0001
1000
0000
0000
1000
0001
0000
0000
1001
0000
0000
0000
,
0220
0330
0010
0100
0001
0100
0010
0100
,
0001
0000
0100
0000
0010
0000
0000
0010
0000
0000
0100
0000
0001
0000
0000
0000
,
1001
0000
0001
0100
0001
0100
0010
0100
,
0001
0000
1000
0000
0001
0000
0000
1000
0000
0000
0001
0000
1000
0000
0000
0000
,
1001
0000
0001
1000
0010
1000
0001
1000
,
0010
0000
1000
0000
0001
0000
0000
1000
0000
0000
0010
0000
0100
0000
0000
0000
,
0110
0000
0010
1000
0100
0010
0100
1000
,
0001
0000
0100
0000
0010
0000
0000
0010
0000
0000
0100
0000
0001
0000
0000
0000
,
0022
0033
0001
0100
0010
0100
0001
0100
,
0010
0000
0100
0000
0001
0000
0000
0001
0000
0000
1000
0000
0010
0000
0000
0000
,
1010
0000
0010
1000
0001
1000
0010
1000
,
0001
0000
0100
0000
0001
0000
0000
1000
0000
0000
0010
0000
0100
0000
0000
0000
,
0110
0000
0100
0001
0100
0001
1000
0010
,
1000
0000
0001
0000
0100
0000
0000
0100
0000
0000
0001
0000
1000
0000
0000
0000
,
0001
0000
2002
3003
0000
0001
0100
0010
,
0100
0000
0001
0000
0100
0010
0000
0000
0010
0100
0000
0000
0110
0000
0000
0000
,
2002
3003
0020
0000
0030
0100
0001
1000
,
0100
0010
0002
0000
0003
0000
0100
0010
,
0100
0001
0010
0100
1000
0001
0100
0010
,
1000
0001
2000
0000
0000
0000
3000
0000
,
0000
0000
0002
0000
0003
1000
0010
1000
,
0001
1000
0020
0000
0030
0000
0100
0001
,
0010
0001
0100
0010
0100
0001
1000
0100
,
0010
0001
0200
0000
0000
0000
0300
0000
,
0000
0000
0010
0000
1000
0010
1000
0010
,
1000
0000
0001
0000
0100
0001
0100
0001
,
0100
0000
0001
0000
1000
0001
1000
0001
,
1000
0000
0010
0000
0100
0001
0010
0001
,
0100
0000
0110
0000
0010
1000
0100
0010
,
0001
0000
1001
0000
0001
1000
0010
1000
,
0001
0000
0101
0000
0100
0001
0010
0100
,
1000
0000
1001
0000
0001
1000
0010
1000
,
0001
0100
0001
0000
1000
0100
1000
0100
,
1000
0010
0200
0300
0001
0010
0100
1000
,
0001
0100
0020
0030
0100
0100
0001
0001
,
1000
0100
1000
0000
0001
0000
0100
0010
,
0100
0000
0001
0000
1000
0000
0000
0000
0001
0000
0010
0000
0001
0010
0001
0000
,
0100
0000
0001
0000
1000
0000
0000
0000
1000
0000
0010
0000
1000
0010
1000
0000
,
0010
1000
0001
1000
0010
0100
0001
1000
,
0001
0000
0010
0000
0100
1000
0000
0000
1000
0100
0000
0000
1100
0000
0000
0000
,
0022
0033
M00M
0000
0000
0000
0MM0
0000
,
0000
0000
M00M
0000
0000
0000
0001
1000
,
2002
3003
0001
0100
0010
0100
0001
0100
,
0010
0000
0100
0000
0001
0000
0000
1000
0000
0000
0010
0000
0100
0000
0000
0000
,
0110
0000
0010
1000
0010
0100
0001
1000
,
0010
0000
0100
0000
0001
0000
0000
0001
0000
0000
1000
0000
0100
0000
0000
0000
,
1100
0000
0100
1000
0010
1000
0100
1000
,
0010
0000
0100
0000
0001
0000
0000
0001
0000
0000
1000
0000
0010
0000
0000
0000
,
2020
3030
0010
0100
0001
0100
0010
0100
,
0001
0000
1000
0000
0001
0000
0000
1000
0000
0000
0001
0000
0100
0000
0000
0000
,
0101
0000
0001
1000
0100
1000
0001
1000
,
0100
0000
1000
0000
0001
0000
0000
1000
0000
0000
0010
0000
0100
0000
0000
0000
,
0110
0000
0010
1000
0001
0010
0100
1000
,
0001
0000
0100
0000
0010
0000
0000
0100
0000
0000
0001
0000
1000
0000
0000
0000
,
0001
0000
1001
0000
0000
0001
0100
0010
,
0100
0000
0001
0000
0100
0001
0000
0000
0001
1000
0000
0000
1001
0000
0000
0000
,
0110
0000
0020
0000
0030
1000
0010
0100
,
0001
1000
0200
0000
0300
0000
1000
0001
,
1000
0001
0100
0001
1000
0010
1000
0001
,
0010
0100
2000
0000
0000
0000
3000
0000
,
MMMM
0000
0002
0000
0003
0001
0100
0010
,
0100
0001
2000
0000
3000
0000
0001
1000
,
0010
0100
0001
0010
0100
0010
0001
0100
,
0010
0100
0002
0000
0000
0000
0003
M000
,
0M00
0000
00M0
0000
000M
0000
00M0
0000
0M00
0000
M000
0000
0010
0100
0001
0100
,
0010
0000
1000
0000
0001
0000
1001
0000
0000
0000
0001
0000
0100
0010
0100
0001
,
1000
0001
0100
0010
0110
0000
1010
0000
,
1001
0011
0101
0101
,
1010
1010
1100
0011
,
0101
0110
1001
0011
,
0101
0110
1010
1100
,
0110
0011
0101
0110
,
1001
0011
0101
0110
,
1010
1100
0110
0011
,
0101
0220
0000
0330
;
