#TITLE:Item;
#SUBTITLE:;
#ARTIST:Stray Kids;
#TITLETRANSLIT:;
#SUBTITLETRANSLIT:;
#ARTISTTRANSLIT:;
#GENRE:;
#CREDIT:;
#MUSIC:Item.ogg;
#BANNER:Item.png;
#BACKGROUND:Item-BG.png;
#CDTITLE:;
#SAMPLESTART:53.657;
#SAMPLELENGTH:12.346;
#SELECTABLE:YES;
#OFFSET:0.000;
#BPMS:0.000=162.000;
#STOPS:;
#BGCHANGES:;
#FGCHANGES:;

//--------------- dance-single - Alex ----------------
#NOTES:
     dance-single:
     Alex:
     Beginner:
     1:
     0,0,0,0,0:
0000
0000
0000
0000
,
0000
0000
0000
0000
,
0000
0000
0000
0000
,
0000
0000
0000
0000
,
0000
0000
0001
0000
,
0000
0000
0001
0000
,
0000
0000
1000
0000
,
0000
0000
1000
0000
,
0000
0000
0010
0000
,
0000
0000
0010
0000
,
0000
0000
1000
0000
,
0000
0000
0001
0000
,
0000
0000
1000
0000
,
0000
0000
0100
0000
,
0000
0000
1000
0000
,
0000
0000
0010
0000
,
0000
0000
0100
0000
,
0000
0000
0100
0000
,
0000
0000
0010
0000
,
0010
0000
0010
0000
,
0000
0000
1001
0000
,
0000
0000
0000
0000
,
0000
0000
0110
0000
,
0000
0000
0000
0000
,
0000
0000
1001
0000
,
0000
0000
0000
0000
,
0000
0000
0110
0000
,
0000
0000
0000
0000
,
0000
0000
0100
0000
,
0000
0000
0000
0000
,
0000
0000
0010
0000
,
0000
0000
0000
0000
,
0000
0000
1000
0000
,
0000
0000
0000
0000
,
0000
0000
0001
0000
,
0000
0000
0000
0000
,
0000
0000
1000
0000
,
0000
0000
1000
0000
,
0000
0000
0001
0000
,
0000
0000
0001
0000
,
0000
0000
0100
0000
,
0000
0000
0100
0000
,
0000
0000
0010
0000
,
0010
0000
0010
0000
,
0000
0000
1000
0000
,
0000
0000
1000
0000
,
0000
0000
0001
0000
,
0000
0000
0001
0000
,
0000
0000
1000
0000
,
0000
0000
1000
0000
,
0000
0000
0001
0000
,
0001
0000
0001
0000
,
0000
0000
1001
0000
,
0000
0000
0000
0000
,
0000
0000
0110
0000
,
0000
0000
0000
0000
,
0000
0000
1001
0000
,
0000
0000
0000
0000
,
0000
0000
0110
0000
,
0000
0000
0000
0000
,
0000
0000
0010
0000
,
0000
0000
0000
0000
,
0000
0000
1000
0000
,
0000
0000
0000
0000
,
0000
0000
0001
0000
,
0000
0000
0000
0000
,
0000
0000
0100
0000
,
0000
0000
0000
0000
,
0000
0000
0001
0000
,
0000
0000
0001
0000
,
0000
0000
0100
0000
,
0000
0000
0100
0000
,
0000
0000
0010
0000
,
0000
0000
0010
0000
,
0000
0000
1000
0000
,
1000
0000
1000
0000
,
0000
0000
1001
0000
,
0000
0000
0000
0000
,
0000
0000
0010
0000
,
0000
0000
0000
0000
,
0000
0000
0100
0000
,
0000
0000
0000
0000
,
0000
0000
0001
0000
,
0001
0000
0001
0000
,
0000
0000
1000
0000
,
0000
0000
1000
0000
,
0000
0000
0001
0000
,
0000
0000
0001
0000
,
0000
0000
0100
0000
,
0000
0000
0100
0000
,
0000
0000
0010
0000
,
0010
0000
0010
0000
,
0010
0000
0000
0000
;

//--------------- dance-single - Alex ----------------
#NOTES:
     dance-single:
     Alex:
     Easy:
     3:
     0,0,0,0,0:
0000
0000
0000
0000
,
0000
0000
0000
0000
,
0000
0000
0000
0000
,
0000
0000
0000
0000
,
0000
0000
1000
0000
,
1000
0000
1000
0000
,
1000
0000
0001
0000
,
0001
0000
0001
0000
,
1001
0000
0010
0000
,
0010
0000
0100
0000
,
0100
0000
0001
0000
,
0001
0000
1001
0000
,
0000
0000
1000
0000
,
0010
0000
1000
0000
,
0000
0000
0001
0000
,
0100
0000
0001
0000
,
0000
0000
1000
0000
,
0100
0000
1000
0000
,
0000
0000
0010
0010
,
0100
0100
0010
0010
,
1001
0000
0001
0000
,
0001
0000
1000
0000
,
1000
0000
0010
0000
,
0100
0000
1001
0000
,
0000
0000
0001
0000
,
0001
0000
0010
0000
,
0010
0000
0001
0000
,
0100
0000
0010
0000
,
1000
0000
0001
0001
,
0001
0000
1000
1000
,
1000
0000
0010
0010
,
0010
0000
0100
0000
,
0000
0000
0001
0001
,
0001
0000
0100
0100
,
0100
0000
0010
0010
,
0010
0000
1010
0000
,
0000
0000
0010
0000
,
0010
0000
1000
0000
,
1000
0000
0001
0000
,
0001
0000
0100
0000
,
0100
0000
0001
0000
,
1000
0000
0001
0000
,
1000
0000
0010
0010
,
0100
0100
0010
0010
,
1001
0000
0001
0000
,
0001
0000
1000
0000
,
1000
0000
0010
0000
,
0010
0000
1000
0000
,
0001
0000
0100
0000
,
0100
0000
0010
0000
,
0010
0000
1000
1000
,
0001
0001
1000
1000
,
1001
0000
0001
0000
,
1000
0000
0001
0000
,
0100
0000
0010
0000
,
1000
0000
1001
0000
,
0000
0000
0001
0000
,
0001
0000
1000
0000
,
1000
0000
0010
0000
,
0010
0000
0100
0000
,
0100
0000
0001
0001
,
0001
0000
1000
1000
,
1000
0000
0010
0010
,
0010
0000
0100
0000
,
0000
0000
0100
0100
,
0100
0000
0010
0010
,
0010
0000
1000
1000
,
1000
0000
1001
0000
,
0000
0000
0010
0000
,
0010
0000
0100
0000
,
0100
0000
0001
0000
,
0001
0000
1000
0000
,
1000
0000
0001
0000
,
1000
0000
0001
0000
,
1000
0000
0010
0010
,
0100
0100
0010
0010
,
1001
0000
0001
0000
,
0001
0000
0101
0000
,
0000
0000
0010
0000
,
0010
0000
1010
0000
,
0000
0000
1000
0000
,
1000
0000
1001
0000
,
0000
0000
0001
0001
,
1000
1000
0010
0010
,
0010
0010
0100
0000
,
0100
0000
0001
0000
,
0001
0000
1000
0000
,
1000
0000
0010
0000
,
0010
0000
1000
0000
,
0001
0000
0100
0000
,
0010
0000
1000
1000
,
0001
0001
1000
1000
,
1001
0000
0000
0000
;

//--------------- dance-single - Alex ----------------
#NOTES:
     dance-single:
     Alex:
     Medium:
     6:
     0,0,0,0,0:
0000
0000
0000
0000
,
0000
0000
0000
0000
,
0000
0000
0000
0000
,
0000
0000
0000
0000
,
0000
0000
0001
1000
,
0001
1000
0010
0100
,
0010
0100
0001
0010
,
0100
1000
0001
1000
,
0010
0010
1000
0100
,
0010
0100
1000
0001
,
0100
0000
0001
0010
,
0100
0010
0011
0101
,
0110
0000
0010
1000
,
0001
0100
0010
1000
,
0001
0000
1000
0100
,
0010
0100
1000
0001
,
0100
0000
0010
0010
,
0100
0100
0001
1000
,
0100
0000
0000
0000
1000
0001
1000
0000
,
0001
1000
0001
0000
1000
0001
1000
0000
,
1001
0000
0001
0000
,
1000
0000
0010
0000
,
0100
0000
0001
0010
,
0100
1000
0002
0000
,
0003
0000
1000
0000
,
0010
0000
0010
0000
,
1000
0000
0001
0001
,
0100
0100
0010
1000
,
0100
0000
0010
0000
0001
0000
0100
0020
,
0000
0000
1030
0000
0001
0000
1000
0002
,
0000
0000
1003
0000
0100
0000
0010
0002
,
0000
0103
0110
0000
,
0010
0000
1000
0000
0001
0000
0001
0200
,
0000
0000
0310
0000
0010
0000
1000
0200
,
0000
0000
1300
0000
1000
0000
0001
2000
,
0000
3001
1001
0000
,
0000
0001
0100
0001
,
1000
0010
1000
0001
,
0010
0100
1000
0001
,
0100
0010
0010
1001
,
0110
0000
0001
0000
,
1000
0000
0001
1000
,
0001
0000
0000
0000
1000
0001
1000
0000
,
0001
1000
0001
0000
1000
0001
1000
0000
,
1001
0000
0001
0010
,
0100
0010
0001
0100
,
0010
1000
0100
1000
,
0010
1000
0001
0100
,
0010
0010
1000
0001
,
0100
0010
0100
0001
,
1000
0000
0100
0000
0010
0001
0010
0000
,
0001
0010
0001
0000
0100
0001
0100
0000
,
0101
0000
0001
0000
,
0001
0000
1000
0000
,
1000
0000
0010
0000
,
0010
0000
1000
0001
,
1000
0000
0010
0000
,
0100
0000
0001
0000
,
1000
0000
0001
0001
,
0100
0100
0010
1000
,
0100
0000
1000
0000
0010
0000
0100
0002
,
0000
0000
0013
0000
0100
0000
1000
0200
,
0000
0000
1300
0000
1000
0000
0001
0200
,
0000
0310
1001
0000
,
0001
0000
1000
0000
0001
0000
0001
0200
,
0000
0000
0310
0000
1000
0000
0001
2000
,
0000
0000
3100
0000
1000
0000
0010
0200
,
0000
0301
1001
0000
,
0000
0000
0001
1000
,
0001
1000
0010
0100
,
0010
0100
0001
0010
,
0100
1000
0001
0001
,
1001
0000
1000
0010
,
1000
0001
0100
0010
,
0100
0000
0100
0000
0001
1000
0001
0000
,
1000
0001
1000
0000
0001
1000
0001
0000
,
1001
0000
0000
0001
,
0100
0010
1000
0100
,
1100
0011
0000
0001
,
0100
0010
0100
0001
,
1001
0110
0000
0010
,
0100
0001
0100
0010
,
1000
0000
1000
0000
0001
0010
0001
0000
,
0100
0001
0100
0000
0010
0000
0010
0000
,
0010
0010
1000
0001
,
0100
0010
1000
0001
,
0010
0100
1000
0001
,
0100
0010
1000
0001
,
1000
0000
0001
0010
,
0001
0100
0100
0010
,
1000
0000
0000
0000
0001
0100
0001
0000
,
1000
0010
1000
0000
0001
1000
0001
0000
,
1001
0000
0000
0000
;

//--------------- dance-single - Alex ----------------
#NOTES:
     dance-single:
     Alex:
     Hard:
     9:
     0,0,0,0,0:
0000
0000
0000
0000
,
0000
0000
0000
0000
,
0000
0000
0000
0000
,
0000
0000
0000
0000
,
0000
0000
0000
0000
0001
0010
0000
0000
0011
0000
0000
0000
0001
0100
0000
0000
,
0101
0000
0000
0000
0010
1000
0000
0000
1010
0000
0000
0000
1000
0100
0000
0000
,
1100
0000
0000
0000
0100
0010
0000
0000
0011
0000
0000
0000
0001
0100
0000
0000
,
1001
0000
0000
0000
0001
0000
1000
0000
0010
0100
0010
0000
1000
0001
0000
0000
,
1001
0000
0001
0010
0001
0000
0100
0010
,
0100
0000
0001
0000
1000
1000
0010
1000
,
0100
0010
1001
0001
,
1100
0000
0000
0000
0001
0000
0000
0000
0010
0001
0000
0000
0001
0100
0000
0000
,
0110
0000
0010
0000
0010
1000
0100
1000
,
0100
0000
0010
0001
0100
0010
0100
0000
,
0101
0000
1010
0000
0001
0010
0001
0100
,
0010
0000
1000
0001
0100
0001
1000
0000
,
1001
0000
0110
0000
0010
0100
0001
0100
,
0010
0000
0010
1000
0100
0010
0001
0100
,
0010
1000
0001
0000
0001
1000
0010
0000
,
0010
0100
0001
0000
1000
0100
0010
0000
,
0011
0000
0001
0100
0001
0000
1000
0010
,
1000
0000
0010
0100
0010
0000
0100
0001
,
0100
0000
0010
1000
0001
0000
0001
1000
,
0010
0000
0100
0001
0020
0000
0000
0100
,
0000
0030
1000
0001
1000
0000
0001
0100
,
0001
0000
0010
0100
0010
0000
0001
0001
,
1000
0000
0010
0100
0001
0100
0010
0100
,
0001
0100
0010
1000
0200
0000
1300
1000
,
0010
0100
0001
1000
0001
0010
0001
0200
,
0000
0300
0010
1000
0001
0010
0001
2000
,
0000
3000
0001
0100
0001
1000
0100
1000
,
0000
0010
0100
0001
0020
0000
0000
0030
,
0001
0100
0001
1000
0010
0100
0001
2000
,
0000
3000
0100
1000
0100
1000
0010
2000
,
0000
3000
0010
0100
0001
0100
0010
0100
,
0000
0110
1001
0000
,
0000
0000
0000
0000
0001
1000
0000
0000
1001
0000
0000
0000
1000
0010
0000
0000
,
1010
0000
0000
0000
0010
0100
0000
0000
0101
0000
0000
0000
0001
0010
0000
0000
,
0011
0000
0000
0000
0001
1000
0000
0000
1100
0000
0000
0000
0100
0010
0000
0000
,
0011
0000
0000
0000
0001
0000
0100
0000
0001
0100
0001
0000
0100
0001
0000
0000
,
1001
0000
0010
1000
0010
0000
0100
0001
,
0100
0000
0001
0000
1000
0010
0100
0001
,
1000
0000
0000
0000
0001
1000
0001
0000
,
1000
0010
1000
0000
0010
0100
0010
0000
,
1001
0000
0001
0010
0001
0000
1000
0000
,
0010
0000
0100
0001
0010
0100
1000
0001
,
0100
0000
0010
1000
1010
0000
1000
1000
,
0001
0000
0001
0100
0100
0010
1000
0100
,
0010
0000
0000
0001
1000
0001
1000
0001
1000
0001
1000
0001
,
1000
0001
1000
0001
1000
0001
1000
0001
1000
0001
1000
0001
,
1000
0000
0001
0000
1000
0000
0001
0000
0000
0000
0000
0000
0100
0000
0000
0010
0000
0000
0100
0000
0000
0000
0000
0000
,
0001
0010
0001
0000
1000
0010
1000
0000
,
1001
0000
0001
1000
0010
0000
0010
0100
,
0001
0000
1000
0100
0010
0000
0010
0100
,
1000
0000
0001
0100
0010
0000
0010
1000
,
0001
0000
0001
0010
0002
0000
0000
1000
,
0000
0003
1000
0001
1000
0000
0010
0100
,
0010
0000
1000
0100
0010
0000
0001
0100
,
0001
0000
0010
0100
1000
0001
0100
0001
,
1000
0010
0100
0001
0010
0000
0010
0100
,
1000
0001
0100
0010
1000
0001
0010
0002
,
0000
0003
0100
0100
0001
1000
0010
0200
,
0000
0300
0010
1000
0100
1000
0010
0100
,
0000
0100
0001
0010
0200
0000
0000
0300
,
1000
1000
0010
0010
1000
0001
0100
0020
,
0000
0030
0100
0001
0100
0100
0010
2000
,
0000
3000
0001
0010
0001
0001
0100
0010
,
0000
1001
0110
0000
,
0000
0000
0000
0000
0001
1000
0000
0000
1001
0000
0000
0000
1000
0010
0000
0000
,
1010
0000
0000
0000
0010
1000
0000
0000
1001
0000
0000
0000
0001
0100
0000
0000
,
0101
0000
0000
0000
0100
0010
0000
0000
1010
0000
0000
0000
0010
0100
0000
0000
,
0101
0000
0000
0000
0001
0010
0000
0000
0001
1000
0001
0000
1000
0010
0000
0000
,
1010
0000
0010
0100
0001
0000
0001
1000
,
0100
0000
1000
0000
0001
0010
0100
1000
,
0001
0000
0000
0000
0001
1000
1010
0000
,
0010
0100
0101
0000
0001
1000
1001
0000
,
2002
0000
3003
0000
0000
0001
0100
0001
,
1000
0010
0100
0001
1000
0100
0010
0001
,
0101
0000
0110
0000
0000
0010
1000
0010
,
0100
0100
0001
0001
1000
0100
0010
0001
,
0011
0000
1100
0000
0000
0001
0100
0001
,
0100
0010
1000
0001
0010
0001
0100
0010
,
1000
0000
0001
0000
0100
0010
0100
0000
,
0001
0010
0001
0000
1000
1000
0001
0001
,
1000
0000
1000
0000
0001
1000
0000
0000
1001
0000
0000
0000
0010
0100
0000
0000
,
0101
0000
0000
0000
0001
0010
0000
0000
0011
0000
0000
0000
0001
1000
0000
0000
,
1100
0000
0000
0000
0100
1000
0000
0000
1010
0000
0000
0000
0010
0100
0000
0000
,
0101
0000
0000
0000
0001
1000
0000
0000
0010
0100
0010
0000
1000
0001
0000
0000
,
1001
0000
0001
0100
0001
0000
1000
0010
,
1000
0000
0010
0000
0010
0100
0001
1000
,
0100
0000
0000
0000
1000
0001
1001
0000
,
0001
0100
0101
0000
0010
1000
1010
0000
,
2002
3003
0000
0000
;
