#TITLE:Idol;
#SUBTITLE:;
#ARTIST:BTS;
#TITLETRANSLIT:;
#SUBTITLETRANSLIT:;
#ARTISTTRANSLIT:;
#GENRE:;
#CREDIT:;
#MUSIC:Idol.ogg;
#BANNER:Idol.png;
#BACKGROUND:Idol-BG.png;
#CDTITLE:;
#SAMPLESTART:90.449;
#SAMPLELENGTH:19.018;
#SELECTABLE:YES;
#OFFSET:-0.257;
#BPMS:0.000=126.000
,32.000=63.000
,32.250=189.000
,33.000=126.000
,192.000=63.000
,192.250=189.000
,193.000=126.000
;
#STOPS:;
#BGCHANGES:;
#FGCHANGES:;

//--------------- dance-single - ----------------
#NOTES:
     dance-single:
     :
     Beginner:
     1:
     0,0,0,0,0:
0000
0000
0000
0000
,
0000
0000
0000
0000
,
0000
0000
0000
0000
,
0000
0000
0000
0000
,
0000
0000
1000
0000
,
0000
0000
0001
0000
,
0000
0000
1000
0000
,
0000
0000
0010
0000
,
0000
0000
1001
0000
,
0000
0000
0001
0000
,
0000
0000
0100
0000
,
0000
0000
0010
0000
,
0000
0000
0010
0000
,
0000
0000
1000
0000
,
0000
0000
0100
0000
,
0000
0000
0100
0000
,
0000
0000
1000
0000
,
1000
0000
1000
0000
,
0000
0000
0001
0000
,
0001
0000
0001
0000
,
0000
0000
0100
0000
,
0100
0000
0100
0000
,
0000
0000
0010
0000
,
0010
0000
0010
0000
,
0000
0000
1001
0000
,
0000
0000
0001
0000
,
0000
0000
1000
0000
,
0000
0000
1000
0000
,
0000
0000
0010
0000
,
0000
0000
1000
0000
,
0000
0000
0001
0000
,
0000
0000
0100
0000
,
0100
0000
1001
0000
,
0000
0000
0110
0000
,
0000
0000
1000
0000
,
0000
0000
0001
0000
,
0000
0000
0110
0000
,
0000
0000
1001
0000
,
0000
0000
0010
0000
,
0010
0000
0010
0000
,
0000
0000
1000
0000
,
0000
0000
1000
0000
,
0000
0000
0001
0000
,
0000
0000
0001
0000
,
0001
0000
0001
0000
,
0000
0000
1000
0000
,
0000
0000
0010
0000
,
0010
0000
0010
0000
,
0000
0000
0100
0000
,
0000
0000
0010
0000
,
0000
0000
1000
0000
,
0000
0000
0001
0000
,
0000
0000
0010
0000
,
0000
0000
0001
0000
,
0000
0000
1000
0000
,
0000
0000
0100
0000
,
0000
0000
1000
0000
,
1000
0000
1000
0000
,
0000
0000
0001
0000
,
0001
0000
0001
0000
,
0000
0000
0100
0000
,
0100
0000
0100
0000
,
0000
0000
0010
0000
,
0010
0000
0010
0000
,
0000
0000
1001
0000
;

//--------------- dance-single - ----------------
#NOTES:
     dance-single:
     :
     Easy:
     3:
     0,0,0,0,0:
0000
0000
0000
0000
,
0000
0000
0000
0000
,
0000
0000
0000
0000
,
0000
0000
0000
0000
,
0000
0000
1000
0000
,
0001
0000
1000
0000
,
0001
0000
1000
0001
,
1000
0001
1001
0000
,
1001
0000
0010
0000
,
0100
0000
0010
0000
,
1000
0000
0001
0000
,
0100
0000
0010
0100
,
0010
0000
1000
0000
,
0100
0000
1000
0000
,
0001
0000
0010
0000
,
0001
0000
0100
0010
,
0100
0000
0001
1000
,
0001
0000
1000
0000
,
1000
0000
0010
0100
,
0010
0000
0100
0000
,
1001
0000
0001
1000
,
0001
0000
0010
0000
,
0001
0000
0100
0010
,
0100
0000
0001
0000
,
1000
0000
2002
0000
,
3003
0000
0010
0000
,
0100
0000
0220
0000
,
0330
0000
0010
0000
,
0010
0000
1001
0000
,
0001
0000
0100
0000
,
0001
0000
1000
0000
,
1000
0000
0010
0000
,
0100
0100
0100
0000
,
0001
0001
0001
0000
,
1000
1000
1000
0000
,
0010
0010
0010
0000
,
1000
1000
1000
0000
,
0001
0001
0001
0000
,
0100
0100
0100
0000
,
0001
0001
2002
0000
,
3003
0000
0010
0000
,
0000
0000
1000
0000
,
0000
0000
1001
0000
,
0000
0000
0001
0000
,
0100
0000
0010
0000
,
0000
0000
1001
0000
,
0000
0000
1000
0000
,
1000
0000
0010
0010
,
0020
0030
1001
0000
,
0010
0000
0100
0000
,
0001
0000
1000
0000
,
1000
0000
0001
0010
,
0001
0000
0100
0000
,
0100
0000
0010
0000
,
1000
0000
1000
0000
,
0001
0000
1000
0001
,
1000
0000
0001
0100
,
0001
0000
1000
0000
,
1000
0000
0001
0010
,
0001
0000
0100
0000
,
0100
0000
0010
1000
,
0010
0000
1000
0000
,
0001
0000
0010
0001
,
0010
0000
0001
0001
,
1000
1000
1001
0000
;

//--------------- dance-single - ----------------
#NOTES:
     dance-single:
     :
     Medium:
     5:
     0,0,0,0,0:
0000
0000
0000
0000
,
0000
0000
0000
0000
,
0000
0000
0000
0000
,
0000
0000
0000
0000
,
0000
0001
1000
0010
,
0100
0001
0010
0100
,
1000
0010
1010
0000
,
0101
0000
0000
0000
0001
1000
0001
1000
,
0002
0003
1000
0010
,
0100
0001
0010
0100
,
0010
0001
0101
0100
,
0010
0000
1000
0000
0001
1000
0001
1000
,
0002
0003
0100
0010
,
0100
0001
0010
0100
,
1000
0001
1001
1000
,
0010
0000
0100
0000
0001
0010
0001
0010
,
0002
0003
1000
0010
,
1010
0000
0010
0100
,
0001
0001
1000
0001
,
0101
0000
0000
0000
0010
0100
0010
0100
,
0020
0030
0100
0001
,
1001
0000
1000
0010
,
0010
1000
0001
0010
,
0011
0000
0000
0000
0001
0100
0001
0100
,
0020
0030
1000
0001
,
0100
0000
0001
1000
,
0100
0000
1000
0001
,
0010
0000
0001
1000
,
0010
0000
0110
0100
,
0101
0001
1001
1000
,
0010
1000
1001
0001
,
0011
0000
0001
0000
0100
0000
0010
0100
,
0010
0000
1000
0010
1000
0000
0001
0000
,
0010
0100
1000
0001
,
0100
0010
0110
0100
,
0001
0001
1000
1000
,
0001
0000
0010
0001
0010
0000
0001
0000
,
0100
0000
0010
0100
0010
0000
1000
0000
,
0001
0000
1000
0100
1000
0000
0001
0000
,
0100
0000
0010
0100
0010
0100
0020
0000
,
0000
0030
1001
0000
,
0010
0000
1001
0000
,
0100
0010
0220
0000
,
0000
0000
0330
0000
,
0000
0010
1001
0000
,
0100
0000
1001
0000
,
0010
0000
1000
0001
,
1000
0000
0001
0000
1000
0010
1000
0010
,
2000
3000
0001
0100
,
0010
0100
0001
0001
,
1000
1000
1001
0010
,
0100
0000
0001
0000
0010
0001
0010
0001
,
0020
0030
0001
0100
,
0010
0100
0001
0001
,
1000
1000
1100
1000
,
0010
0000
1000
0000
0010
0100
0010
0100
,
0020
0030
0100
0001
,
0011
0000
0001
1000
,
0010
0010
1000
0001
,
1001
0000
0000
0000
0001
1000
0001
1000
,
0002
0003
0001
0100
,
0110
0000
0010
1000
,
0100
0100
1000
0001
,
1001
0000
0000
0000
0001
1000
0001
1000
,
0001
0100
0020
0000
,
0000
0030
0000
0000
0000
0000
0000
0000
;

//--------------- dance-single - ----------------
#NOTES:
     dance-single:
     :
     Hard:
     7:
     0,0,0,0,0:
0000
0000
0000
0000
,
0000
0000
0000
0000
,
0000
0000
0000
0000
,
0000
0000
0000
0000
,
0000
0000
0000
0000
0002
0000
0000
0003
2000
0000
0000
3000
0000
0000
0010
0100
,
0020
0000
0000
0030
0000
0000
0100
0001
0200
0000
0000
0300
0000
0000
0001
1000
,
0002
0000
0000
0003
2000
0000
0000
3000
0010
0000
1000
0000
0100
0000
0010
0000
,
0001
0100
0010
0100
0001
0010
0100
1000
,
0001
0000
0000
0000
2002
0000
3003
0000
0010
0000
0000
0100
0000
0000
0001
0000
,
0100
0000
0000
0010
0000
0000
1000
0000
0001
0000
0000
0010
0000
0000
0100
0000
,
1000
0100
0000
1000
0100
0000
1000
0000
0010
0000
0000
0010
0000
0000
1000
0000
,
0001
0000
0000
0001
0000
0000
1000
0000
0010
0000
0100
0000
0001
0000
0010
0000
,
0100
0000
0000
0000
1001
0000
0000
0000
0001
0000
0000
0001
0000
0000
0100
0000
,
0010
0000
0000
0010
0000
0000
0100
0000
0001
0000
0000
0001
0000
0000
1000
0000
,
0001
1000
0000
0001
1000
0000
0010
0000
0100
0000
0000
0100
0000
0000
0001
0000
,
0010
0000
0000
0001
0000
0000
0100
0000
0010
0000
0100
0000
0001
0000
0010
0000
,
0100
0000
0000
0000
1100
0000
0000
0000
2000
0000
0000
0010
0000
0000
0010
0000
,
3020
0000
0000
0000
0030
0000
0000
0000
0100
0000
0000
0100
0000
0000
0001
0000
,
1000
0000
0001
0000
1000
0000
0000
0000
0002
0000
0000
0010
0000
0000
0010
0000
,
0023
0000
0000
0000
0030
0000
0000
0000
0001
1000
0000
0001
1000
0000
0010
0000
,
0100
0000
0001
0000
1000
0000
0100
0000
0020
0000
0000
0001
0000
0000
0001
0000
,
0032
0000
0000
0000
0003
0000
0000
0000
0100
0000
0000
0100
0000
0000
0100
0000
,
0010
0000
1000
0000
0001
0000
0000
0000
2000
0000
0000
0001
0000
0000
0001
0000
,
3002
0000
0000
0000
0003
0000
0000
0000
1000
0010
0000
1000
0010
0000
0100
0000
,
0001
0000
0010
0000
0110
0000
0000
0000
0010
0000
0000
0001
0000
0000
0100
0000
,
0010
0000
0100
0000
0001
0000
0000
0000
1000
0000
0000
0010
0000
0000
1000
0000
,
0001
0000
1000
0000
0001
0000
0000
0000
0100
0000
0000
0001
0000
0000
0010
0000
,
0100
0000
1000
0000
0001
0000
0000
0000
0100
0000
0000
0010
0000
0000
0100
0000
,
0001
0000
1000
0000
0010
0000
0000
0000
1010
0000
0000
0000
0010
1000
0000
0000
,
0001
1000
0000
0000
0001
0100
0000
0000
0010
0100
0000
0000
0001
0010
0000
0000
,
0001
0000
0000
1000
0000
0000
0000
0000
0000
0000
0000
0000
0001
0000
0000
1000
0000
0000
0000
0000
0000
0000
0000
0000
1001
0000
0000
0000
0000
0000
0000
0000
0000
0000
0000
0000
0001
0000
0000
0000
0100
0000
0000
0000
0001
0000
0000
0000
,
0100
0000
0000
0010
1000
0010
1000
0000
0000
0001
1000
0001
,
1000
0000
0000
0100
0010
0001
0100
0000
0000
0001
0000
0000
,
1000
0001
0100
0010
,
0100
0000
0000
0001
1000
0001
1000
0000
0000
0010
0000
0000
,
0100
0001
1000
0100
,
0010
0000
0000
0001
0100
0001
0100
0000
0000
0010
0000
0000
,
1000
0000
0000
0001
1000
0001
1000
0000
0000
0010
0000
0000
,
0100
0000
0000
0001
0010
0001
0010
0000
0000
0001
0100
0001
,
0100
0000
0000
0010
1000
0010
1000
0010
1000
0010
1000
0020
,
0000
0000
0000
0000
0030
0000
0000
0000
0200
0000
0000
0300
0000
0000
0010
1000
,
0020
0000
0000
0030
0000
0000
0100
0001
0200
0000
0000
0300
0000
0000
0001
1000
,
0002
0000
0000
0003
2000
0000
0000
3000
0020
0000
0000
0000
0030
0000
0000
0000
,
1001
0000
0200
0300
,
0001
0000
0000
0000
1000
0000
0000
0000
1002
0000
0000
0003
0000
0000
0100
0001
,
0200
0000
0000
0300
0000
0000
0010
1000
0020
0000
0000
0030
0000
0000
1000
0001
,
2000
0000
0000
3000
0002
0000
0000
0003
0100
0000
0010
0000
0010
0000
1000
0000
,
0001
0010
0001
1000
0010
0100
0001
1000
,
0001
0000
0000
0000
2002
0000
3003
0000
0001
0000
0000
0001
0000
0000
1000
0000
,
0010
0000
0000
0010
0000
0000
0100
0000
0001
0000
0000
0001
0000
0000
1000
0000
,
0100
1000
0000
0100
1000
0000
0010
0000
0100
0000
0000
0100
0000
0000
0001
0000
,
1000
0000
0000
1000
0000
0000
0001
0000
0010
0000
0100
0000
1000
0000
0001
0000
,
0100
0000
0000
0000
0101
0000
0000
0000
0001
0000
0000
0001
0000
0000
1000
0000
,
0010
0000
0000
0010
0000
0000
1000
0000
0001
0000
0000
0100
0000
0000
0001
0000
,
1000
0010
0000
1000
0010
0000
1000
0000
0001
0000
0000
0001
0000
0000
0100
0000
,
0010
0000
0000
0010
0000
0000
0100
0000
0001
0000
0010
0000
0100
0000
1000
0000
,
0001
0000
0000
0000
1001
0000
0000
0000
0002
0000
0000
0100
0000
0000
0100
0000
,
0203
0000
0000
0000
0300
0000
0000
0000
0010
0000
0000
0010
0000
0000
0100
0000
,
0001
0000
0010
0000
0100
0000
0000
0000
2000
0000
0000
0001
0000
0000
0001
0000
,
3002
0000
0000
0000
0003
0000
0000
0000
1000
0010
0000
1000
0010
0000
0100
0000
,
0001
0000
0010
0000
0100
0000
1000
0000
0002
0000
0000
0100
0000
0000
0100
0000
,
0203
0000
0000
0000
0300
0000
0000
0000
0010
0000
0000
0010
0000
0000
0010
0000
,
1000
0000
0001
0000
0100
0000
0000
0000
0002
0000
0000
0010
0000
0000
0010
0000
,
0023
0000
0000
0000
0030
0000
0000
0000
0001
0100
0000
0001
0100
0000
0010
0000
,
1000
0001
0010
0100
2000
0000
0000
0000
,
0000
3000
0000
0000
0000
0000
0000
0000
;

//--------------- dance-single - ----------------
#NOTES:
     dance-single:
     :
     Challenge:
     9:
     0,0,0,0,0:
0000
0000
0000
0000
,
0000
0000
0000
0000
,
0000
0000
0000
0000
,
0000
0000
0000
0000
,
0000
0000
0000
0000
0000
0000
0000
0000
0001
0000
1000
0000
0010
0000
0100
0001
,
0010
0000
0001
0000
1000
0000
0010
1000
0100
0000
0010
0000
0001
0000
0100
0001
,
0100
0000
0001
0000
1000
0000
0010
0000
1000
0001
0010
0001
1000
0010
1000
0010
,
0100
0010
0100
0001
0100
0001
0200
0000
0320
0000
2030
0000
3002
0000
0023
0000
,
0230
0000
0300
0000
1MM1
0000
0000
0000
0001
0000
1000
0010
0000
1000
0010
0000
,
0100
0000
0001
0010
0000
0001
0010
0000
0001
0000
0100
0001
0000
0100
0001
0000
,
1000
0010
0100
0001
1000
0000
0001
0000
1001
0000
0000
0101
0000
0000
1010
0000
,
1100
0000
0000
0110
0000
0000
0001
0000
0100
0000
1000
0000
0100
0000
0001
0000
,
2002
0000
3003
0000
0220
0000
0330
0000
0010
0000
0100
0010
0000
0100
0010
0000
,
0100
0000
0001
0010
0000
0001
0010
0000
0001
0000
1000
0010
0000
1000
0010
0000
,
0100
0001
0010
0100
1000
0000
0001
0000
0011
0000
0000
0011
0000
0000
0101
0000
,
1010
0000
0000
1100
0000
0000
0010
0000
0001
0000
0100
0000
1000
0000
0100
0000
,
0202
0000
0303
0000
2020
0000
3030
0000
0001
0000
0100
0001
0000
0100
0001
0000
,
2000
0000
3000
0010
0100
0000
0100
0000
0001
0000
1000
0100
0000
1000
0100
0000
,
0010
0000
0001
0000
2000
0000
3000
0000
0001
0000
0100
0001
0000
0100
0001
0000
,
0020
0000
0030
0001
0100
0000
0100
0000
0010
1000
0001
0010
0100
0000
1000
0000
,
0001
0100
0001
0000
1000
0000
0100
0000
0010
0000
0001
0100
0000
0010
0100
0000
,
0002
0000
0003
1000
0010
0000
0010
0000
1000
0000
0001
0100
0000
0001
0100
0000
,
0010
0000
1000
0000
0200
0000
0300
0000
1000
0000
0001
0010
0000
0001
0010
0000
,
0002
0000
0003
1000
0010
0000
0010
0000
0100
0001
0010
0100
1000
0000
0001
0000
,
0100
0001
0100
0000
0010
0000
1000
0000
0001
0000
0100
0010
0000
0100
0010
0000
,
1000
0000
0001
0000
1001
0000
0000
0000
0001
0000
0100
0001
0000
0100
0001
0000
,
1000
0000
0010
0000
1010
0000
0000
0000
0010
1000
0000
0100
0000
1000
0100
0000
,
1000
0000
0100
0000
1100
0000
0000
0000
0010
0000
0001
0100
0000
0001
0100
0000
,
0010
0000
1000
0000
1001
0000
0000
0000
0001
0000
0100
0000
0001
0100
0001
0000
,
1000
0000
0010
0000
1000
0010
1000
0000
0001
0000
0100
0000
0001
0100
0001
0000
,
1000
0000
0000
0000
0000
0000
0010
0000
0000
0000
0000
0000
0100
0000
0000
0001
0000
0000
0100
0000
0000
0000
0000
0000
1001
0000
0000
0000
0000
0000
0010
0000
0000
0000
0000
0000
1000
0000
0000
0000
0010
0000
0000
0000
0100
0000
0000
0000
,
0001
0000
0000
0010
0000
0000
0001
0000
0100
0000
0010
0000
0100
0000
0000
0001
0000
0000
0001
0000
1000
0000
0001
0000
,
0100
0000
0000
0100
0000
0000
0010
0000
1000
0000
0001
0000
0010
0000
0000
0100
0000
0000
1000
0000
0100
0000
1000
0000
,
0100
0000
0000
1100
0000
0000
0100
0000
1000
0000
0010
0000
0100
0000
0010
0000
0100
0000
0001
0000
0010
0000
0100
0000
,
0010
0000
0000
0001
0000
0000
0100
0000
0010
0000
0100
0000
0010
0000
0000
0110
0000
0000
0010
0000
1000
0000
0010
0000
,
0100
0000
0000
0001
0000
0000
1000
0000
0001
0000
0010
0000
0100
0000
1000
0000
0001
0000
0100
0000
0010
0000
0100
0000
,
0002
0000
0000
0000
0000
0000
0000
0000
0000
0003
0000
0000
1000
0000
0000
0000
0010
0000
0000
0000
1000
0000
0000
0000
0010
0000
0000
0000
1000
0000
0000
0000
0001
0000
0000
0000
1000
0000
0000
0000
0001
0000
0000
0000
1000
0000
0000
0000
,
0002
0000
0003
0010
0100
1000
0001
0100
0010
0100
0001
0010
,
0002
0000
0003
0100
0010
1000
0100
0010
0100
1000
0001
0100
,
0020
0000
0030
1000
0001
1000
0001
0100
0001
0100
0020
0200
,
0000
0000
0000
0000
0000
0000
0000
0000
0000
0000
0000
0000
0000
0000
0000
0000
0330
0000
0000
0000
0000
0000
0000
0000
0002
0000
0000
0000
0000
0000
0000
0000
0000
0000
0000
0000
0000
0000
0000
0003
0000
0000
0100
0000
0000
0010
0000
0000
,
0200
0000
0000
0000
0000
0300
0001
1000
0002
0000
0000
0000
0000
0003
1000
0010
,
1000
0000
0001
0000
1001
0000
0001
0100
,
0001
0000
1000
0100
1000
0000
0010
0100
,
0001
0000
0000
0000
1001
0000
0000
0000
0001
0000
0100
0000
0010
0000
1000
0010
,
1000
0000
0001
0000
0100
0000
0010
0100
0001
0000
1000
0000
0100
0000
0010
0001
,
0100
0000
0010
0000
0100
0000
0001
0000
1000
0001
0010
0001
1000
0010
1000
0010
,
0100
0001
0100
0001
0010
0100
2000
0000
3020
0000
0230
0000
0302
0000
2003
0000
,
3200
0000
0300
0000
1MM1
0000
0000
0000
0001
0000
1000
0010
0000
1000
0010
0000
,
0100
0000
0001
0010
0000
0001
0010
0000
0001
0000
0100
0010
0000
0100
0001
0000
,
1000
0010
0100
0001
1000
0000
0001
0000
0101
0000
0000
0110
0000
0000
1010
0000
,
1100
0000
0000
0110
0000
0000
0001
0000
0100
0000
1000
0000
0100
0000
0001
0000
,
2002
0000
3003
0000
0220
0000
0330
0000
0010
0000
0100
0001
0000
1000
0001
0000
,
0100
0000
0010
1000
0000
0010
1000
0000
0001
0000
0010
0001
0000
0100
0001
0000
,
0010
0001
0100
0010
1000
0000
0010
0000
1010
0000
0000
1100
0000
0000
0011
0000
,
0101
0000
0000
0110
0000
0000
0100
0000
0001
0000
0010
0000
0100
0000
1000
0000
,
2002
0000
3003
0000
0220
0000
0330
0000
0010
0000
1000
0010
0000
1000
0010
0000
,
0200
0000
0300
0001
0100
0000
0100
0000
0001
0000
0010
0001
0000
0010
0001
0000
,
0100
0000
0010
0000
2000
0000
0000
3000
0001
0000
0100
0001
0000
0100
0001
0000
,
2000
0000
3000
0001
0010
0000
0010
0000
0001
0100
0010
0100
0001
0000
1000
0000
,
0001
0100
0001
0000
1000
0000
0100
0000
0010
0000
0001
1000
0000
1000
0001
0000
,
0200
0000
0300
0001
1000
0000
1000
0000
0010
0000
0100
0010
0000
0010
0100
0000
,
0001
0000
0010
0000
0200
0000
0300
0000
1000
0000
0010
1000
0000
0010
1000
0000
,
0002
0000
0003
0100
0010
0000
0010
0000
0100
0001
0010
0100
0010
0000
0001
0000
,
0100
0001
0100
0000
0010
0000
1000
0000
2002
0000
0000
0000
0000
0000
0000
0000
,
0000
3003
0000
0000
0000
0000
0000
0000
;
