#TITLE:Hot Sauce;
#SUBTITLE:;
#ARTIST:Babymonster;
#TITLETRANSLIT:;
#SUBTITLETRANSLIT:;
#ARTISTTRANSLIT:;
#GENRE:;
#CREDIT:;
#MUSIC:Hot Sauce.ogg;
#BANNER:Hot Sauce.png;
#BACKGROUND:Hot Sauce-BG.png;
#CDTITLE:;
#SAMPLESTART:54.364;
#SAMPLELENGTH:15.479;
#SELECTABLE:YES;
#OFFSET:-0.285;
#BPMS:0.000=133.000
,248.000=266.000
,251.000=133.000
,264.000=266.000
,266.000=66.500
,267.000=133.000
;
#STOPS:248.000=0.121
,248.500=0.120
,249.000=0.121
,249.500=0.120
,250.000=0.212
,264.000=0.220
,265.000=0.219
;
#BGCHANGES:;
#FGCHANGES:;

//--------------- dance-single - Alex ----------------
#NOTES:
     dance-single:
     Alex:
     Beginner:
     1:
     0,0,0,0,0:
0000
0000
0000
0000
,
0000
0000
0000
0000
,
0000
0000
0000
0000
,
0000
0000
0000
0000
,
0000
0000
0000
0000
,
0000
0000
0000
0000
,
1001
0000
0000
0000
,
0001
0000
0000
0000
,
1000
0000
0000
0000
,
0010
0000
0000
0000
,
1000
0000
0000
0000
,
1000
0000
0000
0000
,
0001
0000
0000
0000
,
0100
0000
0000
0000
,
0110
0000
0000
0000
,
0010
0000
0000
0000
,
0100
0000
0000
0000
,
0100
0000
0000
0000
,
0001
0000
0000
0000
,
0001
0000
0000
0000
,
1000
0000
0000
0000
,
1000
0000
0000
0000
,
0001
0000
0000
0000
,
0001
0000
0000
0000
,
1000
0000
0000
0000
,
0001
0000
0000
0000
,
1000
0000
0000
0000
,
0010
0000
0000
0000
,
0100
0000
0000
0000
,
0010
0000
0000
0000
,
1001
0000
0000
0000
,
1001
0000
0000
0000
,
0001
0000
0000
0000
,
1000
0000
0000
0000
,
1001
0000
0000
0000
,
1001
0000
0000
0000
,
0010
0000
0000
0000
,
0010
0000
0000
0000
,
1000
0000
0000
0000
,
1000
0000
0000
0000
,
0001
0000
0000
0000
,
0001
0000
0000
0000
,
0100
0000
0000
0000
,
0010
0000
0000
0000
,
1000
0000
0000
0000
,
0001
0000
0000
0000
,
1000
0000
0000
0000
,
0010
0000
0000
0000
,
0100
0000
0000
0000
,
0100
0000
0000
0000
,
0001
0000
0000
0000
,
0001
0000
0000
0000
,
1000
0000
0000
0000
,
1001
0000
0000
0000
,
0001
0000
0000
0000
,
0001
0000
0000
0000
,
1000
0000
0000
0000
,
0010
0000
0000
0000
,
0010
0000
0000
0000
,
1000
0000
0000
0000
,
0001
0000
0000
0000
,
1000
0000
0000
0000
,
0000
0000
0000
0000
,
1001
0000
0000
0000
,
1001
0000
0000
0000
,
0010
0000
0010
0000
,
0010
0000
0000
0110
,
0000
0000
0000
0110
,
0000
0000
0000
0010
,
0000
0010
0000
0010
,
0000
0000
0000
1001
,
0000
0000
0000
1000
,
0000
0000
0000
0001
,
0000
0000
0000
0001
,
0000
0000
0000
1000
,
0000
0000
0000
0010
,
0000
0000
0000
0100
,
0000
0000
0000
0010
,
0000
0010
0000
0010
;

//--------------- dance-single - Alex ----------------
#NOTES:
     dance-single:
     Alex:
     Easy:
     3:
     0,0,0,0,0:
0000
0000
0000
0000
,
0000
0000
0000
0000
,
0001
0000
1000
0000
,
0001
0000
1000
0000
,
0001
0001
1000
1000
,
1001
0000
1001
0000
,
0010
0000
0010
0000
,
1000
0000
1000
0000
,
0001
0000
0001
0000
,
0100
0100
0010
0010
,
0100
0000
0001
0000
,
1000
0000
1000
0000
,
0010
0010
0010
0000
,
1000
1000
1000
0000
,
0001
0000
1000
0000
,
0002
0000
0003
0000
,
0100
0000
0010
0000
,
0200
0000
0300
0000
,
0001
0000
0001
0000
,
1000
0000
1000
0000
,
0010
0000
1000
0000
,
0001
1000
0001
0000
,
1001
0000
1001
0000
,
0110
0000
0110
0000
,
0010
0100
0010
0000
,
0100
0010
0100
0000
,
0001
0000
1000
0000
,
0010
0000
1000
0000
,
0100
0000
0100
0000
,
1001
0000
0000
0000
,
0001
0000
0001
0000
,
1000
0000
1000
0000
,
0001
0100
0001
0000
,
1000
0100
1000
0000
,
0010
0000
0010
0000
,
0100
0000
0100
0000
,
0001
1000
0001
0000
,
0001
0100
0001
0000
,
1000
0000
1000
0000
,
0001
0000
0001
0000
,
1000
0100
1000
0000
,
0001
0100
0001
0000
,
0100
0100
0200
0300
,
0010
0010
0020
0030
,
1000
0000
0001
0000
,
1000
0000
0001
0000
,
1001
0000
0010
0000
,
0100
0100
0100
0000
,
0001
0000
1000
0000
,
0001
0001
0001
0000
,
1000
0010
1000
0000
,
0001
0010
0001
0000
,
1000
0001
1000
0001
,
1001
0000
0000
0000
,
0001
0000
1000
0000
,
0001
0000
0100
0000
,
0010
0100
0010
0000
,
0100
0010
0100
0000
,
0001
0000
0001
0000
,
1000
0000
1000
0000
,
0010
1000
0010
0000
,
1000
0001
1000
0000
,
1001
0000
0000
0000
,
0001
0000
1000
0000
,
0001
0000
0001
0000
,
1000
0100
1000
0000
,
0001
1000
0001
1000
,
0000
0001
0000
1000
,
0000
1000
0000
0001
,
0100
0001
0000
0100
,
0010
0100
0000
2002
,
0000
0000
0000
0000
0000
3003
0000
0000
,
0001
1000
0001
2002
,
0000
0000
0000
0000
0000
3003
0000
0000
,
0010
0100
0010
0220
,
0000
0000
0000
0000
0000
0330
0000
0000
,
0100
0010
0100
0220
,
0000
0000
0330
0100
,
0010
0100
0010
1001
;

//--------------- dance-single - Alex ----------------
#NOTES:
     dance-single:
     Alex:
     Medium:
     5:
     0,0,0,0,0:
0000
0000
0000
0000
,
0000
0000
0000
0000
,
0001
1000
0001
1000
,
0001
1000
0020
0030
,
0100
0100
0001
0001
,
1001
1001
1001
0000
,
0001
0100
0001
1000
,
0010
1000
0001
1000
,
0100
0100
1000
1000
,
0010
0100
0001
1000
,
0010
0010
1000
1000
,
0001
0001
0100
0100
,
0001
0010
0100
1000
,
0001
1000
1001
0000
,
0001
0100
0010
0100
,
0001
1000
0200
0300
,
1000
0001
0100
0010
,
1000
0001
0020
0030
,
0001
0001
0100
0010
,
0100
0001
1000
0100
,
0010
0010
0001
0001
,
1000
0001
1001
0000
,
0001
0100
0001
0100
0001
0000
0000
0000
,
1000
0010
1000
0010
1000
0000
0000
0000
,
0001
1000
0001
0000
,
1000
0001
1000
0000
,
0001
0100
0010
0100
,
0001
0001
2000
3000
,
0001
1000
0100
0010
,
1001
0000
M00M
0000
,
0001
1000
0001
1000
,
0010
0100
0010
0100
,
0001
1000
0100
0010
,
0001
0100
0010
0100
,
0001
0001
1000
1000
,
0001
0001
1000
1000
,
0001
0100
0001
0100
,
0010
0100
0110
0000
,
0010
0010
0010
0000
,
1000
1000
1000
0000
,
0001
1000
0001
1000
,
0001
0001
0200
0300
,
0010
1000
0001
1000
,
0100
0100
1000
1000
,
0010
0100
0002
0003
,
1000
0100
0020
0030
,
0001
0100
0010
0100
,
0001
1000
0001
1000
0001
0000
0000
0000
,
1000
0010
0100
0001
,
1000
0100
1000
0100
1000
0000
0000
0000
,
0001
0100
0010
0100
,
0001
0001
1000
1000
,
0010
0100
0001
1000
,
1001
0000
M00M
0000
,
0001
0001
1000
1000
,
0010
0010
0100
0100
,
0001
0010
0100
0010
,
0001
0100
0010
1000
,
0001
0001
1000
1000
,
0001
0001
1000
1000
,
0100
0010
0001
0100
,
0001
1000
1001
0000
,
0001
1000
0001
1000
0002
0000
0003
0000
,
0100
0100
0001
0001
,
1000
0010
2000
3000
,
0001
1000
0100
0010
,
0001
1000
1001
0001
,
1000
0010
0100
0001
,
1000
0200
0300
1000
,
1000
0001
0001
0100
,
0010
0110
0000
0010
,
0010
1000
1000
0002
,
0000
0003
0000
0100
,
0001
0010
0100
2000
,
0000
3000
0000
0001
,
1000
0010
0100
0020
,
0000
0030
0000
0100
,
0100
0001
0001
1000
,
0001
0100
0010
1001
;

//--------------- dance-single - Alex ----------------
#NOTES:
     dance-single:
     Alex:
     Hard:
     8:
     0,0,0,0,0:
0000
0000
0000
0000
,
0000
0000
0000
0000
,
0001
1000
0000
0001
0100
0010
0000
1000
,
0100
0010
0000
2002
0000
0000
3003
0000
,
0001
1000
0001
1000
0010
0100
0010
0100
,
0010
0000
0000
0000
1000
0000
0000
0000
0001
0000
0000
1000
0000
0000
0001
0000
,
1001
0000
1000
0001
1001
0000
0100
0000
,
0010
0000
0100
0010
0110
0000
1001
0000
,
0001
0100
0010
1000
0100
0010
0001
0100
,
0010
0000
1000
0000
0001
0100
0010
0100
,
0101
0000
0001
0000
1000
0000
0010
1000
,
1010
0010
1000
0100
,
0010
0001
0100
0010
0100
0001
0010
0100
,
1000
0000
0000
0000
0001
0000
0000
0000
1000
0000
0000
0001
0000
0000
1000
0000
,
0010
1000
0001
1000
0010
1000
0001
0100
,
0010
1000
0001
0020
0000
0000
0030
0000
,
0001
0100
0010
0100
0001
0010
0100
1000
,
0001
1000
0010
0100
0002
0000
0003
1000
,
1000
0001
0100
0010
1000
0100
0010
0100
,
1000
0001
0100
0010
0100
0001
1000
0010
,
0100
0000
0001
0010
0100
0000
1000
0001
,
0100
0100
2002
3003
,
0001
0000
1000
0000
0001
0000
0100
0000
0001
0100
0000
0200
0000
0300
0000
0000
,
0010
0000
1000
0000
0010
0000
1000
0000
0001
1000
0000
2000
0000
3000
0000
0000
,
0001
0000
1000
0000
0001
0000
0100
0000
0001
0000
1000
0010
0000
0020
0000
0030
,
0100
0000
0001
0000
0100
0000
0001
0000
1000
0000
0001
1000
0000
2000
0000
3000
,
0001
0100
0010
0100
0001
0100
0010
0100
,
0001
0010
0100
1000
0002
0000
2003
0000
,
3001
0100
0010
0100
0001
1000
0100
0010
,
1001
0000
MMMM
0000
,
0001
0000
1000
0001
1001
0000
0001
0000
,
0100
0000
0010
0100
0110
0000
1001
0000
,
0001
1000
0010
1000
0001
1000
0100
0010
,
0001
0100
0010
1000
,
1001
1001
0110
0110
,
1010
1010
0101
0101
,
0001
0010
0100
0010
0001
0100
0010
0100
,
0001
0000
0000
0000
0001
0000
0000
0000
1000
0000
0000
1000
0000
0000
0010
0000
,
1000
0001
0100
0010
1000
0001
0020
0030
,
0001
0100
0010
0100
0001
0010
0200
0300
,
1000
0001
0100
0000
0001
1000
0010
0000
,
1000
0001
0010
0001
0100
0010
0200
0300
,
0001
0010
0100
0010
0001
0100
0020
0030
,
1000
1000
0100
0100
1000
0010
2000
3000
,
0001
1000
0001
0100
0001
1000
0010
0000
,
1000
0100
0010
0001
0100
0010
1001
0000
,
0000
0001
0100
0010
,
0100
0001
0010
0100
2000
0000
3000
0000
,
0000
0001
1000
0010
,
1000
0001
1000
0001
0200
0000
0300
0000
,
0010
0010
0100
0100
,
0001
0001
1000
1000
,
0001
0010
0001
0010
0001
0100
0001
0100
,
1001
0000
MMMM
0000
,
1001
0000
0001
1000
1001
0000
0010
0000
,
0100
0000
0010
0100
0110
0000
1001
0000
,
0001
0100
0010
0100
0001
0010
0001
1000
,
0010
1000
0100
1000
,
1001
1001
0110
0110
,
0011
0011
1100
1100
,
1000
0010
0100
0001
1000
0100
0010
0001
,
0100
0000
0000
0000
0010
0000
0000
0000
1000
0000
0000
0001
0000
0000
1000
0000
,
0001
1000
0001
1000
0001
0000
1000
0001
,
1000
0010
0000
0100
0001
1000
0000
0001
,
0010
0001
0000
2002
0000
3003
0000
0000
,
0001
1000
0010
1000
0001
0000
1000
0100
,
1100
0000
1100
0000
0022
0033
0001
0100
,
0000
0010
1000
0001
0000
1000
0100
0010
,
0000
2002
0000
0000
3003
0000
0001
1000
,
0010
1000
0001
0010
0001
0100
0110
0000
,
0110
0000
0000
0000
0010
0000
0000
0100
0000
0000
0010
0000
0100
0000
0001
0000
,
0010
0100
1000
0001
0100
0020
0000
0000
,
0030
1000
0001
0000
1000
0000
0001
1000
,
0010
1000
0001
1000
0100
0010
0000
0001
,
0100
0010
0100
0001
1001
0000
1000
0001
,
1000
0010
1000
0001
0100
0020
0000
0000
,
0030
0010
0010
0000
0010
0000
0100
0001
,
0010
0001
1000
0010
0100
0001
1000
0000
,
0001
0000
0000
0000
1000
0000
0000
0001
0000
0000
1000
0000
1001
0000
0000
0000
;
