#TITLE:Hall Of Fame;
#SUBTITLE:;
#ARTIST:Stray Kids;
#TITLETRANSLIT:;
#SUBTITLETRANSLIT:;
#ARTISTTRANSLIT:;
#GENRE:;
#CREDIT:;
#MUSIC:Hall Of Fame.ogg;
#BANNER:Hall Of Fame.png;
#BACKGROUND:Hall Of Fame-BG.png;
#CDTITLE:;
#SAMPLESTART:60.904;
#SAMPLELENGTH:22.086;
#SELECTABLE:YES;
#OFFSET:-0.230;
#BPMS:0.000=160.000;
#STOPS:;
#BGCHANGES:;
#FGCHANGES:;

//--------------- dance-single - Alex ----------------
#NOTES:
     dance-single:
     Alex:
     Beginner:
     1:
     0,0,0,0,0:
0000
0000
0000
0000
,
0000
0000
0000
0000
,
0000
0000
0000
0000
,
0000
0000
0000
0000
,
0000
0000
0000
0000
,
0000
0000
0000
0000
,
0000
0000
0000
0000
,
0000
0000
1000
0000
,
0000
0000
0001
0000
,
0000
0000
1000
0000
,
0000
0000
0010
0000
,
0000
0000
0100
0000
,
0000
0000
0100
0000
,
0000
0000
0001
0000
,
0000
0000
0010
0000
,
0000
0000
0001
0000
,
0000
0000
1001
0000
,
0000
0000
1000
0000
,
0000
0000
1000
0000
,
0000
0000
1000
0000
,
0000
0000
0001
0000
,
0000
0000
0001
0000
,
0000
0000
1000
0000
,
0000
0000
1000
0000
,
0000
0000
1001
0000
,
0000
0000
0000
0000
,
0000
0000
0110
0000
,
0000
0000
0000
0000
,
0000
0000
0010
0000
,
0000
0000
1000
0000
,
0000
0000
0001
0000
,
0000
0000
1000
0000
,
0000
0000
1001
0000
,
0000
0000
0000
0000
,
0000
0010
0010
0000
,
0000
0000
0100
0000
,
0000
0000
0001
0000
,
0000
0000
0000
0000
,
0000
0000
1000
0000
,
1000
0000
1000
0000
,
0000
0000
0020
0000
,
0000
0000
0030
0000
,
0000
0000
0200
0000
,
0000
0000
0300
0000
,
0000
0000
0002
0000
,
0003
0000
2000
0000
,
3000
0000
0010
0000
,
0010
0000
0010
0000
,
0000
0000
1001
0000
,
0000
0000
0000
0000
,
0000
0000
0000
0000
,
0000
0000
0100
0000
,
0000
0000
0100
0000
,
0000
0000
0001
0000
,
0000
0000
1000
0000
,
0000
0000
0010
0000
,
0000
0000
1000
0000
,
0000
0000
1000
0000
,
0000
0000
0001
0000
,
0000
0000
1000
0000
,
0000
0000
1001
0000
,
0000
0000
0000
0000
,
0000
0000
0110
0000
,
0000
0000
0000
0000
,
0000
0000
0001
0000
,
0000
0000
1000
0000
,
0000
0000
1000
0000
,
0000
0000
0010
0000
,
0000
0000
1001
0000
,
0000
0000
0000
0000
,
0000
0000
0100
0000
,
0100
0000
0100
0000
,
0000
0000
0010
0000
,
0000
0000
0010
0000
,
0000
0000
1000
0000
,
1000
0000
1000
0000
,
0000
0000
0002
0000
,
0000
0000
0003
0000
,
0000
0000
0200
0000
,
0000
0000
0300
0000
,
0000
0000
0020
0000
,
0030
0000
2000
0000
,
3000
0000
0001
0000
,
0001
0000
0001
0000
;

//--------------- dance-single - Alex ----------------
#NOTES:
     dance-single:
     Alex:
     Easy:
     3:
     0,0,0,0,0:
0000
0000
0000
0000
,
0000
0000
0000
0000
,
0000
0000
0000
0000
,
0000
0000
0000
0000
,
0000
0000
0000
0000
,
0000
0000
0000
0000
,
0000
0000
0000
0000
,
0000
0000
0100
0000
,
0100
0000
0110
0000
,
0010
0000
1000
0000
,
1000
0000
0001
0000
,
1000
0000
0001
0000
,
0001
0000
0100
0000
,
0001
0000
1000
0000
,
0010
0000
0110
0000
,
1001
0000
0110
0000
,
0010
0010
1000
0000
,
0001
0000
0100
0000
,
0001
0000
0010
0000
,
0001
0000
1000
1000
,
0010
0010
1000
0000
,
0001
0000
0100
0000
,
0001
0000
1000
0000
,
0010
0000
0100
0000
,
0001
0000
2002
0000
,
3003
0000
0220
0000
,
0330
0000
0022
0000
,
0033
0000
2200
0000
,
3300
0000
0100
0100
,
0100
0000
1000
1000
,
1000
0000
0001
0001
,
0001
0000
1001
0000
,
0000
0000
0010
0010
,
0010
0000
0100
0000
,
0001
0000
1000
1000
,
1000
0000
0001
0000
,
1001
0000
1000
1000
,
1000
0000
0010
0010
,
0010
0000
1000
0000
,
0001
0000
1000
0000
,
0001
0001
1000
0000
,
0010
0010
0020
0000
,
0030
0000
0100
0000
,
0001
0001
0002
0000
,
0003
0000
1000
0000
,
0010
0010
0010
0000
,
1000
1000
1000
0000
,
1001
0000
1001
0000
,
0000
0000
0010
0000
,
0100
0000
0010
0000
,
0100
0000
0010
0000
,
0100
0000
1001
0000
,
0000
0000
0001
0001
,
0001
0000
1000
0000
,
0010
0000
1000
1000
,
1000
0000
0001
0000
,
0100
0000
0010
0010
,
0010
0000
1001
0000
,
1001
0000
0110
0000
,
0110
0000
1001
0000
,
0000
0000
0001
0000
,
1000
0000
0001
0000
,
1000
0000
0010
0000
,
0100
0000
0010
0000
,
0100
0000
0001
0001
,
0001
0000
1000
1000
,
1000
0000
0010
0010
,
0010
0000
1001
0000
,
0000
0000
0001
0001
,
0001
0000
1000
0000
,
0001
0000
0100
0100
,
0100
0000
0010
0000
,
1001
0000
0001
0001
,
0001
0000
1000
1000
,
1000
0000
0010
0000
,
0100
0000
0010
0000
,
0100
0000
0110
0000
,
0010
0010
0020
0000
,
0030
0000
1000
0000
,
0001
0001
0002
0000
,
0003
0000
0001
0000
,
0100
0100
0100
0000
,
0010
0010
0010
0000
,
1001
0000
1001
0000
;

//--------------- dance-single - Alex ----------------
#NOTES:
     dance-single:
     Alex:
     Medium:
     6:
     0,0,0,0,0:
0000
0000
0000
0000
,
0000
0000
0000
0000
,
0000
0000
0000
0000
,
0000
0000
0000
0000
,
0000
0000
0000
0000
,
0000
0000
0000
0000
,
0000
0000
0000
0000
,
0000
0000
0100
0100
,
0010
0000
1000
0000
1001
0000
0000
0110
,
0000
1001
0001
0010
,
0100
0000
1000
0000
1010
0000
0000
0101
,
0000
1001
0001
0100
,
0001
0000
1000
0000
1010
0000
0000
1100
,
0000
0110
0010
0001
,
0100
0010
1010
0000
,
0110
0100
0101
0000
,
0010
0010
1000
0001
,
0100
0010
1000
0001
,
0010
0001
1000
1000
,
0010
1000
0010
0100
,
0001
1000
0100
0010
,
0100
1000
0001
0100
,
0010
0100
0001
0001
,
0010
0100
1000
0001
,
1001
1001
0001
0100
,
0001
0000
1000
0010
,
1000
0000
0001
0010
,
0001
0000
1000
0100
,
1000
0000
0010
0100
,
0001
1000
0100
0010
,
0100
1000
0001
0100
,
0010
1000
2002
0000
,
3003
0000
0010
0010
,
0100
0001
1000
0100
,
0000
0010
0001
0100
,
0010
0100
0001
0001
,
1001
1001
0001
1000
,
0001
0000
1000
0010
,
1000
0000
0010
0100
,
0001
1000
0100
0010
,
0100
0000
1000
0000
1001
0000
0000
0001
,
0100
0001
0100
0001
0200
0000
0000
0000
,
0000
0000
0300
0000
0110
0000
0000
0010
,
0100
0010
0100
0010
0200
0000
0000
0000
,
0000
0000
0300
0000
1001
0000
0000
1000
,
0001
1000
0001
1000
0001
0000
0000
1000
,
0010
1000
0010
1000
0010
0000
0000
0010
,
0100
0000
0000
0001
1000
0000
0000
0000
,
1001
0000
0000
0000
0010
0000
0000
0010
,
2000
0000
3000
0001
0200
0000
0300
0001
,
0020
0000
0030
0001
2000
0000
3000
0010
,
0200
0000
0300
0001
1000
0001
1000
0001
,
1000
0001
1000
0001
1000
0000
1001
0000
,
0000
0010
0100
0001
,
1000
0100
0010
0011
,
0000
0001
0100
0001
,
0001
0000
1000
0000
0010
0000
1000
0010
,
0000
1000
0100
0010
,
0110
0000
0010
0001
,
1001
0000
0010
0100
,
0001
1001
0001
1000
,
0001
0000
1000
0001
,
1000
0000
0010
0100
,
0010
0000
1000
0001
,
0010
0000
0001
1000
,
0010
1000
0001
0100
,
0001
1000
0100
0010
,
0001
1000
2002
0000
,
3003
0000
1001
1001
,
0001
1000
0001
0001
,
0000
0100
0010
1000
,
0100
0010
0001
1000
,
1010
1010
0010
0100
,
0001
0000
1000
0100
,
0010
0000
0001
0100
,
0010
0100
0001
0001
,
1000
0000
1000
0000
1001
0000
0000
0001
,
0010
0001
0010
0001
0020
0000
0000
0000
,
0000
0000
0030
0000
0011
0000
0000
0001
,
1000
0001
1000
0001
2000
0000
0000
0000
,
0000
0000
3000
0000
1010
0000
0000
0010
,
1000
0010
1000
0010
1000
0000
0000
0001
,
1000
0001
1000
0001
1000
0000
0000
0001
,
0100
0000
0000
0010
1000
0000
0000
0000
;

//--------------- dance-single - Alex ----------------
#NOTES:
     dance-single:
     Alex:
     Hard:
     9:
     0,0,0,0,0:
0000
0000
0000
0000
,
0000
0000
0000
0000
,
0000
0000
0000
0000
,
0000
0000
0000
0000
,
0000
0000
0000
0000
,
0000
0000
0000
0000
,
0000
0000
0000
0000
,
0000
0000
0000
0000
0000
0001
1000
0010
,
0100
0001
1000
0100
0010
0000
0000
0011
,
0000
0000
1100
0000
0100
1000
0010
1000
,
0100
0010
0001
1000
0001
0000
0000
1001
,
0000
0000
0110
0000
0010
0010
0100
0001
,
0010
0001
1000
0010
0100
0000
0000
0101
,
0000
0000
1010
0000
0010
1000
0010
0100
,
0001
1000
0100
0010
0001
0000
0000
1000
,
0010
0100
0001
1000
0000
0000
1001
0000
,
1001
0000
1001
0000
0001
0100
0001
0000
,
1000
0010
1000
0000
0001
0010
0001
0100
,
0001
0010
0001
0000
1000
0010
0100
0000
,
0001
1000
0100
0000
1000
0001
0100
0001
,
1000
0010
0100
0000
0101
0000
0110
0000
,
0010
0010
1000
0001
0010
0001
0100
0001
,
0010
0000
0010
0000
0001
0001
1000
1000
,
0010
0010
0100
0100
0001
1000
0100
0010
,
0001
1000
0010
0000
0010
0100
0010
1000
,
1000
0001
1000
0000
0001
0100
0001
1000
,
0001
0100
0001
0000
1000
0010
1000
0010
,
1000
0100
1000
0000
0010
0100
0010
0100
,
0001
0100
0001
0000
1000
0001
0010
0001
,
1000
0010
1000
0001
0100
0001
1000
0100
,
1000
0001
0001
0100
0001
1000
0010
0100
,
0001
1000
0100
0010
1001
0000
0000
0000
,
0010
0010
1001
1001
,
0001
0010
0001
1000
0010
0000
0110
0000
,
0000
0010
1000
0100
0010
0000
0001
0000
,
0100
0001
0100
0010
0100
0000
0001
0000
,
1001
0000
1001
0000
0001
0000
1000
0010
,
0000
0010
1000
0001
0100
0010
1000
0000
,
1001
0000
0000
0000
0001
0010
0001
0100
,
0001
0010
0100
1000
0001
0100
0010
1000
,
1000
0100
0010
0001
2000
0000
3000
0010
,
1000
0001
0100
0010
2000
0000
0000
0000
,
0001
0000
0001
0000
3002
0000
0003
0100
,
0001
0100
0010
0100
0002
0000
0000
0000
,
1000
0000
1000
0000
2003
0000
3000
0010
,
0100
0001
1000
0100
0020
0000
0030
0001
,
0100
0001
1000
0010
0010
0000
0000
1000
,
1000
0000
0000
0001
0001
0000
0000
0000
,
1001
0000
0000
0000
0000
0000
0001
0000
1000
0000
0010
0000
,
0100
0000
0001
0000
1000
0000
0100
0000
0010
0000
0001
0000
,
0100
0000
0010
0000
0100
0000
0001
0000
1000
0000
0010
0000
,
1000
0000
0000
0000
0001
0000
0000
0000
0100
0000
0000
0000
0001
0000
0000
0001
0000
0000
1000
0000
0000
1000
0000
0000
,
0010
0100
0001
1000
0100
0000
1100
0000
,
0000
0000
0100
1000
0100
1000
0010
1000
,
0001
0100
0010
1000
0001
0000
1001
0000
,
0000
0000
0001
0010
0001
0100
0001
0010
,
0100
0010
0001
0100
0010
0000
1000
0002
,
0000
0003
0100
0001
0100
0010
1000
0100
,
0010
0000
0000
0000
0020
0000
0000
0000
0000
0000
0000
0000
0031
0000
0000
1000
0000
0000
0001
0000
0000
1000
0000
0000
,
0001
0000
0002
0000
0000
0003
0100
0000
0000
0100
0000
0000
,
0100
0000
1001
0000
0001
1000
0010
0100
,
0001
1000
0100
0000
0010
0001
0100
0010
,
0100
0001
0100
0000
0001
0001
1000
1000
,
0010
1000
0001
0000
0001
0100
0001
1000
,
0100
1000
0001
0000
0001
1000
0010
0100
,
0001
1000
0100
0010
0100
1000
0001
0100
,
0010
0100
0001
1000
0010
0100
0001
1000
,
0100
0010
0001
1000
1001
0000
0000
0000
,
0010
0010
1001
1001
,
0001
0100
0001
0100
0001
0000
1000
0000
,
0000
0010
1000
0001
0100
0000
0010
0000
,
0010
1000
0100
0010
0100
0000
1000
0000
,
1001
0000
1001
0000
0001
0000
0100
0001
,
0000
0001
0100
0010
0100
0001
0100
0000
,
0110
0000
0000
0000
0010
0100
0001
0010
,
0100
0010
0001
0100
0010
1000
0100
0010
,
0100
1000
0001
0100
0020
0000
0030
0010
,
1000
0001
0010
0001
2000
0000
0000
0000
,
0001
0000
0001
0000
3020
0000
0030
0100
,
0100
0001
0001
1000
0020
0000
0000
0000
,
0100
0000
0100
0000
0230
0000
0300
0010
,
1000
0010
0100
0001
2000
0000
3000
0001
,
0100
0001
0010
0001
0100
0000
0000
0010
,
0010
0000
0000
0100
0100
0000
0000
0000
;
