#TITLE:God's Menu;
#SUBTITLE:;
#ARTIST:Stray Kids;
#TITLETRANSLIT:;
#SUBTITLETRANSLIT:;
#ARTISTTRANSLIT:;
#GENRE:;
#CREDIT:;
#MUSIC:God's Menu.ogg;
#BANNER:God's Menu.png;
#BACKGROUND:God's Menu-BG.png;
#CDTITLE:;
#SAMPLESTART:19.208;
#SAMPLELENGTH:23.822;
#SELECTABLE:YES;
#OFFSET:-0.120;
#BPMS:0.000=157.000
,194.000=78.500
,210.000=157.000
;
#STOPS:;
#BGCHANGES:2.000=God's Menu.avi=1.000=1=0=0=StretchNoLoop==CrossFade==,
99999.000=-nosongbg-=1.000=0=0=0=StretchNoLoop====
;
#FGCHANGES:;

//--------------- dance-single - Alex ----------------
#NOTES:
     dance-single:
     Alex:
     Beginner:
     1:
     0.086904,0.12239,0.10863,0,0,84,69,15,0,0,0,0.086904,0.12239,0.10863,0,0,84,69,15,0,0,0:
0000
0000
0100
0000
,
0000
0000
0010
0000
,
0000
0000
0010
0000
,
0000
0000
1000
0000
,
0000
0000
0001
0000
,
0000
0000
1000
0000
,
0000
0000
0001
0000
,
0000
0000
0100
0000
,
0000
0000
0110
0000
,
0000
0000
0000
0000
,
0000
0000
1001
0000
,
0000
0000
0000
0000
,
0000
0000
0001
0000
,
0000
0000
0001
0000
,
0000
0000
1000
0000
,
0000
0000
1000
0000
,
0000
0000
1010
0000
,
0000
0000
0000
0000
,
0000
0000
0110
0000
,
0000
0000
0000
0000
,
0000
0000
1001
0000
,
0000
0000
0000
0000
,
0000
0000
0101
0000
,
0000
0000
0000
0000
,
0000
0000
0001
0000
,
0000
0000
0001
0000
,
0000
0000
1000
0000
,
0000
0000
1000
0000
,
0000
0000
0010
0000
,
0000
0000
0010
0000
,
0000
0000
1000
0000
,
0000
0000
1001
0000
,
0000
0000
0100
0000
,
0000
0000
0100
0000
,
0000
0000
0010
0000
,
0000
0000
0000
0000
,
0000
0000
0010
0000
,
0000
0000
0010
0000
,
0000
0000
1000
0000
,
0000
0000
0000
0000
,
0000
0000
1001
0000
,
0000
0000
0000
0000
,
0000
0000
1001
0000
,
0000
0000
0000
0000
,
0000
0000
0010
0000
,
0000
0000
0100
0000
,
0000
0000
0100
0000
,
0000
0000
0010
0000
,
0000
0000
1000
0000
,
0000
0000
0001
0000
,
0000
0000
0001
0000
,
0000
0000
0100
0000
,
0000
0000
0010
0000
,
0000
0000
0010
0000
,
0000
0000
1000
0000
,
0000
0000
1000
0000
,
0000
0000
0001
0000
,
0000
0000
1000
0000
,
0000
0000
0010
0000
,
0000
0000
0010
0000
,
0000
0000
0110
0000
,
0000
0000
0000
0000
,
0000
0000
1001
0000
,
0000
0000
0000
0000
,
0000
0000
0011
0000
,
0000
0000
0000
0000
,
0000
0000
1100
0000
,
0000
0000
0000
0000
,
0000
0000
1000
0000
,
0000
0000
1000
0000
,
0000
0000
0001
0000
,
0000
0000
0001
0000
,
0000
0000
0100
0000
,
0000
0000
0100
0000
,
0000
0000
0010
0000
,
0000
0000
1001
0000
,
0000
0000
0001
0000
,
0000
0000
1000
0000
,
0000
0000
0001
0000
,
0000
0000
0000
0000
,
0000
0000
1000
0000
,
0000
0000
0010
0000
,
0000
0000
1000
0000
,
0000
0000
0000
0000
,
0000
0000
1001
0000
;

//--------------- dance-single - Alex ----------------
#NOTES:
     dance-single:
     Alex:
     Easy:
     3:
     0.207949,0.307333,0.130356,0.123114,0,201,183,18,17,0,0,0.207949,0.307333,0.130356,0.123114,0,201,183,18,17,0,0:
0000
0000
0100
0000
,
0100
0000
0010
0000
,
0010
0000
1000
0000
,
0001
0000
1000
0000
,
0001
1000
0001
0000
,
0100
0000
0010
0000
,
0010
0000
1000
0000
,
0001
0000
0010
0000
,
0001
0000
1001
0000
,
0001
0000
0101
0000
,
0100
0000
0110
0000
,
0010
0000
1000
0000
,
0001
1000
0001
0000
,
1000
0000
1000
0000
,
0010
0000
0010
0000
,
0100
0000
0100
0100
,
0010
0010
2000
0000
,
3000
0000
0002
0000
,
0003
0000
0200
0000
,
0300
0000
0010
0000
,
1000
0000
0002
0000
,
0003
0000
0200
0000
,
0300
0000
0010
0000
,
0010
0000
2000
0000
,
3000
0000
0010
0010
,
0010
0000
1000
0000
,
0001
0000
1000
1000
,
1000
0000
0001
0000
,
0100
0000
1001
0000
,
1001
0000
0110
0000
,
0110
0000
0010
0010
,
0100
0100
0220
0000
,
0330
0000
0001
0000
,
0001
0000
1000
0000
,
1000
0000
0010
0000
,
0010
0000
0100
0100
,
0100
0000
0010
0000
,
1000
0000
0001
0000
,
0010
0000
0010
0000
,
0001
0000
1000
1000
,
0001
0001
1001
0000
,
0000
0000
0010
0010
,
0100
0100
0110
0000
,
0000
0000
0010
0010
,
1000
1000
1001
0000
,
0000
0000
0001
0000
,
1000
0000
0001
0000
,
0001
0000
1000
1000
,
0001
0001
1001
0000
,
0010
0000
0100
0000
,
0001
0000
1000
0000
,
0001
0000
0100
0000
,
0010
0000
1000
1000
,
1000
0000
0001
0001
,
0001
0000
1000
0000
,
0001
0000
1000
0000
,
0001
0000
0100
0100
,
0100
0000
0110
0000
,
0000
0000
0010
0010
,
0010
0010
0010
0000
,
0001
0000
2000
0000
,
3000
0000
0002
0000
,
0003
0000
0100
0000
,
0010
0000
2000
0000
,
3000
0000
0002
0000
,
0003
0000
0200
0000
,
0300
0000
0010
0010
,
1000
1000
1001
0000
,
0000
0000
0010
0010
,
0010
0000
1000
0000
,
0001
0000
0001
0001
,
0001
0000
0100
0000
,
0010
0000
1000
1000
,
1000
0000
0001
0001
,
0001
0000
1000
0000
,
0001
0000
2002
0000
,
3003
0000
0001
0001
,
1000
0000
1000
1000
,
0010
0000
0100
0000
,
0001
0000
0010
0000
,
0100
0000
1000
1000
,
1000
0000
0010
0010
,
0010
0000
0100
0000
,
0001
0000
1001
0000
,
1001
0000
0000
0000
2002
0000
0000
3003
;

//--------------- dance-single - Alex ----------------
#NOTES:
     dance-single:
     Alex:
     Medium:
     6:
     0.427279,0.491733,0.304165,0.318649,0,413,371,42,44,0,0,0.427279,0.491733,0.304165,0.318649,0,413,371,42,44,0,0:
0000
0000
0010
0100
,
0010
0010
1000
0001
,
0100
0100
0001
0010
,
0100
1000
0001
0001
,
1000
0000
1000
0000
0010
0000
0000
1010
,
0000
0000
0010
1000
0001
0000
0100
0000
,
0010
0000
1000
0000
0100
0000
0000
1100
,
0000
0000
0010
0000
0000
0011
0000
0000
,
1001
0000
0110
0000
1001
0000
0001
0100
,
0001
0000
0010
0000
0100
0000
1000
0100
,
1000
0000
0010
0000
0100
0000
0001
1000
,
0010
0000
0100
0000
0001
0000
1000
0100
,
1000
0000
0001
0000
1001
0000
1000
0010
,
1000
0000
0010
0000
0100
0000
0001
0010
,
0001
0000
0100
0000
0100
0000
0010
1000
,
0001
0010
0100
1000
,
0001
0100
0001
0100
0002
0000
0003
2000
,
0000
3000
0020
0000
0030
0200
0000
0300
,
0002
0000
0003
1000
0010
0000
0100
0000
,
0001
0000
0010
0100
0000
0100
0000
0010
,
0001
0010
0001
0010
0002
0000
0003
2000
,
0000
3000
0020
0000
0030
0200
0000
0300
,
0002
0000
0003
1000
0100
0000
0100
0000
,
1000
0010
1000
0010
2000
0000
0000
0000
,
3000
0000
0010
1000
0010
0000
0100
0000
,
0001
0010
0001
0000
,
1001
0000
0110
0000
1001
0000
0001
0100
,
0000
0010
0000
1000
0000
0000
0000
0100
,
1000
0100
1000
0100
1000
0000
1000
0000
,
0001
0001
0100
0100
,
0010
0010
1000
0001
,
0010
0100
1000
0001
,
2002
3003
0001
1000
,
0010
0100
0010
0000
1000
0000
0001
0000
,
1000
0100
1000
0100
1000
0000
0000
1000
,
0000
0001
1000
0000
1001
0000
1001
0000
,
2002
3003
0001
0100
,
0010
0100
0010
0000
1000
0000
0001
0000
,
0010
0001
0010
0001
0010
0000
0000
0001
,
0000
0100
0010
0000
1001
0000
0110
0000
,
1001
1001
2002
0000
,
3003
0000
0000
0000
0001
1000
0001
0000
,
1000
0001
1000
0000
2002
0000
0000
0000
,
3003
0000
0000
0000
0010
0100
0010
0000
,
0100
0010
0100
0000
0110
0000
0000
2002
,
0000
0000
3003
0000
0001
1000
0001
0000
,
1000
0000
0010
0000
0100
0010
0100
0000
,
0001
0010
0011
1100
,
2002
0000
3003
0000
0001
0001
1000
0000
,
0010
0100
0001
1000
0100
0100
1000
1000
,
0010
0100
0001
0000
2002
0000
3003
0001
,
0100
0100
0010
0000
1000
0100
0010
0001
,
0000
1000
0001
1001
0001
0100
0001
0100
,
0002
0000
0003
0000
1000
0010
1000
0010
,
2000
0000
3000
0000
0010
0100
0010
0100
,
0010
0000
1000
0000
0001
1000
0001
1000
,
0001
1001
0001
0100
,
0100
0010
1000
1000
,
0001
0001
0010
0100
,
1000
0001
0100
0000
,
0010
0100
0010
0100
0020
0000
0030
0200
,
0000
0300
0002
0000
0003
2000
0000
3000
,
0200
0000
0300
0010
0001
0000
0100
0000
,
0010
0000
1000
0001
0000
0001
0000
1000
,
0010
1000
0010
1000
0020
0000
0030
0200
,
0000
0300
0002
0000
0003
0020
0000
0030
,
0200
0000
0300
1000
0010
0000
0100
0000
,
0001
1000
0001
1000
0002
0000
0000
0000
,
0003
0000
0100
0001
0100
0000
0010
0000
,
1000
0001
0010
0010
,
0011
0000
1100
0000
0011
0000
0001
0010
,
0000
0001
0000
0100
0000
0000
0000
0010
,
1000
0010
1000
0010
1000
0000
1000
0000
,
0001
0001
1000
1000
,
0010
0000
0010
0000
0100
0001
0100
0000
,
0001
0010
0001
0000
0101
0000
1010
0000
,
2002
3003
0001
1000
,
0010
1000
0010
0000
0100
0000
0001
0000
,
0010
0100
1000
0001
0100
0000
0000
0100
,
0000
0100
0100
0000
0110
0000
1001
0000
,
0220
0330
0001
1000
,
0010
0100
0010
0000
1000
0000
1000
0000
,
0001
0010
0001
0010
0001
0000
0000
0001
,
0000
0001
0100
0000
0110
0000
1001
0000
,
0110
0000
0110
0000
2002
0000
0000
3003
;

//--------------- dance-single - Alex ----------------
#NOTES:
     dance-single:
     Alex:
     Hard:
     9:
     0.5835,0.768333,0.383827,0.470731,0.162945,564,511,53,65,0,0,0.5835,0.768333,0.383827,0.470731,0.162945,564,511,53,65,0,0:
0000
0000
0000
0000
1000
0010
0100
0002
,
0003
2000
3000
0010
0100
0001
0100
0010
,
1000
1000
0001
0001
0010
0100
1000
0002
,
0003
2000
3000
0010
0100
0001
1000
0000
,
1000
0100
0010
0001
1001
0000
0010
1001
,
0000
0100
1001
1001
0001
0010
0001
0100
,
0010
0010
1000
0100
0010
0000
0010
0110
,
0000
0100
1100
0000
1000
1001
0000
0001
,
0100
0010
1000
0001
0020
0030
0001
0001
,
1000
1000
0010
0100
0002
0003
1000
0100
,
0010
0001
1000
0010
0200
0300
0001
0001
,
0010
0010
0001
0100
0020
0030
0100
0100
,
0001
0001
1000
0010
1010
0000
0010
0100
,
0001
0000
1000
0000
0100
0000
0000
0100
0000
0000
0100
0000
1000
0000
0010
0000
,
0100
0000
0001
0000
0010
0000
0000
0010
0000
0000
0001
0000
0100
0000
0010
0100
,
0010
1000
0001
0010
0001
0001
1000
1000
,
0010
0100
0001
1000
0200
0300
1000
0020
,
0030
0100
0002
0003
1000
0200
0300
1000
,
0002
0003
0010
0001
0200
0300
0020
0030
,
2000
3000
0002
0003
0020
0030
0200
0000
0000
0000
2300
0000
0000
0000
3010
0000
,
0100
0001
0100
0010
2000
3000
0001
0020
,
0030
0001
0200
0300
0010
2000
3000
0100
,
0020
0000
0030
0000
0002
0003
0200
0300
0020
0000
0000
0000
2030
0000
0000
0000
,
3200
0300
0020
0030
0002
0003
0200
0300
0020
0000
0000
0000
0000
0000
0000
0000
,
0000
0030
1000
0010
0100
0001
0010
0001
,
0000
0100
0000
0010
0000
1000
0000
0000
,
1001
0000
0110
0000
1001
0000
0001
0100
,
0000
0010
0000
1000
0000
0000
0000
0100
,
0010
0001
0100
0010
1001
0000
0001
0100
,
0001
0000
1000
0010
1000
0000
0001
0100
,
0000
0100
0001
0000
0010
0100
1000
0001
,
0100
0000
0000
0010
0000
0000
1000
0000
0000
0100
0000
0000
0010
0000
0000
0000
0011
0000
0000
0000
0001
0000
0000
0000
,
0101
0000
0000
0000
0100
0000
0000
0000
0110
0000
0000
0000
0010
0000
0000
1000
0000
0000
0100
0000
0000
0000
0000
0000
,
1000
0010
0100
0001
0010
0100
1000
0000
,
0001
1000
0001
0100
0010
0000
0000
1001
,
0000
0000
0000
1001
0000
0000
1001
0000
0000
0000
0000
0000
0001
0000
0000
0000
1001
0000
0000
0000
1000
0000
0000
0000
,
1010
0000
0000
0000
0010
0000
0000
0000
0110
0000
0000
0000
0100
0000
0000
0001
0000
0000
0100
0000
0000
0000
0000
0000
,
0001
0010
0001
1000
0010
0010
0100
0000
,
0001
0010
0100
1000
0001
0000
0000
1001
,
0000
1001
1001
0000
0001
0100
0001
1000
,
0010
1000
0001
0010
0400
0000
0000
0000
,
0000
0000
0300
0000
1000
0010
1000
0001
,
0010
0001
0100
0100
0040
0000
0000
0000
,
0000
0000
0030
0000
1000
0001
0010
0001
,
0100
0010
1000
0001
0400
0000
0300
0040
,
0000
0000
0030
0000
1000
0001
0010
0001
,
1000
0010
0100
0000
0001
1000
0100
0010
,
0001
0000
0000
0100
0000
0000
0010
0000
0000
0000
0000
0000
1000
0000
0000
0000
1001
0000
0000
0000
0001
0000
0000
0000
,
0101
0000
0000
0000
0000
0000
0000
0000
0100
0000
0000
0000
0000
0000
0000
0000
0110
0000
0000
0000
0000
0000
0000
0000
0010
0000
0000
1000
0000
0000
0100
0000
0000
0010
0000
0000
0001
0000
0000
0000
0000
0000
0001
0000
0000
1000
0000
0000
,
0010
0000
0100
0000
0001
0010
0001
0000
1000
0010
1000
0000
1000
0000
0010
0100
,
0001
1000
0100
0010
0001
0000
0100
0000
0020
0000
0000
0000
0030
0000
0100
0001
,
0100
0100
0010
0010
1000
0000
0001
0000
0010
0100
1000
0001
0100
0000
0101
0000
,
0000
0000
0001
1000
0010
0000
0010
0000
0100
0000
0001
0000
0010
0000
0100
0000
,
2000
0000
3000
0000
0001
1000
0001
1000
,
0020
0000
0030
0000
0100
0001
0010
0100
,
1000
0000
0001
1000
0010
0100
0001
0000
,
0101
0000
0000
0000
1010
0000
0000
0000
0010
1000
0000
0000
0001
0100
0000
0000
,
0101
0000
0001
0010
0100
1000
0001
0000
,
1000
0000
0000
0000
0010
0000
0000
0000
0100
0010
0000
0000
1000
0001
0000
0000
,
1001
0110
2002
3003
,
0001
1000
0001
0100
0002
0003
1000
0020
,
0030
0100
0002
0003
1000
0200
0300
0010
,
0002
0003
0100
0010
2000
0000
3002
0000
,
0013
0000
0100
0000
1000
0000
0010
0000
0000
0000
0010
0000
0000
0000
0200
0300
,
0002
0003
0020
0030
0002
0003
0200
0300
0020
0000
0030
0000
1000
0000
0002
0000
,
0003
0100
0020
0030
1000
0200
0300
0010
,
0002
0003
0100
0010
2000
0000
3002
0000
,
0023
0030
0200
0300
2000
3000
0020
0030
0200
0000
0000
0000
0000
0000
0000
0000
,
0000
0300
0010
0010
1000
0000
0001
0100
,
0000
0001
0000
0001
0000
1000
0000
0000
,
1001
0000
0110
0000
1001
0000
0001
1000
,
0000
0010
0000
0100
0000
0000
0000
0001
,
0010
0100
1000
0001
0100
0000
0100
0010
,
0100
0000
0001
1000
0001
0000
1000
0001
,
0000
0001
1000
0000
0010
0100
0001
0100
,
0010
0000
0000
1000
0000
0000
0100
0000
0000
0100
0000
0000
1000
0000
0000
0000
1100
0000
0000
0000
0100
0000
0000
0000
,
0110
0000
0000
0000
0010
0000
0000
0000
0011
0000
0000
0000
0001
0000
0000
0010
0000
0000
0001
0000
0000
0000
0000
0000
,
0001
0100
0010
0010
0100
0100
0001
0000
,
1000
0100
0010
0001
1000
0000
0000
1001
,
0000
0000
0000
1001
0000
0000
1001
0000
0000
0000
0000
0000
0010
0000
0000
0000
0110
0000
0000
0000
0100
0000
0000
0000
,
0101
0000
0000
0000
0001
0000
0000
0000
1001
0000
0000
0000
1000
0000
0000
0010
0000
0000
1000
0000
0000
0000
0000
0000
,
0001
0010
0001
0001
0100
0100
0010
0000
,
1000
0100
1000
0010
0100
0000
0000
0110
,
0000
0000
0000
0110
0000
0000
0110
0000
0000
0000
0000
0000
0001
0000
0000
0000
1001
0000
0000
0000
1000
0000
0000
0000
,
1001
0000
0000
0000
0001
0000
0000
0000
1001
0000
0000
0000
2002
0000
0000
0000
0000
0000
0000
0000
0000
3003
0000
0000
;
