#TITLE:GGUM;
#SUBTITLE:;
#ARTIST:Yeonjun(TXT);
#TITLETRANSLIT:;
#SUBTITLETRANSLIT:;
#ARTISTTRANSLIT:;
#GENRE:;
#CREDIT:;
#MUSIC:GGUM.ogg;
#BANNER:GGUM.png;
#BACKGROUND:GGUM-BG.png;
#CDTITLE:;
#SAMPLESTART:50.940;
#SAMPLELENGTH:16.124;
#SELECTABLE:YES;
#OFFSET:0.026;
#BPMS:0.000=129.000
,109.000=64.500
,111.000=129.000
,219.000=64.500
,221.000=129.000
;
#STOPS:;
#BGCHANGES:1.000=GGUM.avi=1.000=1=0=0=StretchNoLoop==CrossFade==,
99999.000=-nosongbg-=1.000=0=0=0=StretchNoLoop====
;
#FGCHANGES:;

//--------------- dance-single - Alex ----------------
#NOTES:
     dance-single:
     Alex:
     Beginner:
     1:
     0.076084,0.104188,0.039944,0,0,80,74,6,0,0,0,0.076084,0.104188,0.039944,0,0,80,74,6,0,0,0:
0000
0000
0000
0000
,
0000
0000
0000
0000
,
0000
0000
0000
0000
,
0000
0000
0000
0000
,
0000
0000
0000
0000
,
0000
0000
0000
0000
,
0000
0000
0000
0000
,
0000
0000
0000
0000
,
0000
1001
0000
0000
,
0000
0010
0000
0000
,
0000
1000
0000
0000
,
0000
1000
0000
0000
,
0000
0001
0000
0001
,
0000
0001
0000
0000
,
0000
0100
0000
0000
,
0000
0001
0000
0000
,
0000
0010
0000
0000
,
0000
1000
0000
0000
,
0000
0001
0000
0000
,
0000
0100
0000
0000
,
0000
0100
0000
0000
,
0000
0010
0000
0000
,
0000
0010
0000
0000
,
0000
1000
0000
0000
,
0000
1001
0000
0000
,
0000
0000
0010
0000
,
0000
0000
1000
0000
,
0000
0000
0000
0001
,
0000
0000
0000
0001
,
0000
0000
0000
1000
,
0000
0000
0000
1000
,
0000
0000
0000
0010
,
0000
0000
0000
0100
,
0000
0000
0000
1000
,
0000
0000
0000
0010
,
0000
0000
0000
1001
,
0000
0000
0000
0100
,
0000
0000
0000
0001
,
0000
0000
0000
1000
,
0000
0000
0000
0010
,
0000
0010
0000
0010
,
0000
0000
0000
1000
,
0000
0000
0000
0001
,
0000
0000
0000
0100
,
0000
0000
0000
0010
,
0000
0000
0000
1000
,
0000
0000
0000
0001
,
0000
0000
0000
0010
,
0000
0000
0000
0001
,
0000
0000
0000
0100
,
0000
0000
0000
1000
,
0000
0000
0000
1010
,
0000
0000
0000
0000
,
0010
0000
0000
0000
,
0100
0000
0000
0000
,
0000
1000
0000
0000
,
0000
1000
0000
0000
,
0000
0001
0000
0000
,
0000
0010
0000
0000
,
0000
0100
0000
0000
,
0000
0001
0000
0000
,
0000
0001
0000
0000
,
0000
1000
0000
0000
,
0000
1001
0000
0000
,
0000
1000
0000
0000
,
0000
0010
0000
0000
,
0000
0010
0000
0000
,
0000
0100
0000
0100
,
0000
0100
0000
0000
,
0000
0001
0000
0000
,
0000
1000
0000
0000
,
0000
1001
0000
0000
,
0000
0001
0000
0000
,
0000
0010
0000
0000
,
0000
0010
0000
0000
,
0000
0001
0000
0001
,
0000
0001
0000
0000
,
0000
1000
0000
0000
,
0000
1000
0000
0000
;

//--------------- dance-single - Alex ----------------
#NOTES:
     dance-single:
     Alex:
     Easy:
     2:
     0.130295,0.184368,0.059917,0.093203,0,137,128,9,14,0,0,0.130295,0.184368,0.059917,0.093203,0,137,128,9,14,0,0:
0000
0000
0000
0000
,
0000
0000
0000
0000
,
0000
0000
0000
0000
,
0000
0000
0000
0000
,
0000
0000
0000
0000
,
0000
0000
0000
0000
,
0000
0000
0000
0000
,
0000
0000
0000
0000
,
0000
0100
0000
0100
,
0000
0100
0000
0000
,
0000
0001
0000
1000
,
0000
0001
0000
0000
,
0000
1000
0010
1000
,
0000
0001
0100
0001
,
0000
0000
2000
0000
0000
3000
0000
0000
,
0000
0000
0002
0000
0000
0003
0000
0000
,
0000
0100
0000
0010
,
0000
0100
0000
0000
,
0000
0001
0000
1000
,
0000
0001
0000
0000
,
0000
1000
0000
1000
,
0000
1000
0000
0010
,
0000
1000
0000
0000
,
0000
0001
0000
1000
,
0000
1001
0000
0000
,
0000
0000
0110
0000
,
0000
0000
1001
0000
,
0000
0000
0000
0010
,
0000
0010
0000
1000
,
0000
0001
0000
1000
,
1000
1000
0000
0001
,
0001
0001
0000
0100
,
0000
0010
0000
0100
,
0000
0001
0000
1000
,
1000
1000
0000
0010
,
0010
0010
0000
1000
,
0000
0001
0000
2000
,
0000
3000
0000
0000
0000
0000
0010
0000
,
0000
0100
0000
0020
,
0000
0030
0000
0000
0000
0000
0100
0000
,
0010
0100
0000
0001
,
1000
0001
0000
2000
,
0000
3000
0000
0000
0000
0000
0002
0000
,
0000
0003
0000
0000
0000
0000
0100
0000
,
0000
0001
0000
0101
,
0000
0000
0000
0010
,
0000
1000
0000
1010
,
0000
0000
0000
1000
,
0000
0001
0000
0001
,
0000
1000
0000
0010
,
0000
0100
0000
1001
,
0000
0000
0000
0011
,
0000
0000
0000
0000
,
0101
0000
0000
0000
,
0110
0000
0000
0000
,
0000
1000
0000
0001
,
0000
1000
0000
0001
,
0000
0100
0100
0100
,
0000
0010
0010
0010
,
0000
1000
0000
1000
,
0000
0001
0000
0001
,
0000
1000
1000
1000
,
0000
0010
0010
0010
,
0000
0100
0000
0001
,
0000
0000
0200
0000
0000
0300
0000
0000
,
0000
0001
0000
1000
,
0000
0000
0002
0000
0000
0003
0000
0000
,
0000
1000
0001
1000
,
0000
0001
0100
0001
,
0000
0000
0020
0000
0000
0030
0000
0000
,
0000
0000
0200
0000
0000
0300
0000
0000
,
0000
1000
0000
0010
,
0000
0000
2000
0000
0000
3000
0000
0000
,
0000
0001
0000
1000
,
0000
0000
0020
0000
0000
0030
0000
0000
,
0000
0100
0001
0100
,
0000
0010
1000
0010
,
0000
0000
2000
0000
0000
3000
0000
0000
,
0000
0002
0000
0000
,
0000
0003
0000
0000
0000
0000
0000
0000
;

//--------------- dance-single - Alex ----------------
#NOTES:
     dance-single:
     Alex:
     Medium:
     5:
     0.262491,0.31606,0.053259,0.093203,0,276,268,8,14,8,0,0.262491,0.31606,0.053259,0.093203,0,276,268,8,14,8,0:
0000
0000
0000
0000
,
0000
0000
0000
0000
,
0000
0000
0000
0000
,
0000
0000
0000
0000
,
0000
0000
0000
0000
,
0000
0000
0000
0000
,
0000
0000
0000
0000
,
0000
0000
0000
0000
,
0000
0001
1000
0010
,
0100
0001
1000
0100
,
0000
1000
0010
1000
,
0001
0010
0001
0100
,
0000
0000
0010
1000
0010
0000
0100
0001
,
0100
0000
0001
1000
0001
1000
0002
0000
,
0003
1000
0010
1000
,
0000
0001
0100
0001
,
0000
1000
0100
0010
,
0001
0100
0010
0100
,
0000
0001
0010
0100
,
0010
0001
1000
0001
,
0000
1000
1000
0010
,
0010
1000
0001
0010
,
0100
1000
0001
0100
,
0010
0100
0100
0001
,
1000
1200
1000
1000
,
1000
1300
2010
0010
,
0010
3010
0201
0001
,
0301
0000
MMMM
0001
,
0100
0001
0100
0010
,
1000
0010
1000
0001
,
0010
0100
0000
1000
,
0001
0100
0000
0001
,
1000
0010
1000
0001
,
0010
0001
0100
0010
,
0100
0001
0000
1000
,
0100
0010
0000
0001
,
1000
0010
1000
1000
,
0001
0100
0000
0001
,
0010
0100
0010
0001
,
0100
0000
0010
0000
0000
0000
1000
0100
,
1000
0000
0001
0010
0001
0000
1000
0001
,
1000
0001
2000
0000
3000
0000
0010
0000
,
0100
0010
0000
1000
,
0001
0010
0000
0001
,
0100
0010
0100
0001
,
1000
0000
0100
1000
0100
0000
1000
0000
,
0010
0010
1000
0001
,
0100
0000
0010
0100
0010
0000
1000
0000
,
0001
0010
0100
0010
,
0001
0100
0100
0010
,
1000
0001
0010
0100
,
1000
0010
1000
1002
,
1000
1000
1000
1003
,
2010
0010
0010
3010
,
0120
0100
0130
0000
,
MMMM
0001
0100
0001
,
1000
0010
1000
0001
,
0010
0100
0010
0001
,
0000
1000
0010
1000
,
0000
0001
0001
1000
,
1000
0010
1000
0001
,
0100
0001
0010
0100
,
0000
0010
0001
1000
,
0000
0010
0010
0100
,
0100
0001
1000
0100
,
0000
1000
0001
0100
,
0010
1000
0001
0010
,
0000
0000
0001
0100
0001
0000
1000
0010
,
1000
0000
0001
1000
0001
1000
0002
0000
,
0003
0100
0010
0100
,
0000
0001
1000
0001
,
0000
1000
0010
1000
,
0001
0100
0010
2000
,
3000
0001
0010
0100
,
0010
0001
0100
0020
,
0030
0000
1000
0010
1000
0000
0001
0100
,
0001
0000
1000
0100
1000
0100
2000
0000
,
3000
0010
1000
1001
,
0000
0001
0100
0220
,
0000
0330
0000
0000
0000
0000
0000
0000
;

//--------------- dance-single - Alex ----------------
#NOTES:
     dance-single:
     Alex:
     Hard:
     8:
     0.4508,0.527598,0.013315,0.173092,0.106518,474,472,2,26,8,0,0.4508,0.527598,0.013315,0.173092,0.106518,474,472,2,26,8,0:
0000
0000
0000
0000
,
0000
0000
0000
0000
,
0000
0000
0000
0000
,
0000
0000
0000
0000
0000
0000
0000
0M00
,
00M0
0M00
00M0
0M00
00M0
0M00
00M0
0000
,
0000
0000
0000
0000
,
0000
0000
0000
0000
,
0000
0000
0000
0000
0000
0000
0000
1001
,
1001
0000
0001
0100
0010
0100
0001
0010
,
0100
1000
0001
0000
0001
0200
0000
0000
,
0310
0000
0010
0010
1000
1000
0100
1000
,
0010
1000
0001
0000
0001
0200
0000
0000
,
0301
0000
0000
0000
0001
0000
1000
0001
1000
0000
0001
1000
0001
0000
0100
0000
,
0010
0000
0000
0000
0100
0010
0100
0010
0100
0000
0100
0001
0100
0000
0001
0000
,
1000
0000
1000
0000
0010
0100
0000
0100
,
0010
0000
1000
0000
0001
1000
0000
1000
,
0001
1000
0010
0100
0001
0010
0100
0000
,
1000
0010
0100
0000
0001
1000
0200
0000
,
0300
0010
0010
0001
0100
0010
1000
0000
,
0001
0100
0010
1000
1000
0001
2000
0000
,
3010
0000
0100
0000
0010
0000
0100
0000
0001
0000
0000
0000
1000
0001
1000
0000
,
0001
0000
0000
0000
0000
0000
0001
0000
0100
0000
0010
0100
0001
0000
0100
0000
,
0010
0000
0010
1000
1000
0001
0010
0000
,
0001
0100
0010
0100
0001
0010
0100
0000
,
1000
0010
0100
0001
0100
0000
0001
0010
,
0001
0000
1000
0010
1000
0001
1000
0010
,
0100
0001
0010
0100
2000
0000
3000
0010
,
0200
0000
0000
0000
0300
0001
1000
0010
0100
0001
2000
0000
3001
0000
0100
0000
,
0010
0100
0001
0100
0010
0000
1000
0100
,
0010
0100
1000
0001
0100
0010
1000
0000
,
1000
0001
0000
0001
1000
0001
1000
0000
,
0010
0100
0000
0100
0020
0000
0130
0001
,
0100
0001
0010
0100
0010
0000
0001
0100
,
0010
0100
0001
1000
0010
0000
0100
0000
,
0001
1000
0000
1000
0001
0010
0001
0000
,
0100
0010
0000
0010
0200
0000
0310
0010
,
1000
1000
0001
1000
0010
0100
0001
0000
,
0001
0020
0000
0000
0130
0000
1000
0010
,
0100
0001
1000
0100
0010
0001
0100
0000
,
0100
0000
0020
0000
0000
0000
0000
0000
1030
0000
0000
0000
0001
0000
1000
0001
,
1000
0000
0001
0100
0001
0000
1000
0000
0010
0000
0000
0000
0100
0010
0100
0010
,
0100
0000
0100
0001
1000
0000
0100
0000
0010
0000
0000
0000
0001
0000
0000
0000
,
0100
0001
0000
0001
0100
0000
0010
0000
,
1000
0000
0020
0000
0000
0000
0000
0000
0030
0000
0000
0000
1000
0001
1000
0001
,
1000
0000
0001
0100
1000
0000
1000
0100
,
0001
0000
0100
0000
1000
0000
0010
0000
0100
0000
0001
0000
0010
0001
0010
0001
,
0010
0000
0001
0010
1000
0000
1000
0010
,
0001
0010
1000
0100
0001
0100
0010
0100
,
0001
1000
0100
0000
0010
0001
0100
0000
,
0010
1000
0200
0000
0300
0000
1000
0010
,
1000
0010
1000
0000
0001
0100
0001
0000
,
1000
0100
1000
0000
0010
0100
0001
1000
,
0010
0000
0100
0001
0100
0000
0001
0010
,
0001
1000
0010
0100
0001
1000
0100
0010
,
0002
0000
0000
0000
0003
0000
1000
0000
0020
0000
0000
0000
0030
0100
0001
0100
,
0001
1000
0020
0000
1030
0000
0001
0000
0100
0000
0001
0000
1000
0000
0010
0000
,
0100
0000
0001
0010
0100
0010
0001
0100
,
0010
0100
0001
0000
1000
0010
0000
0010
,
1000
0010
1000
0000
0001
2000
0000
0000
,
3001
0000
0001
1000
0010
1000
0001
0010
,
0001
0000
0100
0010
1000
0100
0010
0100
,
1000
0001
0100
0000
0010
0100
0000
0001
,
0010
0001
0010
0000
0001
2000
0000
0000
,
3001
0000
0001
0001
1000
1000
0010
0100
,
0001
1000
0100
0000
0010
0002
0000
0000
,
0103
0000
0100
0100
0010
0010
1000
0100
,
0010
0100
1000
0000
0001
0200
0000
0000
,
0301
0000
0000
0000
1000
0000
0010
1000
0010
0000
1000
0001
1000
0000
0001
0000
,
0100
0000
0000
0000
0001
0100
0001
0100
0001
0000
0100
0001
0100
0000
0010
0000
,
0010
0000
1000
0000
0100
2000
0000
0000
,
3010
0000
0100
0000
0001
0020
0000
0000
,
0031
0000
0001
0100
0010
1000
0100
0010
,
0001
0100
0010
0000
0010
2000
0000
0000
,
3001
0000
0001
1000
0010
0010
0100
0001
,
0010
0100
0010
0000
0001
0200
0000
0000
,
0310
0000
0000
0000
0010
0000
1000
0010
1000
0000
0001
1000
0001
0000
1000
0000
,
0001
0000
0000
0000
1000
0001
1000
0001
1000
0000
0001
1000
0001
0000
0100
0000
,
0010
0000
1000
0000
0001
2000
0000
0000
,
3010
0000
0100
0000
0001
0010
0000
0100
,
1000
0020
0030
0000
0000
0000
0000
0000
;
