#TITLE:Freeze;
#SUBTITLE:;
#ARTIST:Stray Kids;
#TITLETRANSLIT:;
#SUBTITLETRANSLIT:;
#ARTISTTRANSLIT:;
#GENRE:;
#CREDIT:;
#MUSIC:Freeze.ogg;
#BANNER:Freeze.png;
#BACKGROUND:Freeze-BG.png;
#CDTITLE:;
#SAMPLESTART:54.002;
#SAMPLELENGTH:20.538;
#SELECTABLE:YES;
#OFFSET:-0.092;
#BPMS:0.000=160.000
,74.000=80.000
,74.250=240.000
,75.000=160.000
,144.000=53.330
,145.000=960.000
,146.500=124.000
,147.000=160.000
,160.500=53.330
,161.000=960.000
,162.500=100.000
,163.000=160.000
,211.000=80.000
,241.000=480.000
,242.750=61.000
,243.000=160.000
,256.500=53.330
,257.000=480.000
,258.750=80.000
,259.000=160.000
;
#STOPS:241.000=2.595;
#BGCHANGES:4.000=Freeze.avi=1.000=1=0=0=StretchNoLoop==CrossFade==,
99999.000=-nosongbg-=1.000=0=0=0=StretchNoLoop====
;
#FGCHANGES:;

//--------------- dance-single - Alex ----------------
#NOTES:
     dance-single:
     Alex:
     Beginner:
     1:
     0.087678,0.119052,0.08134,0,0,83,72,11,0,0,0,0.087678,0.119052,0.08134,0,0,83,72,11,0,0,0:
0000
0000
0000
0000
,
0000
0000
0000
0000
,
0000
0000
0000
0000
,
0000
0000
0000
0000
,
0000
0000
0000
0000
,
0100
0000
0000
0000
,
0100
0000
0000
0000
,
0001
0000
0000
0000
,
0001
0000
0000
0000
,
1000
0000
0000
0000
,
1000
0000
0000
0000
,
0010
0000
0000
0000
,
1000
0000
0000
0000
,
0001
0000
0000
0000
,
0001
0000
0000
0000
,
1000
0000
0000
0000
,
1000
0000
0000
0000
,
0010
0000
0000
0000
,
0010
0000
0000
0000
,
1000
0000
0000
0000
,
0001
0000
0000
0000
,
1001
0000
0000
0000
,
0100
0000
0000
0000
,
0100
0000
0000
0000
,
0000
0000
0000
0000
,
0010
0000
0000
0000
,
0010
0000
0000
0000
,
0010
0000
0000
0000
,
0000
0000
0000
0000
,
1000
0000
0000
0000
,
0001
0000
0000
0000
,
1000
0000
0000
0000
,
0000
0000
0000
0000
,
0010
0000
0000
0000
,
0100
0000
0000
0000
,
0010
0000
0000
0000
,
0000
0000
0000
1001
,
0000
0000
0000
0010
,
0000
0000
0000
0100
,
0000
0000
0000
0010
,
0000
0000
0000
1001
,
0000
0000
0000
1000
,
0000
0000
0000
0001
,
0000
0000
0000
1000
,
0000
0000
0000
1001
,
0000
0000
0000
0010
,
0000
0000
0000
0100
,
0000
0000
0000
0100
,
0000
0000
0000
1001
,
0000
0000
0000
0001
,
0000
0000
0000
1000
,
0000
0000
0000
0010
,
0000
0000
0000
1010
,
0000
0000
0000
0010
,
0000
0000
0000
0100
,
0000
0000
0000
0001
,
0000
0000
0000
1000
,
0000
0000
0000
0010
,
0000
0000
0000
0100
,
0000
0000
0000
0010
,
0000
0010
0000
0001
,
0000
0000
0000
1000
,
0000
0000
0000
0001
,
0000
0000
0000
1000
,
0000
0000
0000
1001
,
0000
0000
0000
0010
,
0000
0000
0000
0100
,
0000
0000
0000
0010
,
0000
0000
0000
1000
,
0000
0000
0000
1000
,
0000
0000
0000
0001
,
0000
0000
0000
0001
,
0000
0000
0000
1001
,
0000
0000
0000
0010
,
0000
0000
0000
0100
,
0000
0000
0000
0100
,
0000
0000
0000
1001
,
0000
0000
0000
0000
,
0000
0000
0000
0110
,
0000
0000
0000
0000
,
0000
0000
1001
0000
;

//--------------- dance-single - Alex ----------------
#NOTES:
     dance-single:
     Alex:
     Easy:
     4:
     0.271485,0.357156,0.229231,0.051762,0,257,226,31,7,0,0,0.271485,0.357156,0.229231,0.051762,0,257,226,31,7,0,0:
0000
0000
0000
0000
,
0000
0000
0000
0000
,
0000
0000
0000
0000
,
0000
0000
0000
0000
,
0000
0000
0000
0000
,
1000
0010
1000
0000
,
0001
0010
0001
0000
,
0100
0100
0001
0001
,
0010
0100
1000
0010
,
1010
0000
0010
0000
,
0100
0000
0100
0000
,
0001
0001
1000
1000
,
2002
0000
0000
0000
0000
3003
0000
0000
,
0010
0100
0010
0000
,
0100
0001
0100
0000
,
0001
1000
0001
0000
,
1000
0010
1000
0000
,
1010
0000
0110
0000
,
0101
0000
0010
0010
,
0010
0100
0010
0000
,
1000
0001
1000
0001
,
0010
0000
0011
0000
,
0001
0000
1001
0000
,
1000
1000
0010
0010
,
0020
0000
0030
0000
,
0100
0000
0101
0000
,
0001
0000
1001
0000
,
1000
0000
0001
0000
,
1000
0010
1000
0010
,
0100
0000
0101
0000
,
0001
0000
0011
0000
,
0010
0010
0010
0000
,
0100
0100
0100
0100
,
0010
0000
0001
0000
,
1000
0000
0010
0000
,
0100
0001
1000
0001
,
1001
0000
0000
0010
,
0010
0100
0000
0001
,
0001
1000
0000
1000
,
1000
0010
0010
0100
,
0100
1001
0000
0001
,
1000
0001
0000
1000
,
0010
1000
0000
0010
,
0000
0100
0000
0001
,
0000
1000
0100
1100
,
1100
1100
0000
0011
,
0000
0001
0100
0110
,
0110
0110
0000
1001
,
0000
0010
0000
0100
,
0001
0100
0000
0010
,
1000
0010
1000
0001
,
0002
0000
0003
0001
,
1000
0001
1000
0010
,
0010
0100
0100
0001
,
1000
0020
0030
0100
,
0100
0001
0001
1000
,
0001
0000
2000
0000
3000
0000
0010
0100
,
0010
0000
0100
0000
0001
0000
1000
0001
,
1000
0010
1000
0001
,
0100
0010
1000
0000
0001
0010
0001
0000
,
0100
0110
0000
0010
,
0010
0010
0000
1000
,
1000
1000
0000
0001
,
1000
0001
1000
0010
,
0010
0000
0000
0110
,
0010
0010
0000
1000
,
0001
0010
0000
0011
,
0000
0001
0001
0100
,
0100
0010
1000
0001
,
0010
0011
0000
1001
,
0000
0001
1000
0010
,
1010
1010
0000
0010
,
0000
0100
0000
0001
,
1000
0001
0000
1000
,
0010
1000
0100
0100
,
0020
0000
0030
1001
,
0000
1001
0000
0010
,
0100
0010
0000
1000
,
0000
0001
0000
1000
,
0001
1000
0001
0000
,
0010
0010
0110
0000
;

//--------------- dance-single - Alex ----------------
#NOTES:
     dance-single:
     Alex:
     Medium:
     7:
     0.447898,0.59526,0.266203,0.036973,0.007395,424,388,36,5,0,0,0.447898,0.59526,0.266203,0.036973,0.007395,424,388,36,5,0,0:
0000
0000
0000
0000
,
0000
0000
0000
0000
,
0000
0000
0000
0000
,
0000
0000
0000
0000
,
0000
0000
0000
0000
,
0001
1000
0001
1000
0010
0000
0000
0000
,
0010
0100
0001
1000
0100
0000
0000
0000
,
1000
1000
0001
0001
,
0100
0010
0100
0000
0001
1000
0001
0000
,
1001
0000
0001
0010
0001
0000
0100
0010
,
0000
0000
0010
1000
0100
0000
0100
1000
,
0010
0100
0001
1000
,
0001
1000
0001
1000
0001
1000
0001
0000
,
1000
0000
0010
0000
1000
0010
1000
0000
,
0010
0000
0100
0000
0001
0100
0001
0000
,
0010
0000
0100
0000
1000
0100
1000
0000
,
0010
0000
0100
0000
0001
1000
0010
0000
,
0010
0100
0010
0100
0010
0000
1000
0000
,
0001
1000
0001
1000
1001
0000
0110
0000
,
0010
0100
0010
0000
1000
0001
1000
0000
,
0001
0010
0100
1000
0001
0100
0010
1000
,
0200
0000
1000
0000
1000
0000
1000
0300
,
2000
0000
0010
0000
0010
0000
0010
3000
,
0020
0000
0100
0000
0100
0000
0100
0030
,
0001
0000
0010
0000
0001
0010
0100
1000
,
0002
0000
1000
0000
0100
0000
1000
0003
,
2000
0000
0010
0000
0100
0000
0001
3000
,
0001
0000
0010
0000
0100
1000
0001
0100
,
0000
0110
0000
1001
0000
0000
0001
1000
,
0010
0000
0010
0100
0010
0000
1000
0000
,
0001
0010
0100
1000
,
0001
1000
0001
0000
1000
0001
1000
0000
,
0010
0100
0010
0000
0100
0010
0100
0010
,
0100
0000
0001
0000
0010
0000
0100
1000
,
0001
0100
0000
0100
0000
0010
1000
0001
,
0010
0001
1000
0001
,
1001
0110
0000
0010
,
1000
0000
0001
0000
0010
0001
0010
0000
,
0001
0100
0001
0000
0101
0000
1010
0000
,
0000
0000
0010
1000
0010
1000
0010
0100
,
0010
0100
1001
0000
0000
0000
0001
0000
,
1000
0000
0010
0000
1000
0100
1000
0000
,
0010
0100
0010
0000
0100
0000
1001
0000
,
0000
0000
0001
1000
0001
0100
0001
0010
,
0001
0100
0010
0000
1000
0000
0100
0000
,
1100
0000
1000
1000
0010
0000
0100
0000
,
0001
0010
0100
0010
,
0011
0000
0001
0001
0100
0000
0010
1000
,
0001
1001
0000
0001
,
0100
0000
0010
0000
1000
0100
1000
0000
,
0010
1000
0010
0100
0010
1000
0010
0000
,
0101
0000
0000
0100
,
0010
0100
1001
0001
,
1000
0001
0010
0000
0100
1000
0001
0000
,
0001
0100
0010
1000
0100
0010
0001
0000
,
1000
0010
1000
0000
0001
0010
0001
0000
,
0100
0000
0100
0010
1000
0001
0010
1001
,
1001
0000
0010
0100
0001
1000
0100
1100
,
1100
0000
0100
1000
0010
0100
0101
0000
,
0001
1000
1010
0000
0010
0100
0001
1000
,
0100
0010
0100
0010
0100
0000
0000
0000
0000
0000
0000
0000
0010
0000
0000
0000
,
0100
0000
0110
0000
0010
1000
0001
0000
,
0001
1000
0010
0000
1010
0000
0101
0000
,
0000
0000
0001
0010
0001
0000
0100
0001
,
0100
0001
1001
0000
0000
0000
0001
0000
,
1000
0000
1010
0000
0010
1000
0010
0000
,
0100
0010
0100
0000
0001
0000
1001
0000
,
0000
0000
1000
0100
1000
0000
0010
1000
,
0010
0000
0100
0001
0100
0001
0100
0000
,
0010
0000
1000
0001
1000
0000
0001
0000
,
0011
0000
0001
0100
0001
0000
0010
0000
,
0110
0000
0100
1000
0100
0000
1000
0010
,
1000
0010
0100
0000
0000
0000
0001
0000
,
1000
0000
0010
0000
0100
0001
0100
0000
,
0010
0010
1000
1000
0001
0001
0010
0000
,
0011
0000
0000
0101
,
0010
0000
1010
0000
1000
0000
0100
1000
,
0100
0000
0100
0000
0100
0100
0000
0000
,
1000
0000
0010
0000
0100
0000
0001
0010
,
0001
0000
1000
0000
0010
0100
0000
0000
,
1001
1001
1001
0000
;

//--------------- dance-single - Alex ----------------
#NOTES:
     dance-single:
     Alex:
     Hard:
     9:
     0.579943,0.803601,0.421489,0.236625,0.269901,549,492,57,32,0,0,0.579943,0.803601,0.421489,0.236625,0.269901,549,492,57,32,0,0:
0000
0000
0000
0000
,
0000
0000
0000
0000
,
0000
0000
0000
0000
,
0000
0000
0000
0000
0000
0000
0000
0000
0000
0000
0000
0000
0100
0010
0000
0000
,
1001
0000
0000
0000
0010
0100
0000
0000
2002
0000
0000
0000
3003
0000
0000
0000
,
0001
0000
0001
1000
0000
1000
0001
0000
0000
0000
0100
0000
0110
0000
0000
0000
,
0010
0000
1000
0100
0000
0100
1000
0000
0000
0000
1000
0000
1010
0000
0000
0000
,
0010
0000
0100
0010
0000
0010
0100
0000
0001
0000
0010
0000
0100
0000
1000
0000
,
0010
0000
0100
0000
0001
0000
1000
0000
0010
0000
0100
0000
0001
1000
0001
0000
,
1001
0000
0000
0000
0010
0100
0010
0000
0200
0000
0000
0000
0301
0010
0001
0000
,
0002
0000
0000
0000
1003
0010
1000
0000
2000
0000
0000
0000
3010
0100
0010
0000
,
1000
0000
0001
1000
0000
1000
0001
0000
0100
0000
0010
0000
1000
0000
0100
0000
,
1000
0010
0010
0100
0100
0001
1001
0000
,
0001
0000
1000
0000
0001
0100
0001
0000
0010
0100
0020
0000
0000
0030
0001
1000
,
0001
0100
0010
1000
0100
0010
0000
0010
,
0001
0000
1000
0000
0010
0000
0100
0000
0001
0000
0000
0010
0000
0000
0001
0000
,
1000
0000
0010
0000
0100
0000
0001
0000
1000
0000
0000
2200
0000
0000
3300
0000
,
0000
0000
0010
0000
0001
0100
0001
0000
1000
0010
1000
0000
0001
0010
0001
0000
,
1000
0100
1000
0000
0010
0100
0010
0000
2002
0000
3003
0000
0110
0000
0000
0000
,
0010
1000
0001
0010
0001
0001
1000
1000
,
0010
0100
0001
1000
0100
0010
0001
0100
,
0020
0030
2000
3000
0002
0003
0010
0002
,
0003
0100
0010
2000
3000
0100
0010
0001
,
0200
0300
0020
0030
1000
0100
1000
0020
,
0030
0200
0300
0001
1000
0010
0100
0001
,
0012
0003
0200
0300
0020
0030
1000
0200
,
0300
1000
0010
0200
0300
0001
0010
0200
,
0000
0000
0310
0001
0100
0010
1000
0001
,
0000
1001
0000
0110
0000
0000
0010
0100
,
0001
0000
0001
1000
0010
0000
0100
0001
,
0010
0001
0100
0010
,
1000
0100
1000
0100
1000
0100
1000
0000
,
0001
0010
0001
0010
0001
0010
0001
0010
,
0001
0000
0001
0000
0100
0000
0010
1000
,
0001
0010
0000
0001
0000
0100
0010
1000
,
0100
0000
0100
0010
0001
0100
0010
0000
,
1001
0000
0000
1001
,
0010
0000
0110
0000
0010
1000
0001
0000
,
0001
0010
0001
0000
1001
0000
0110
0000
,
0000
0000
0010
1000
0100
0010
0001
0100
,
0010
0100
1001
0000
0000
0000
1001
0000
,
0110
0000
1001
0000
0001
0010
0001
0000
,
1000
0010
1000
0000
1010
0000
1100
0000
,
0000
0000
0100
1000
0100
1000
0010
0100
,
0001
0010
0100
1000
0001
0100
0020
0000
,
1000
0000
0100
0000
1000
0030
1000
0001
,
0010
0001
0100
0010
1000
0100
0020
0000
,
0001
0000
0100
0000
0001
0030
0001
0100
,
0010
1000
1001
0000
0000
0000
1001
0000
,
0110
0000
1001
0000
0001
0100
0001
0000
,
1000
0010
1000
0001
0001
0100
0010
0000
,
1000
0000
0000
0000
0100
0000
0000
0000
0010
0000
0000
0000
0001
0100
0000
0000
,
0110
0000
0000
0000
0010
1000
0000
0000
1100
0000
0000
0000
0220
0000
0330
0001
,
0100
0010
0100
0001
0000
1000
0000
0010
0100
0001
1000
0100
0000
0010
0000
0001
,
0000
0100
0010
1000
0000
0001
0000
0100
0000
0001
0000
0020
0000
0000
0030
0001
,
0100
0001
1000
0010
0000
0100
0000
0001
1000
0100
1000
0001
0000
0100
0000
0010
,
0000
1000
0100
0010
0000
0001
0000
0100
0000
0010
0000
1000
0001
0000
1001
0000
,
0110
0000
0000
0010
0100
0010
1000
0100
0010
0001
0100
0000
0010
0000
1000
0000
,
1001
0000
0000
0001
0100
0001
1000
0010
0100
0001
1000
0000
1001
0000
0000
0001
,
1000
0010
0100
0000
0101
0000
0000
0000
0001
0000
0010
0000
0100
1000
0001
0100
,
0010
1000
0100
0010
1001
0000
0000
0000
0000
0000
0000
0000
1001
0000
0000
0000
,
0110
0000
1001
0000
0001
0010
0001
0000
,
1000
0010
1000
0000
1001
0000
0110
0000
,
0000
0000
0010
0100
0001
0100
0010
1000
,
0100
0010
1001
0000
0000
0000
1010
0000
,
1100
0000
1010
0000
0010
0100
0001
0000
,
0001
0010
0001
0000
0101
0000
0110
0000
,
0000
0000
0010
1000
0001
0010
0001
0001
,
0100
0100
0010
1000
0100
0010
0012
0000
,
0100
0000
0010
0000
0103
0000
1000
0100
,
1000
0010
0100
0001
0010
0001
0200
0000
,
0010
0000
0001
0000
0010
0300
0001
0010
,
0100
1001
0000
0110
,
1001
0000
0110
0000
0010
0100
0010
0000
,
1000
0010
0100
0001
0010
0001
1000
0000
,
0001
0000
0000
0000
0100
0000
0000
0000
0100
0000
0000
0000
0010
1000
0000
0000
,
1001
0000
0000
0000
0001
0100
0000
0000
0110
0000
0000
0000
0010
0000
1000
0000
,
0001
0000
0001
0000
0001
0100
0000
0100
,
0000
0010
0010
0000
0010
0100
0001
1000
,
0100
0000
0100
0000
0100
0100
0000
0000
,
1001
1001
1001
0000
;
