#TITLE:Fire;
#SUBTITLE:;
#ARTIST:BTS;
#TITLETRANSLIT:;
#SUBTITLETRANSLIT:;
#ARTISTTRANSLIT:;
#GENRE:;
#CREDIT:;
#MUSIC:Fire.ogg;
#BANNER:Fire.png;
#BACKGROUND:Fire-BG.png;
#CDTITLE:;
#SAMPLESTART:20.085;
#SAMPLELENGTH:17.738;
#SELECTABLE:YES;
#OFFSET:0.290;
#BPMS:0.000=100.000
,31.750=200.000
,33.000=100.000
,93.000=200.000
,97.000=100.000
,128.750=200.000
,130.000=100.000
;
#STOPS:31.750=0.936
,128.750=0.960
;
#BGCHANGES:8.250=Fire.avi=1.000=1=0=0=StretchNoLoop==CrossFade==,
99999.000=-nosongbg-=1.000=0=0=0=StretchNoLoop====
;
#FGCHANGES:;

//--------------- dance-single - Alex ----------------
#NOTES:
     dance-single:
     Alex:
     Beginner:
     1:
     0.058907,0.081629,0,0,0,49,49,0,0,0,0,0.058907,0.081629,0,0,0,49,49,0,0,0,0:
0000
0000
0000
0000
,
0000
0000
0000
0000
,
0000
0000
0000
0000
,
0000
0000
0000
0000
,
0000
0000
0100
0000
,
0000
0000
0001
0000
,
0000
0000
1000
0000
,
0000
0000
0010
0000
,
0000
0100
0000
0000
,
0000
0100
0000
0000
,
0000
0001
0000
0000
,
0000
0001
0000
0000
,
0000
1000
0000
0000
,
0000
0010
0000
0000
,
0000
1000
0000
0000
,
0000
0001
0000
0000
,
0000
1000
0000
0000
,
0000
1000
0000
0000
,
0000
0010
0000
0000
,
0000
0010
0000
0000
,
0000
0100
0000
0000
,
0000
0001
0000
0000
,
0000
0001
0000
0000
,
0000
1000
0000
0000
,
0000
0000
0000
1000
,
0000
0000
0000
0010
,
0000
0000
0000
0010
,
0000
0000
0000
0100
,
0000
0000
0000
0001
,
0000
0000
0000
0001
,
0000
0000
0000
0100
,
0000
0000
0000
0010
,
0000
0000
1000
0000
,
0000
0000
0001
0000
,
0000
0000
0001
0000
,
0000
0000
0100
0000
,
0000
0000
0010
0000
,
0000
0000
1000
0000
,
0000
0000
0010
0000
,
0000
0000
0010
0000
,
0000
0000
1000
0000
,
1000
0000
1000
0000
,
0000
0000
0001
0000
,
0001
0000
0001
0000
,
0000
0000
0100
0000
,
0100
0000
0100
0000
,
0000
0000
0010
0000
,
0010
0000
0010
0000
,
0000
0000
0001
0000
;

//--------------- dance-single - Alex ----------------
#NOTES:
     dance-single:
     Alex:
     Easy:
     3:
     0.135847,0.183664,0.084153,0.033661,0,113,103,10,4,0,0,0.135847,0.183664,0.084153,0.033661,0,113,103,10,4,0,0:
0000
0000
0000
0000
,
0000
0000
0000
0000
,
0000
0000
0000
0000
,
0000
0000
0000
0000
,
0000
0000
0010
1000
,
0010
0000
1000
0001
,
0010
0000
0001
0000
,
0100
0000
0000
0000
0220
0000
0000
0330
,
0000
0010
0000
0010
,
0000
1000
0000
0001
,
0000
0100
0000
0001
,
0000
1000
0010
1000
,
0000
0001
0000
0010
,
0000
0001
0000
0100
,
0000
0010
0000
1000
,
0000
0001
1000
0001
,
1000
1001
0000
0000
,
0000
0110
0000
0100
,
0000
1001
0000
0000
,
0000
0001
0010
0001
,
0000
1000
0010
1000
,
0000
0001
0100
0001
,
0000
0010
0010
0100
,
0100
1001
0000
0000
,
0000
0000
0000
0010
,
0000
0100
0000
0001
,
0000
1000
0000
1000
,
0000
0010
0000
1000
,
0000
0001
0000
0100
,
0010
0100
0000
0001
,
1000
0001
0000
1000
,
0000
0010
0000
0220
,
0000
0330
0000
0000
0001
0000
0000
0000
,
0010
0000
0001
0000
,
1000
0000
0010
0000
,
0100
0000
0001
0001
,
1000
0000
0001
0000
,
1000
0000
0010
0000
,
1000
0000
0001
0000
,
0100
0000
0010
0100
,
0010
0100
0110
0000
,
0100
0000
0001
0000
,
1000
0000
1001
0000
,
0001
0000
1000
0010
,
1000
0010
1010
0000
,
1000
0000
0001
0000
,
0100
0000
0001
0000
,
0001
0000
1000
1000
,
0001
0001
1001
0000
;

//--------------- dance-single - Alex ----------------
#NOTES:
     dance-single:
     Alex:
     Medium:
     5:
     0.234427,0.244886,0.084153,0.117814,0,195,185,10,14,0,0,0.234427,0.244886,0.084153,0.117814,0,195,185,10,14,0,0:
0000
0000
0000
0000
,
0000
0000
0000
0000
,
0000
0000
0000
0000
,
0000
0000
0000
0000
,
0000
0000
0001
0100
,
0010
0100
0001
1000
,
0100
0010
0001
0100
,
0100
0000
0010
0000
2002
0000
0000
3003
,
0000
0000
0001
0000
0001
0000
0100
0010
,
0100
0000
0001
0000
1000
0000
0100
1000
,
0100
0000
1000
0000
0010
0000
1000
0010
,
1000
0001
0100
0010
,
0100
0000
0001
0000
1000
0000
0001
0100
,
0001
0000
1000
0000
0010
0000
1000
0010
,
1000
0000
0010
0000
0100
0000
0001
0010
,
0001
0100
0100
0010
,
1000
2002
3003
0220
,
0330
0000
0010
0100
0010
0100
0010
0000
,
0000
2002
3003
0220
,
0330
0000
1000
0001
1000
0001
1000
0000
,
0000
0001
0100
0010
,
0010
1000
0100
0010
,
0001
1000
0001
0100
,
0010
1000
0002
0000
0000
0000
0000
0000
,
0000
0003
0000
0001
,
0001
1000
1000
0010
,
0010
0100
0100
0001
,
1000
0100
0010
0100
,
1000
0000
1000
0000
0010
0000
0100
0001
,
0100
0000
0010
0000
1000
0000
0001
1000
,
0001
1000
0100
1000
,
0010
0100
0001
2002
,
0000
3003
0000
0000
0010
0000
0100
0000
,
0010
1000
0010
0000
1000
0000
0100
0000
,
0010
0001
0010
0000
0001
0000
0100
0000
,
0010
0100
0010
0000
1000
0000
0100
0000
,
1000
1000
0001
0100
,
0001
0100
0001
0000
1000
0000
0010
0000
,
1000
0010
1000
0000
0010
0000
0100
0000
,
0001
0010
0100
0000
0010
0000
0001
0000
,
0100
0010
1001
0001
,
1000
1000
0010
0100
,
0001
1000
0100
0000
1100
0000
1000
0000
,
0010
0100
0100
0001
,
0010
0001
0010
0000
0011
0000
0001
0000
,
1000
1000
0010
0100
,
0001
1000
0001
0000
1001
0000
0001
0000
,
0100
0010
1000
0100
,
0010
0001
0100
0020
0030
0000
0000
0000
;

//--------------- dance-single - Alex ----------------
#NOTES:
     dance-single:
     Alex:
     Hard:
     7:
     0.349837,0.370642,0.033661,0.227213,0.092568,291,287,4,27,4,0,0.349837,0.370642,0.033661,0.227213,0.092568,291,287,4,27,4,0:
0000
0000
0000
0000
,
0000
0000
0000
0000
,
0000
0000
0000
0000
,
0000
0000
0000
0000
,
0000
0000
0001
0000
0100
0000
0010
0000
1000
0000
0001
1000
0000
1000
0002
0000
,
0000
0000
0003
0000
0000
0000
0100
0000
0010
0000
1000
0010
0000
0010
2000
0000
,
0000
3000
0000
0001
0100
0010
0000
1000
,
0100
0000
0000
0000
0010
0000
0000
0000
0001
0000
0000
0000
1000
0000
0000
0000
0004
0000
4000
0000
0000
0000
0000
0000
0000
0000
0000
0000
0000
3003
0000
0000
,
0000
0000
0001
0100
0010
0100
0001
0010
,
0200
0300
1000
0010
1000
0001
1000
0010
,
0200
0300
0001
0010
0100
0010
0001
0100
,
0010
0000
1000
0000
0001
0000
0100
0001
0200
0000
0000
0300
0000
0000
0010
0000
,
1000
0001
0010
0100
1000
0010
0100
0001
,
2000
3000
0010
1000
0001
0001
0100
0001
,
2000
3000
0100
0010
0001
0100
0010
1000
,
0001
0000
0001
0000
0010
0000
0100
0010
0200
0000
0000
0300
0000
0000
0010
0000
,
1000
0000
0001
0000
1001
0000
0000
0000
0000
0000
0001
1000
0001
0000
0000
0000
,
0000
0000
1000
0010
1000
0000
0010
0000
0100
0000
0001
0000
0010
0000
0000
0000
,
0000
0000
0000
0000
1001
0000
0000
0000
0000
0000
0001
1000
0001
0000
0000
0000
,
0000
0000
0100
0001
0100
0000
0010
0000
1000
0000
0001
0000
0020
0000
0000
0000
,
0030
0000
0001
0100
0010
1000
0100
0010
,
0001
0000
0001
1000
0010
1000
0001
0100
,
0001
0000
1000
0100
0010
0100
1000
0001
,
0100
0010
0220
0000
0000
0000
0000
0000
,
0000
0000
0330
0001
1000
0010
0100
0002
,
0000
0003
0000
1000
0100
0010
0200
0000
,
0000
0300
0000
1000
0010
0100
0001
2000
,
0000
3000
0000
0001
0100
0001
0020
0000
,
0000
0000
0000
0000
0030
0000
0001
0000
0100
0000
0010
0000
1000
0000
0001
1000
,
0000
1000
0002
0000
0000
0000
0003
0000
0000
0000
0100
0000
0100
0000
0010
0100
,
0000
0100
0020
0000
0000
0000
0030
0000
0000
0000
1000
0000
0010
0000
0100
0000
,
0000
0000
0001
0000
0010
0000
0100
0000
1000
0000
0010
0000
4000
0004
0000
0000
,
0000
0000
0000
0000
0000
3003
0000
0000
0000
0000
0000
0000
0000
0000
0000
0000
0010
0000
0000
0000
0100
0000
0000
0000
0001
0000
0000
0000
0100
0000
0000
0000
,
0010
1000
0200
0300
1000
0001
0100
0001
,
1000
0010
2000
3000
0001
0010
0100
1000
,
0001
0000
0001
0000
0100
0000
0100
0000
0010
0000
1000
0010
2000
0000
0000
3000
,
0000
0010
0010
1000
0001
0100
0010
1000
,
0001
0010
0200
0300
1000
0001
0100
0001
,
0010
0001
0200
0300
0010
0010
1000
0001
,
0010
0000
0100
0000
1000
0000
1000
0000
0001
0000
0100
0001
0200
0000
0000
0300
,
0000
0010
0010
1000
1001
0001
0100
0010
,
0100
0001
0010
0100
1000
0001
0100
1000
,
0100
0001
2000
3000
0001
0010
0100
0010
,
0001
0000
0100
0000
0010
0000
1000
0000
0100
0000
0010
0001
0020
0000
0000
0030
,
0000
0001
0100
0010
1000
1000
0001
0010
,
0100
1000
0001
0100
0010
1000
0010
0001
,
0010
1000
0002
0003
1000
1000
0010
0010
,
0100
0000
0001
0000
1000
0000
0100
0000
0010
0000
0001
0100
0020
0000
0000
0030
,
0000
0000
0100
0000
0100
0000
0100
0000
0000
0000
0000
0000
M000
0M00
00M0
000M
;

//--------------- dance-single - Alex ----------------
#NOTES:
     dance-single:
     Alex:
     Challenge:
     9:
     0.503717,0.535144,0.210383,0.201967,0.370274,419,394,25,24,36,0,0.503717,0.535144,0.210383,0.201967,0.370274,419,394,25,24,36,0:
0000
0000
0000
0000
,
0000
0000
0000
0000
,
0000
0000
0000
0000
,
0000
0000
0000
0000
,
0000
0000
0010
0000
0100
0000
0001
0000
1000
0000
0001
1000
0000
1000
0010
0000
,
0100
0000
0001
0100
0000
0100
0001
0000
1000
0000
0010
1000
0000
1000
0010
0000
,
1000
0000
0001
1000
0000
1000
0001
0000
0100
0000
0020
0000
0030
0000
0100
0000
,
0001
0000
0010
0000
0100
0000
1000
0010
0100
0001
1000
0001
1000
0001
1000
0001
,
0000
0000
0000
0000
0001
0000
0100
0010
0100
0000
0001
0000
0010
0000
0100
1000
,
0001
0000
2000
0000
3010
0000
0100
0001
0010
0000
0001
0000
0100
0000
0110
0000
,
1010
0000
1100
0000
0110
0000
0010
0001
0100
0000
0001
0000
1000
0000
0010
1000
,
0001
0000
0100
0000
0001
0000
1000
0100
0020
0000
0000
0000
0000
0000
0100
0000
,
0001
0000
0130
0000
0001
0000
0100
0001
0100
0000
0010
0000
1000
0000
0001
1000
,
0001
0000
2000
0000
3001
0000
0010
0100
1000
0000
0001
0000
0100
0000
0110
0000
,
0101
0000
0011
0000
1001
0000
0001
1000
0001
0000
0100
0000
0010
0000
1000
0010
,
1000
0000
0001
0000
0010
0000
0100
1000
0020
0000
0000
0000
0000
0000
1000
0000
,
0100
0000
1030
0000
1001
0000
MMMM
0000
MMMM
0000
0001
1000
0010
0000
MMMM
0000
,
MMMM
0000
0100
0001
0010
0000
0100
0000
1000
0000
0001
0000
0200
0000
0000
0000
,
0320
0000
0000
0000
1030
0000
MMMM
0000
MMMM
0000
0001
1000
0001
0000
MMMM
0000
,
MMMM
0000
1000
0010
1000
0000
0001
0100
0001
0100
0001
0000
2002
0000
0000
0000
,
3003
0000
0001
1000
0010
0000
0100
0001
1000
0000
0100
0010
0001
0000
0101
0000
,
0220
0000
0330
0000
0010
0000
1000
0100
1000
0000
0001
0100
0001
0000
0011
0000
,
0202
0000
0303
0000
0110
0000
0010
1000
0001
0010
0100
1000
0001
0000
0100
0010
,
0100
0001
2002
0000
0000
0000
0000
0000
,
0000
0000
0000
0000
3003
0000
0001
1000
0001
0000
0100
0000
0010
0000
1000
0000
,
0100
0000
0010
0000
0001
0000
0100
0010
0100
0000
0001
0000
0010
0000
0100
0000
,
1000
0000
0001
0000
0100
0000
0010
1000
0010
0000
1000
0000
0001
0000
0001
0000
,
0010
0000
0001
0000
0100
0000
0010
0100
0010
0000
1000
0000
0100
0000
0010
0000
,
0001
0000
0100
0000
0010
0000
1000
0000
1000
0000
0001
0000
1001
0000
0001
0100
,
0000
0001
0100
0000
0010
0000
1000
0010
0000
1000
0010
0000
0100
0000
0001
0010
,
0000
0001
0010
0000
0100
0000
1000
0100
0000
1000
0100
0000
0010
0000
0002
0000
,
0003
0000
0100
0000
0010
0000
0100
0000
0001
0000
0010
0100
1000
0010
1000
0010
,
1000
0010
1000
0010
0000
0000
0000
0000
1000
0000
1000
0001
0100
0000
0010
0000
,
1000
0000
0001
1000
0001
0000
0020
0000
0130
0000
1000
0100
1000
0000
0010
0000
,
0100
0000
0101
0000
0011
0000
1001
0000
1010
0000
0010
1000
0010
0000
0100
0000
,
0001
0000
1000
0100
1000
0000
0001
0000
0100
0000
0010
1000
0002
0000
0000
0000
,
0000
0000
0010
0000
0100
0000
0013
0000
0100
0000
1000
0010
1000
0000
0001
0000
,
0100
0000
0001
0100
0001
0000
0200
0000
0310
0000
0010
1000
0010
0000
1000
0000
,
0001
0000
0011
0000
0101
0000
0110
0000
1010
0000
0010
1000
0010
0000
1000
0000
,
0001
0000
1000
0001
1000
0000
0001
0000
0100
0000
0010
1000
0200
0000
0000
0000
,
0000
0000
1000
0000
0010
0000
1300
0000
0001
0000
0100
0001
0100
0000
0010
0000
,
1000
0000
0001
0010
0100
0000
1000
0000
0001
0000
0100
0010
1000
0000
0001
0000
,
0010
0000
0001
0100
0001
0000
1000
0000
0010
0000
0010
1000
0010
0000
0100
0000
,
0001
0000
1000
0100
0010
0000
0001
0000
0100
0000
0010
0100
0002
0000
0000
0000
,
0000
0000
1000
0000
0100
0000
1003
0000
0010
0000
0010
0100
0001
0000
1000
0000
,
0001
0000
1000
0100
1000
0000
0010
0000
1000
0000
0001
0010
0001
0000
0100
0000
,
0100
0000
0010
0100
0010
0000
1000
0000
0001
0000
1000
0100
0010
0000
0001
0000
,
0100
0000
0010
0100
0001
0000
1000
0000
0001
0000
0010
0100
1000
0000
0001
0100
,
0001
0000
0000
0100
0000
0000
0002
0000
0000
0000
0000
0000
2003
0000
0000
0000
0000
0000
3020
0000
0000
0000
0000
0000
0000
0000
0000
0000
0000
0000
0030
0000
0000
0000
0000
0000
0M00
0000
000M
0000
M000
0000
0000
0000
0M00
0000
0000
0000
;
