#TITLE:Fantastic Baby;
#SUBTITLE:;
#ARTIST:Big Bang;
#TITLETRANSLIT:;
#SUBTITLETRANSLIT:;
#ARTISTTRANSLIT:;
#GENRE:;
#CREDIT:;
#MUSIC:Fantastic Baby.ogg;
#BANNER:Fantastic Baby.png;
#BACKGROUND:Fantastic Baby-BG.png;
#CDTITLE:;
#SAMPLESTART:25.983;
#SAMPLELENGTH:19.798;
#SELECTABLE:YES;
#OFFSET:-0.255;
#BPMS:0.000=130.000;
#STOPS:;
#BGCHANGES:;
#FGCHANGES:;

//--------------- dance-single - Alex ----------------
#NOTES:
     dance-single:
     Alex:
     Beginner:
     1:
     0,0,0,0,0:
0000
0000
0000
0000
,
0000
0000
0000
0000
,
0000
0000
0000
0000
,
0000
0000
0000
0000
,
0001
0000
0000
0000
,
1000
0000
0000
0000
,
0001
0000
0000
0000
,
0100
0000
0000
0000
,
0010
0000
0000
0000
,
0010
0000
0000
0000
,
1000
0000
0000
0000
,
0001
0000
0000
0000
,
1001
0000
0000
0000
,
0000
0000
0000
0000
,
1001
0000
0000
0000
,
0010
0000
0000
0000
,
0010
0000
0000
0000
,
1000
0000
0000
0000
,
1000
0000
0000
0000
,
0001
0000
0000
0000
,
1000
0000
0000
0000
,
0001
0000
0000
0000
,
1001
0000
0000
0000
,
0010
0000
0000
0000
,
1000
0000
0000
0000
,
0100
0000
0000
0000
,
1000
0000
0000
0000
,
0001
0000
0000
0000
,
0001
0000
0000
0000
,
0100
0000
0000
0000
,
0001
0000
0000
0000
,
1000
0000
1000
0000
,
1000
0000
0000
0000
,
0001
0000
0001
0000
,
0001
0000
0000
0000
,
0100
0000
0100
0000
,
0100
0000
0000
0000
,
0010
0000
0010
0000
,
0010
0010
0010
0000
,
1001
0000
0000
0000
,
1000
0000
0000
0000
,
0001
0000
0000
0000
,
1000
0000
0000
0000
,
0010
0000
0000
0000
,
0100
0000
0000
0000
,
0001
0000
0000
0000
,
0010
0000
0000
0000
,
0001
0000
1000
0000
,
0001
0000
1000
0000
,
0001
0000
1001
0000
,
0000
0000
0000
0000
,
0100
0000
0000
0000
,
0010
0000
0000
0000
,
1000
0000
0000
0000
,
0001
0000
0001
0000
,
0001
0000
0000
0000
,
1000
0000
0000
0000
,
1000
0000
0000
0000
,
1001
0000
0000
0000
;

//--------------- dance-single - Alex ----------------
#NOTES:
     dance-single:
     Alex:
     Easy:
     3:
     0,0,0,0,0:
0000
0000
0000
0000
,
0000
0000
0000
0000
,
0000
0000
0000
0000
,
0000
0000
0000
0000
,
0010
0000
0010
0000
,
1000
0000
1000
0000
,
0001
0000
0001
0000
,
1000
0000
1000
0000
,
0010
0000
0100
0000
,
0010
0000
1000
0000
,
0001
0000
0010
0000
,
0001
0000
1000
0000
,
1001
0000
0000
0000
,
1001
0000
0000
0000
,
0220
0000
0330
0000
,
0010
0010
0010
0000
,
1000
1000
1000
0000
,
0001
0000
0100
0000
,
0101
0000
0000
0000
,
0010
0010
0010
0000
,
0100
0100
0100
0000
,
0001
0000
1000
0000
,
1100
0000
0000
0000
,
0100
0000
0100
0000
,
1000
0000
1000
0000
,
0010
0000
0100
0000
,
0001
0000
0000
0000
,
0001
0000
1000
0000
,
0001
0000
1000
0000
,
0010
0000
0100
0000
,
1001
0000
0000
0000
,
0001
0001
0001
0000
,
1000
1000
1000
0000
,
0010
0010
0010
0000
,
0100
0100
0100
0000
,
0110
0000
0100
0000
,
1001
0000
0010
0000
,
1000
0001
1000
0001
,
1000
0000
1001
0000
,
0002
0000
0013
0000
,
2000
0000
3010
0000
,
0020
0000
0130
0000
,
0200
0000
0310
0000
,
1001
0000
0010
0000
,
0101
0000
0010
0000
,
1100
0000
1000
0000
,
1001
0000
0001
0000
,
0100
0000
0010
0000
,
1000
0000
0001
0000
,
1000
0000
2002
0000
,
3003
0000
0000
0000
,
0010
0100
0010
0000
,
1000
0001
1000
0000
,
0001
0010
0001
0000
,
0101
0000
0110
0000
,
0010
1000
0010
0000
,
1000
0100
1000
0000
,
0001
0100
0001
0000
,
2002
0000
3003
0000
;

//--------------- dance-single - Alex ----------------
#NOTES:
     dance-single:
     Alex:
     Medium:
     5:
     0,0,0,0,0:
0000
0000
0000
0000
,
0000
0000
0000
0000
,
0000
0000
0000
0000
,
0000
0000
0000
0000
,
0001
1000
0001
1000
,
0010
0100
0010
0100
,
0001
0010
0001
0010
,
0001
1000
0001
1000
,
0010
0010
1000
1000
,
0001
0001
0100
0100
,
0001
0010
0001
0100
,
0010
1000
0100
0000
,
1100
1100
1100
0000
,
0011
0011
0011
0000
,
2002
0000
3003
0000
,
0001
0000
1000
0000
0010
0000
0100
0001
,
0100
0000
0001
0000
0010
0000
0100
1000
,
0100
0000
0010
0000
0001
0000
0100
0010
,
0100
0000
1001
0000
,
0001
0000
1000
0000
0001
0000
0001
1000
,
0001
0000
1000
0000
0010
0000
0010
1000
,
0010
0000
1000
0000
0100
0000
0010
0001
,
0100
0000
0110
0000
,
0010
1000
0010
1010
,
1000
0001
1000
1001
,
0001
0100
0001
0000
1000
0010
1000
0000
,
0001
0010
0100
1000
,
1001
0000
0001
0000
0100
0000
0100
0010
,
0100
0000
0001
0000
0010
0000
0001
0010
,
0001
1000
0100
0010
,
2002
0000
3003
0000
,
0001
1000
0001
0000
1000
0001
1000
0000
,
1001
1001
1001
0000
,
0010
0100
0010
0000
0100
0010
0100
0000
,
0110
0110
0110
0000
,
1001
0110
1001
0000
,
0011
1100
0101
0000
,
0010
0100
0010
0100
0010
0100
0010
0000
,
1001
1001
1001
0000
,
0001
0001
0100
0100
,
0010
0010
1000
1000
,
0001
0001
0010
0010
,
0001
1000
0010
1010
,
1000
1000
0100
0100
,
0010
0010
0001
0001
,
1000
1000
0010
0010
,
0100
0100
0001
0001
,
0010
0100
1000
0001
,
0100
0010
1000
0001
,
0010
0001
2002
0000
,
3003
0000
0000
0000
,
0001
0100
0001
0001
,
1000
0010
1000
1000
,
0001
0100
0010
0010
,
1100
1100
2200
3300
,
0010
0001
0100
0010
,
0010
1000
0001
0010
,
0010
0001
0100
0010
,
1001
0000
0000
0001
1000
0001
1000
0001
;

//--------------- dance-single - Alex ----------------
#NOTES:
     dance-single:
     Alex:
     Hard:
     8:
     0,0,0,0,0:
0000
0000
0000
0000
,
0000
0000
0000
0000
,
0000
0000
0000
0000
,
0001
0100
0010
1000
0000
0001
1001
0000
,
0000
0001
1000
0100
1000
0000
1000
0001
,
0100
0000
0100
0010
1000
0000
0001
0010
,
0000
0010
0001
0100
0010
0100
0001
0020
,
0000
0100
0100
0130
,
0000
0010
0001
0100
0010
0000
0010
1000
,
0001
0000
0001
1000
0100
1000
0001
0100
,
0000
0100
0001
1000
0000
0010
1000
0001
,
0000
0010
0001
1000
0000
1001
0000
0000
,
0010
0000
0010
0100
0010
0000
0010
0000
,
0010
0000
0010
0100
0010
0000
0010
0000
,
1001
0000
0000
0001
0100
0001
1000
0000
,
1001
0000
0001
0010
0001
0000
0100
0010
,
0100
0000
0010
1000
0000
1000
0100
1000
,
0010
1010
1000
1001
,
0002
0000
0000
1000
1000
1000
1003
0000
,
1001
0000
0001
0100
0001
0000
1000
1000
,
0001
0000
0001
1000
0000
1000
0001
0010
,
0001
0011
1000
1010
,
2002
0000
3003
0000
,
0000
0000
0001
0000
0100
0000
0001
0000
1000
0000
0000
1000
0000
0000
1001
0000
,
0000
0000
0001
0000
0100
0000
0010
0000
1000
0000
0000
1000
0000
0000
1010
0000
,
0000
0010
0100
0001
0100
0010
1000
0100
,
0100
1000
1000
0010
0100
0001
1000
0100
,
0000
0000
0010
0000
0001
0000
0100
0000
0010
0000
0000
0010
0000
0000
1001
0000
,
0000
0000
0001
0000
0100
0000
0001
0000
1000
0000
0000
1000
0000
0000
1001
0000
,
0000
0001
0100
0001
1000
0010
0100
0000
,
0002
0000
2003
3200
0320
0000
0032
0000
,
1003
0010
1000
0000
0001
0010
0001
0100
,
0010
1010
1001
0000
,
0001
0100
0001
0000
1000
0010
1000
0001
,
0101
0110
1010
0000
,
1100
0110
0011
0000
,
0101
0110
1001
0000
,
0001
0010
0001
0100
0010
0100
0001
0000
,
0101
1010
1001
0000
,
2100
0000
0100
0000
0010
0010
3010
0000
,
0012
0000
0100
0000
0010
0010
0013
0000
,
2010
0000
0001
0000
0100
0100
3100
0000
,
1002
0000
0100
0000
0010
0010
0013
0000
,
0011
0000
0101
0000
0010
0100
0001
1000
,
0000
1000
0000
0001
0010
0001
0100
0010
,
0000
0110
0000
0000
0010
1000
0001
1000
,
0000
0001
0000
0100
0000
0010
1000
0400
,
0000
0000
0000
0000
,
0000
0000
0000
0000
,
0000
0000
0300
0000
,
1001
0000
0000
0001
0100
0001
1000
0000
,
1010
0000
0010
1000
0010
0100
0010
0000
,
1010
0000
1000
0100
1000
0001
1000
0000
,
1001
0000
0001
0100
0001
0010
0001
0000
,
0101
0110
1010
1100
,
0110
0000
0010
0001
0100
0010
1000
0000
,
1001
0000
0001
1000
0001
0100
0001
0000
,
1001
0000
0001
1000
0010
0100
0001
1000
,
1001
0000
0000
0001
0100
0010
1000
0200
,
0000
0300
0000
0000
0000
0000
0000
0000
;

//--------------- dance-single - Alex ----------------
#NOTES:
     dance-single:
     Alex:
     Challenge:
     9:
     0,0,0,0,0:
MMMM
0000
0000
0000
0000
0000
0000
0000
0000
0000
0000
0000
0000
0000
0000
0000
0000
0000
0000
0000
0000
0000
0000
0000
0000
0000
0000
0000
0000
0000
0000
0000
0000
0000
0000
0000
0000
0000
0000
0000
0000
0000
0000
0000
0000
0000
0000
0000
0000
0000
0000
0000
0000
0000
0000
0000
0000
0000
0000
0000
0000
0000
0000
0000
0000
0000
0000
0000
0000
0000
0000
0000
0000
0000
0000
0000
0000
0000
0000
0000
0000
0000
0000
0000
0000
0000
0000
0000
0000
0000
0000
0000
0000
0000
0000
0000
0000
0000
0000
0000
0000
0000
0000
0000
0000
0000
0000
0000
0000
0000
0000
0000
0000
0000
0000
0000
0000
0000
0000
0000
0000
0000
0000
0000
0000
0000
0000
0000
0000
0000
0000
0000
0000
0000
0000
0000
0000
0000
0000
0000
0000
0000
0000
0000
0000
0000
0000
0000
0000
0000
0000
0000
0000
0000
0000
0000
0000
0000
0000
0000
0000
0000
0000
0000
0000
0000
0000
0000
0000
0000
0000
0000
0000
0000
0000
0000
0000
0000
0000
0000
0000
0000
0000
0000
0000
0000
0000
0000
0000
0000
0000
MMMM
,
0000
0000
0000
0000
,
MMMM
0000
0000
0000
,
0002
0003
0200
0300
0020
0030
2000
0000
0000
0000
3100
0000
0110
0000
0000
0000
,
0010
0001
0100
0010
0100
0001
0010
0001
,
0001
0100
0010
1000
0100
1000
0010
1000
,
0001
0100
0010
1000
0100
0010
0100
1000
,
0001
0100
0010
0100
0001
1000
0010
1000
,
1001
0001
1000
0001
0100
0001
1000
0010
,
1000
0001
0010
0001
0100
0100
0010
0010
,
1000
0100
0010
0100
1000
0001
0100
0010
,
0100
0001
0010
0100
0010
0001
0100
0010
,
2000
0000
3020
0230
0302
0000
0023
0000
,
0230
0000
2300
3200
0320
0000
0032
0000
,
2013
0000
0000
3001
0110
1000
1001
0000
,
1001
0000
0001
1000
0001
0000
1000
0000
0010
0000
1000
0010
1000
0000
0010
0000
,
0100
0000
0001
0100
0001
0000
1000
0000
0100
0000
0010
0001
0010
0000
0001
0000
,
0101
0000
0110
0000
0010
1000
0001
0010
,
0011
0001
0100
0010
1000
1100
0110
0000
,
0011
0000
0001
0010
0001
0000
0100
0000
0010
0000
1000
0001
1000
0000
0001
0000
,
1000
0000
0100
1000
0100
0000
0010
0000
0001
0000
0100
0010
0100
0000
0001
0000
,
0011
0000
1100
0000
0010
0001
0100
0010
,
0110
0000
0010
1000
0001
0010
0100
2000
,
0000
0000
3010
0000
0100
0000
0001
0000
0010
0000
0000
0011
0000
0000
0101
0000
,
0000
0000
0001
0000
0100
0000
0010
0000
1010
0000
0000
1000
0000
0000
1100
0000
,
0000
0000
0100
1000
0100
0000
1000
0010
1000
0000
0010
0100
0010
0000
0100
0001
,
0100
0001
0010
0100
1000
0010
0100
0002
,
0000
0000
0013
0100
1000
0000
0001
0000
1001
0000
0000
0100
0000
0000
1001
0000
,
0001
0000
1000
0010
1000
0000
0010
0000
0110
0000
0000
0100
0000
0000
0101
0000
,
0001
0000
0010
0001
0010
0000
0001
0000
0100
0000
0010
0000
1000
0000
0000
0000
,
2010
0000
0000
0000
3110
0000
0010
0000
0102
0000
0000
0000
0213
0000
0310
0001
,
0100
0000
0010
1000
0001
0000
0010
0001
1000
0000
0010
1000
0001
0000
0100
0000
,
0201
0000
0000
0000
2310
0000
0000
0000
3120
0000
0000
0000
0031
0100
0010
0000
,
1010
0000
0010
1000
0010
1000
0001
0100
0001
0010
0001
0100
0010
0000
1000
0000
,
1002
0000
0000
0000
2103
0000
0000
0000
3120
0000
0000
0000
0130
0001
0010
0000
,
0012
0000
0000
0000
2013
0000
0000
0000
3210
0000
0000
0000
0301
1000
0010
0000
,
2100
0000
0000
0000
3012
0000
0000
0000
0123
0000
0000
0000
0231
0000
0310
1000
,
0001
0100
0001
1000
0010
1000
0001
0010
0001
0100
0010
1000
0100
0000
0010
0001
,
0100
0110
0101
0011
,
1002
0000
2003
0000
3020
0230
0302
2003
,
0000
3200
0000
0320
0032
0203
0320
0230
,
0000
0302
0000
2003
3200
2300
3020
0230
,
0000
2300
0000
3200
0000
0302
0023
0000
,
0131
0000
1010
0000
0020
2030
3200
0320
,
0000
0032
0000
2003
3020
2030
3002
0023
,
0000
0032
0000
0203
0320
0230
0302
0023
,
0000
0230
0000
2300
0000
3010
0100
0001
,
1000
0100
1000
0001
1000
0010
1000
0001
,
0010
0000
0010
0001
0000
0001
0000
0001
0100
0000
0100
0000
0010
1000
0000
1000
,
0100
0000
0100
0010
0000
0010
0000
0001
0100
0000
0000
0000
0000
0000
0000
0000
,
1001
0000
0000
1000
0001
1000
0001
0000
,
1001
0000
0001
0010
0001
0000
0100
0000
0010
0000
1000
0100
1000
0000
0010
0000
,
1010
0000
0010
1000
0010
0000
1000
0000
0001
0000
0100
0001
0100
0000
0001
0000
,
1001
0000
0001
0010
0001
0000
0100
0000
0010
0000
1000
0100
0010
0000
0001
0000
,
0012
2103
3120
1032
,
1013
0000
0010
1000
0010
0000
1000
0000
0100
0000
0010
0001
0100
0000
0010
0000
,
1000
0000
0001
1000
0010
0000
1000
0000
0001
0000
0001
0010
0001
0000
0100
0000
,
0100
0000
0010
1000
0100
0000
0010
0000
0001
0000
0001
0010
0001
0000
0010
0000
,
0110
0000
0000
0110
0011
1001
0110
1001
;
