#TITLE:Fact Check;
#SUBTITLE:;
#ARTIST:NCT 127;
#TITLETRANSLIT:;
#SUBTITLETRANSLIT:;
#ARTISTTRANSLIT:;
#GENRE:;
#CREDIT:;
#MUSIC:Fact Check.ogg;
#BANNER:Fact Check.png;
#BACKGROUND:Fact Check-BG.png;
#CDTITLE:;
#SAMPLESTART:37.618;
#SAMPLELENGTH:18.519;
#SELECTABLE:YES;
#OFFSET:0.210;
#BPMS:0.000=130.000
,50.000=65.000
,58.000=130.000
,154.000=65.000
,162.000=130.000
;
#STOPS:;
#BGCHANGES:9.750=Fact Check.avi=1.000=1=0=0=StretchNoLoop==CrossFade==,
99999.000=-nosongbg-=1.000=0=0=0=StretchNoLoop====
;
#FGCHANGES:;

//--------------- dance-single - Alex ----------------
#NOTES:
     dance-single:
     Alex:
     Beginner:
     1:
     0.08307,0.124172,0.048457,0.048457,0,72,66,6,6,0,0,0.08307,0.124172,0.048457,0.048457,0,72,66,6,6,0,0:
0000
0000
0000
0000
,
0000
0000
0000
0000
,
0000
0000
0000
0000
,
0000
0000
0000
0000
,
0000
0000
0100
0000
,
0000
0000
0010
0000
,
0000
0000
0010
0000
,
0000
0000
1000
0000
,
0000
0000
0001
0000
,
0000
0000
0001
0000
,
0000
0000
1000
0000
,
0000
0000
0010
0000
,
0010
0000
0010
0000
,
0000
0000
0100
0000
,
0000
0000
0001
0000
,
0000
0000
1000
0000
,
0000
0000
0010
0000
,
0010
0000
0020
0000
,
0030
0000
1001
0000
,
0000
0000
1000
0000
,
0000
0000
0001
0000
,
0000
0000
0100
0000
,
0000
0000
0100
0000
,
0000
0000
0001
0000
,
0000
0000
1000
0000
,
0000
0000
0010
0000
,
0000
0000
1001
0000
,
0000
0000
1000
0000
,
1000
0000
1000
0000
,
0000
0000
0001
0000
,
0000
0000
0220
0000
,
0330
0000
0010
0000
,
0000
0000
0010
0000
,
0000
0000
0100
0000
,
0000
0000
0001
0000
,
0000
0000
0001
0000
,
0000
0000
1000
0000
,
0000
0000
0001
0000
,
0001
0000
1000
0000
,
0000
0000
0010
0000
,
0000
0000
0100
0000
,
0000
0000
0100
0000
,
0000
0000
0010
0000
,
0010
0000
0020
0000
,
0030
0000
1001
0000
,
0000
0000
0001
0000
,
0000
0000
1000
0000
,
0000
0000
0010
0000
,
0000
0000
0010
0000
,
0000
0000
1000
0000
,
0000
0000
0001
0000
,
0000
0000
0100
0000
,
0100
0000
0200
0000
,
0300
0000
0010
0000
,
0010
0000
0010
0000
,
0000
0000
1000
0000
,
0000
0000
0002
0000
,
0003
0000
1000
0000
,
1000
0000
1000
0000
,
0000
0000
0001
0000
,
0000
0000
1001
0000
,
0000
0000
1001
0000
;

//--------------- dance-single - Alex ----------------
#NOTES:
     dance-single:
     Alex:
     Easy:
     3:
     0.177677,0.22351,0.19383,0.048457,0,154,130,24,6,0,0,0.177677,0.22351,0.19383,0.048457,0,154,130,24,6,0,0:
0000
0000
0000
0000
,
0000
0000
0000
0000
,
0000
0000
0000
0000
,
0000
0000
0000
0000
,
0000
0000
0010
0000
,
1000
0000
0001
0000
,
1000
0000
0100
0000
,
0100
0000
1000
0000
,
0010
0000
0100
0100
,
0100
0000
0001
0001
,
0001
0000
1000
0000
,
1000
0000
0001
0000
,
1000
0001
1001
0000
,
0010
0000
1000
0000
,
0001
1000
0010
0000
,
0010
0000
1000
0000
,
1000
0000
0001
0001
,
0001
0000
1000
1000
,
1000
0000
1001
0000
,
1001
0000
0110
0000
,
0110
0000
0010
0000
,
1000
0000
0001
1000
,
0001
0000
1001
0000
,
1001
0000
0110
0000
,
0110
0000
0010
0000
,
0100
0000
0001
0000
,
1000
1000
2002
0000
,
3003
0000
0010
0010
,
0010
0000
0100
0000
,
0001
0000
1000
1000
,
1000
0000
1001
0000
,
0000
0000
0001
0000
,
0001
0000
1000
0000
,
1000
0000
0010
0000
,
0100
0000
0010
0000
,
0010
0010
0010
0000
,
1000
1000
1000
0000
,
0001
0000
1000
0000
,
0001
0000
1001
0000
,
0001
0000
0100
0000
,
0001
0000
1000
0000
,
1000
0000
0001
0000
,
0001
0000
1000
1000
,
1000
0000
0001
0001
,
0001
0000
1001
0000
,
1001
0000
0110
0000
,
0110
0000
0010
0000
,
0100
0000
0010
0010
,
0010
0000
1001
0000
,
1001
0000
0110
0000
,
0110
0000
1000
0000
,
0001
0000
1000
1000
,
1000
0000
2002
0000
,
3003
0000
0010
0010
,
0010
0000
1000
0000
,
1000
0000
0100
0100
,
0100
0000
0220
0000
,
0330
0000
0010
0010
,
0010
0000
1000
0000
,
0001
0000
1000
0001
,
1000
0000
1001
0000
,
0000
0000
1001
0000
;

//--------------- dance-single - Alex ----------------
#NOTES:
     dance-single:
     Alex:
     Medium:
     5:
     0.305743,0.326785,0.137296,0.137296,0,265,248,17,17,4,0,0.305743,0.326785,0.137296,0.137296,0,265,248,17,17,4,0:
0000
0000
0000
0000
,
0000
0000
0000
0000
,
0000
0000
0000
0000
,
0000
0000
0000
0000
,
0000
0000
0010
0100
,
0001
0100
0010
1000
,
0001
0010
0100
1000
,
0001
0100
0010
0010
,
0100
0000
0001
1000
0001
0000
1000
0000
,
0010
0000
1000
0010
1000
0000
0001
0000
,
0100
0000
0010
0100
0010
0000
0100
0010
,
0100
0000
0001
1000
0001
0000
1000
0000
,
0001
0100
0210
0010
,
0010
0310
1002
1000
,
1000
1003
0001
0000
,
1001
0000
0010
0000
,
0110
0000
0010
0010
,
0100
0100
0001
1000
,
2002
3003
0001
0100
,
0001
0100
0001
0000
1000
0000
0010
0000
,
1000
0010
1000
0000
0001
0000
1000
0000
,
0001
1000
0001
0000
0100
0010
0100
0000
,
0001
1000
0001
0000
1000
0000
0100
0000
,
1000
0100
1000
0000
0001
0000
0100
0000
,
0001
0100
0001
0000
0010
0000
0100
0000
,
0010
0100
0010
0000
0001
1000
0001
0000
,
1000
0001
1000
0000
0002
0000
0100
0000
,
0100
0103
2000
0010
,
0010
3010
0100
0001
,
1000
0000
0100
0000
1000
0010
1000
0010
,
2000
3000
0000
1001
,
1001
0000
0001
0100
,
0010
0100
0001
0010
,
0100
1000
0001
1000
,
0010
1000
1010
0010
,
0100
0001
0100
0000
0001
0000
1000
0000
,
0100
1000
0100
0000
1000
0000
1000
0000
,
0001
0001
0100
0010
,
0100
0001
2000
0001
,
0001
3001
0002
0100
,
0100
0103
0010
0000
,
1001
0000
0100
0000
,
1001
0000
0001
1000
,
0010
0100
0001
1000
,
2002
3003
0001
0010
,
0001
0010
0001
0000
0100
0000
0001
0000
,
1000
0010
1000
0000
0001
0000
1000
0000
,
0001
1000
0001
0000
0100
0001
0100
0000
,
0010
1000
0010
0000
1000
0000
0100
0000
,
1000
0100
1000
0000
0001
0000
0100
0000
,
0010
0100
0010
0000
0100
0000
0001
0000
,
1000
0001
1000
0000
0001
0010
0001
0000
,
1000
0010
1000
0000
1002
0000
1000
0000
,
1000
1003
2010
0010
,
0010
3010
0100
0001
,
1000
0000
0001
0000
0010
0001
0010
0001
,
0020
0030
0012
0010
,
0010
0013
2100
0100
,
0100
3100
1000
0010
,
1000
0000
0001
0000
1000
0100
1000
0100
,
2000
3000
1000
1000
,
1001
0MM0
0001
0001
,
1001
0MM0
0000
0000
;

//--------------- dance-single - Alex ----------------
#NOTES:
     dance-single:
     Alex:
     Hard:
     8:
     0.509957,0.603295,0.104991,0.113067,0.310935,442,429,13,14,16,0,0.509957,0.603295,0.104991,0.113067,0.310935,442,429,13,14,16,0:
0000
0000
0000
0000
,
0000
0000
0000
0000
0000
M000
000M
M000
,
000M
0000
0000
0000
,
0000
0000
0000
0000
,
0000
0001
0100
0010
0100
0000
0001
1000
,
0100
0000
0000
1000
0000
0000
0010
0000
1000
0000
0001
0000
0100
0000
0010
0100
,
0010
0100
0001
1000
0010
0000
1000
0001
,
0100
0000
0000
0100
0000
0000
0001
0000
1000
0000
0100
1000
0100
0000
1000
0000
,
0010
0000
0000
0000
0010
0000
0100
0000
0001
0000
0010
0001
0010
0000
0001
0000
,
0100
0000
0000
0000
0010
0000
1000
0000
0001
0000
1000
0001
1000
0000
0001
0000
,
0100
0000
0000
0000
0010
0000
1000
0000
0001
0000
0000
0000
0010
0000
0001
0010
,
0001
0000
0000
0000
0100
0001
0100
0000
0010
0000
0010
1000
0010
1000
0010
0000
,
1000
0000
0010
0000
0100
0000
0002
0000
0003
0000
1000
0100
1000
0001
1000
0010
,
1000
0001
1000
0100
1000
0001
0200
0000
0300
0000
0010
0000
1000
0000
0001
0000
,
0010
0000
0000
0100
0000
0000
1000
0000
0000
0001
0000
0000
1000
0000
0000
0001
0000
0000
0200
0000
0000
0000
0000
0000
0301
0000
0000
0000
0000
0000
0000
0000
1000
0000
0000
0000
0000
0000
0000
0000
0010
0000
0000
0000
0000
0000
0000
0000
,
1000
0000
0001
0000
0100
0000
0001
0000
1000
0000
0100
0000
,
0010
0000
0001
0000
1000
0000
1001
0000
0000
1001
0000
0000
,
0001
1000
0001
1000
0000
0000
0010
0100
0010
0100
0010
0200
,
0020
0000
0000
0000
0330
0000
0000
0000
1001
0000
0000
0001
0100
0000
0010
0000
,
0010
0000
1000
0000
0001
0000
0010
0000
0001
0000
0000
1000
0010
0000
1000
0000
,
0001
0000
0100
0000
0001
0000
1000
0000
0100
0000
0000
0100
1000
0000
0010
0000
,
0100
0001
0010
0100
1000
0000
0001
0100
,
0110
0000
0000
0000
0010
0000
1000
0000
1100
0000
0000
0100
1000
0000
1000
0000
,
0010
0000
1000
0000
0001
0000
0100
0000
0010
0000
0000
0100
0001
0000
0010
0000
,
0001
0000
0100
0000
0010
0000
0100
0000
0001
0000
0000
0001
1000
0000
0100
0000
,
1000
0000
0001
0000
0100
0000
0001
0000
1000
0000
0000
0000
0010
0000
1000
0001
,
0000
0000
0001
0000
0100
0000
0010
0100
0020
0000
0000
0000
1000
0000
0000
0000
,
0100
0000
0000
0000
1030
0000
0000
0000
0001
0000
0000
0010
0001
0000
0100
0000
,
0001
0010
0100
0010
0001
0000
0001
0100
,
0010
0000
0010
1000
0001
1000
0100
0010
,
0001
1000
0010
0200
0000
0300
0001
0001
,
1000
0000
1000
0000
0000
MMMM
0000
0000
0010
0000
0100
0000
0001
0000
0100
0000
,
0010
1000
0001
0000
1000
0100
0010
0100
,
1000
0001
0100
0010
0010
1000
0001
0010
,
0100
0000
0000
1000
0000
0000
0001
0000
0000
0100
0000
0000
0010
0000
0000
0000
0000
0000
1000
0000
0001
0000
0010
0000
,
0001
0000
0000
1000
0000
0000
0001
0000
0000
0010
0000
0000
0001
0000
0000
0000
0000
0000
1000
0000
0001
0000
1000
0000
,
0010
0000
0100
0000
0001
0000
0010
0000
0100
0000
0000
0000
1000
0010
0000
0100
,
0000
0001
0010
0100
0010
0001
0100
0010
,
1000
0000
0001
0000
2002
0000
0000
0000
3003
0000
0001
0100
0010
0100
0001
0010
,
0100
0010
0001
1000
0010
0100
0002
0000
0003
0000
1000
0000
0100
0000
0010
0000
,
0001
0000
0000
1000
0000
0000
0001
0000
0000
1000
0000
0000
0010
0000
0000
1000
0000
0000
0002
0000
0000
0000
0000
0000
0103
0000
0000
0000
0000
0000
0000
0000
0010
0000
0000
0000
0000
0000
0000
0000
0100
0000
0000
0000
0000
0000
0000
0000
,
0001
0000
1000
0000
0100
0000
1000
0000
1000
0000
0001
0000
,
0100
0000
0000
0000
0010
0000
0000
0000
0100
0000
0000
0000
0001
0000
0000
1000
0000
0000
0100
0000
0000
1000
0000
0000
,
0002
0000
0003
0100
0010
1000
0001
0010
,
0100
0000
1000
0000
1001
0000
0000
0000
0110
0000
0000
0010
0100
0000
0001
0000
,
0100
0000
0010
0000
1000
0000
0001
0000
1000
0000
0000
0001
1000
0000
0001
0000
,
0100
0000
0001
0000
1000
0000
0010
0000
1000
0000
0000
0001
0010
0000
0001
0000
,
0100
0010
0100
0001
0010
0000
1000
0001
,
1001
0000
0000
0000
0010
0000
0100
0000
0110
0000
0000
0010
0100
0000
0100
0000
,
0001
0000
1000
0000
0100
0000
1000
0000
0001
0000
0000
0001
1000
0000
0010
0000
,
1000
0000
0001
0000
0010
0000
0001
0000
0100
0000
0000
0100
0010
0000
0100
0000
,
0001
0000
0010
0000
0100
0000
1000
0000
0001
0000
0000
0000
1000
0000
0010
1000
,
0000
0000
0001
0000
0100
0000
0010
0100
0002
0000
0000
0000
0010
0000
0000
0000
,
1000
0000
0000
0000
0013
0000
0000
0000
0001
0000
0000
1000
0010
0000
1000
0000
,
0001
0010
0100
1000
0001
0000
0001
0100
,
0010
0000
1000
0100
0010
0001
0100
0010
,
0100
0001
1000
0010
2010
0000
0100
0000
,
0001
0000
0000
0000
3100
0000
0000
0000
1000
0000
0000
0010
1000
0000
0001
0000
,
0100
0001
0010
0100
0010
0000
0001
1000
,
0010
0000
0100
0100
0001
0010
0100
0010
,
0001
0100
0010
1000
1001
0000
0001
0100
,
0010
0000
0000
MMMM
0000
0000
0000
0000
1000
0000
0000
0000
0100
0000
0010
0000
,
1001
MMMM
0000
0000
;
