#TITLE:Energy;
#SUBTITLE:;
#ARTIST:Mighty Mouth;
#TITLETRANSLIT:;
#SUBTITLETRANSLIT:;
#ARTISTTRANSLIT:;
#GENRE:;
#CREDIT:;
#MUSIC:Energy.ogg;
#BANNER:Energy.png;
#BACKGROUND:Energy-BG.png;
#CDTITLE:;
#SAMPLESTART:14.042;
#SAMPLELENGTH:13.935;
#SELECTABLE:YES;
#OFFSET:-0.165;
#BPMS:0.000=155.000;
#STOPS:;
#BGCHANGES:;
#FGCHANGES:;

//--------------- dance-single - Alex ----------------
#NOTES:
     dance-single:
     Alex:
     Beginner:
     1:
     0,0,0,0,0:
0000
0000
0000
0000
,
0000
0000
0000
0000
,
0000
0000
0000
0000
,
0000
0000
0000
0000
,
0000
0000
0000
0000
,
0000
0000
0000
0000
,
0000
0000
0000
0000
,
0000
0000
0000
0000
,
0000
0000
0000
0000
,
0000
0100
0000
0000
,
0000
0100
0000
0000
,
0000
0001
0000
0000
,
0000
1000
0000
0000
,
0000
0001
0000
0000
,
0000
1000
0000
0000
,
0000
0010
0000
0000
,
0000
0100
0000
0100
,
0000
0100
0000
0000
,
0000
0001
0000
0000
,
0000
0010
0000
0000
,
0000
0001
0000
0000
,
0000
1000
0000
0000
,
0000
1000
0000
0000
,
0000
0010
0000
0000
,
0000
1000
0000
0000
,
0000
1001
0000
0000
,
0000
0020
0000
0030
,
0000
1001
0000
0100
,
0000
0100
0000
0100
,
0000
0010
0000
0000
,
0000
1000
0000
0000
,
0000
0001
0000
0000
,
0000
1000
0000
0000
,
0000
0200
0000
0300
,
0000
0020
0000
0030
,
0000
0001
0000
0000
,
0000
0001
0000
0000
,
0000
2000
0000
3000
,
0000
2000
0000
3000
,
0000
0010
0000
0000
,
0000
1000
0000
0000
,
0000
1001
0000
0000
,
0000
0001
0000
0000
,
0000
0001
0000
0000
,
0000
0100
0000
0000
,
0000
0010
0000
0000
,
0000
1000
0000
0000
,
0000
1000
0000
0000
,
0000
0001
0000
0000
,
0000
1000
0000
1000
,
0000
1000
0000
0000
,
0000
0010
0000
0000
,
0000
1000
0000
0000
,
0000
0001
0000
0000
,
0000
0001
0000
0000
,
0000
0100
0000
0000
,
0000
0010
0000
0000
,
0000
1000
0000
1000
,
0000
1001
0000
0000
,
0000
0000
0000
0000
,
0000
0110
0000
0000
,
0000
0000
0000
0000
,
0000
1001
0000
0000
,
0000
0000
0000
0000
,
0000
0010
0000
0000
,
0000
0100
0000
0100
,
0000
0100
0000
0000
;

//--------------- dance-single - Alex ----------------
#NOTES:
     dance-single:
     Alex:
     Easy:
     5:
     0,0,0,0,0:
0000
0000
0000
0000
,
0000
0000
0000
0000
,
0000
0000
0000
0000
,
0000
0000
0000
0000
,
0000
0000
0000
0000
,
0000
1001
0000
0000
,
0000
0110
0000
0000
,
0000
0010
0000
0100
,
0000
1001
1001
1001
,
0000
0001
1000
0010
,
1000
0001
0100
0001
,
0000
0010
0100
1000
,
0001
0100
0010
0010
,
1000
0000
0001
0000
0010
0002
0000
0000
,
0003
0100
0010
1000
,
0100
0000
1000
0000
0010
2000
0000
0000
,
3000
1001
0110
1001
,
0001
0010
0001
0000
0100
0000
0100
0000
,
0010
1000
1000
1100
,
0000
0100
0010
0001
,
0100
0010
0010
1000
,
0001
0011
0000
0001
,
0100
0110
0000
0010
,
1000
1001
0001
1000
,
0100
1000
0010
0010
,
0100
0001
0010
0100
,
1000
0001
1000
1001
,
0000
0001
0100
0010
,
0010
1000
0100
0010
,
0100
1000
0001
1001
,
0001
0100
0010
1010
,
0010
1000
0100
1000
,
0010
0010
0100
0001
,
0010
0000
0000
0000
0100
0000
0000
0100
0000
0000
0200
0000
0000
0000
0000
0000
,
0300
0000
0000
0000
1000
0000
0000
1000
0000
0000
2000
0000
0000
0000
0000
0000
,
3000
0001
1000
0010
,
1000
0001
0010
0001
,
0100
0000
0000
0000
0001
0000
0000
0001
0000
0000
0002
0000
0000
0000
0000
0000
,
0003
0000
0000
0000
0100
0000
0000
0100
0000
0000
0200
0000
0000
0000
0000
0000
,
0300
0010
1000
0001
,
0010
0100
1000
0001
,
0100
0220
0000
0330
,
0010
0100
0010
0000
1000
0000
0001
0000
,
0010
0001
0100
0010
,
0000
1000
0001
0100
,
0001
1000
0100
1000
,
0010
0000
1000
0000
0001
0200
0000
0000
,
0300
0010
1000
0001
,
0010
0000
0001
0000
0001
0200
0000
0000
,
0300
0101
0101
1010
,
1010
0010
1000
0001
,
0100
0010
1000
0001
,
0000
0001
0010
0001
,
0100
0010
0010
1000
,
1000
0000
0100
0000
0010
0002
0000
0000
,
0003
0100
0001
0010
,
0001
0000
1000
0000
1000
0020
0000
0000
,
0030
1010
1100
0011
,
1001
0010
0100
1001
,
0000
0110
0000
1001
,
0000
0010
0010
1001
,
0000
0011
0000
0101
,
0000
0100
0000
0010
,
0000
1000
0001
0010
,
0001
1001
0000
0110
,
0000
0010
1000
0001
,
0100
0020
0000
0000
,
0000
0030
0000
0000
0000
0000
0000
0000
;

//--------------- dance-single - Alex ----------------
#NOTES:
     dance-single:
     Alex:
     Medium:
     7:
     0,0,0,0,0:
0000
0000
0000
0000
,
0000
0000
0000
0000
,
0000
0000
0000
0000
,
0000
0000
0000
0000
,
0000
0000
0000
0000
,
0000
1001
0000
0001
,
0000
0100
0000
0010
1000
0010
0100
0000
,
0001
1000
0000
0100
,
1000
0010
1010
0000
1010
0000
1010
0000
,
0010
1000
0001
0000
0100
0010
1000
0000
,
0001
0010
0001
0000
0000
0101
0000
0000
,
0001
1000
0001
0000
0100
0000
0100
0000
,
0010
0000
1000
0100
0010
0100
1000
0000
,
0001
0000
1001
0000
0010
0200
0000
0000
,
0300
0000
0000
0010
1000
0001
0010
0000
,
0011
0000
0001
0000
1000
0002
0000
0000
,
0003
0101
0101
0101
,
0001
0100
0001
1000
0010
1000
0001
0000
,
0001
0000
1000
0100
0010
0100
1100
0000
,
0000
0000
1000
0010
1000
0000
0010
0100
,
0010
0100
0000
0001
0010
0001
0100
0000
,
0010
0000
1001
0000
0000
0000
0001
1000
,
0010
0100
0001
0000
0000
0000
1000
0100
,
0010
0001
1000
0000
0000
0000
0010
1000
,
0010
0100
0010
0000
1000
0000
0001
0000
,
0100
0000
0110
0000
0010
0000
1000
0001
,
0010
0000
0001
0000
0100
0000
0000
0100
0000
0000
0200
0000
0000
0000
0000
0000
,
0300
0000
0010
1000
0010
0000
1000
0001
,
1000
0000
0001
0010
0001
0100
0010
0000
,
0110
0000
0000
0000
0010
0000
0000
0000
1000
0000
0000
0000
0001
0000
0000
0001
,
0000
0000
0002
0000
0000
0003
1000
0000
0010
0000
1000
0000
0010
0000
0000
0010
,
0000
0000
0020
0000
0000
0030
0100
0000
0001
0000
1000
0000
0100
0000
0000
0000
,
1000
0000
0010
0000
0100
0000
0001
1000
,
0001
0000
0000
0000
1000
0000
0000
0001
0000
0000
2000
0000
0000
0000
0000
0000
,
3000
0000
0000
0000
0001
0000
0000
0100
0000
0000
0002
0000
0000
0000
0000
0000
,
0003
0000
1000
0100
0010
0000
0001
0100
,
0010
0000
1000
0001
0010
0001
0100
0000
,
0110
0000
0000
0000
0010
0000
0000
1000
0000
0000
0002
0000
0000
0000
0000
0000
,
0003
0000
0000
0000
0100
0000
0000
0010
0000
0000
0200
0000
0000
0000
0000
0000
,
0300
0000
0010
1000
0001
0000
0010
0001
,
1000
0010
0100
0000
0001
0000
1000
0000
,
0001
2002
0000
3003
,
0001
1000
0001
0000
1000
0010
1000
0000
,
0010
0100
0001
0000
1000
0100
0000
0010
,
0001
0100
0010
0000
1000
0000
0001
0000
,
0001
0000
0100
0001
0100
0001
0100
0000
,
0010
0000
1001
0000
0001
0200
0000
0000
,
0300
0000
0000
0010
1000
0100
1000
0000
,
1010
0000
0010
0000
1000
0002
0000
0000
,
0003
1001
0110
1001
,
0110
0000
0010
0100
0001
0000
0010
0001
,
1000
0010
0100
0000
0100
0001
0000
0001
,
1000
0010
0100
0000
0001
0000
0010
0000
,
0001
0000
0001
0001
0100
0100
0010
1000
,
0100
0000
1000
0000
0010
0200
0000
0000
,
0300
0000
0000
0010
1000
0001
0010
0000
,
0011
0000
0001
0000
0100
0002
0000
0000
,
0003
0011
1100
0011
,
0101
0100
0010
0110
,
0000
1001
0000
0011
,
0000
1100
0000
1010
,
0000
0110
0101
0011
,
1001
0001
0000
1000
,
0000
0010
0000
1000
0010
0100
0001
1000
,
0000
0100
0010
0000
0000
0000
0001
0000
,
0100
0010
1010
0000
1001
0000
0011
0000
,
0101
0000
0010
0000
1000
0002
0000
0000
,
0000
0003
0000
0000
0000
0000
0000
0000
;

//--------------- dance-single - Alex ----------------
#NOTES:
     dance-single:
     Alex:
     Hard:
     9:
     0,0,0,0,0:
0000
0000
0000
0000
,
0000
0000
0000
0000
,
0000
0000
0000
0000
,
0000
0000
0000
0000
,
0000
0000
0000
0000
,
0000
0000
0000
0000
,
0000
0000
0000
0000
,
0000
0000
0000
0000
,
0000
0000
0000
0000
1001
0000
0000
0000
0110
0000
0000
0000
1000
0001
1000
0000
,
0010
0100
0001
0001
1000
1000
0100
0010
,
0001
0100
0020
0030
0100
0001
0010
0001
,
1000
0010
0200
0300
0001
1000
0100
0100
,
1000
0001
0100
0001
1000
0010
0100
0001
,
0010
0000
0001
0000
0101
0000
0000
0000
0002
0000
2000
0003
0000
3000
0010
0000
,
0100
0001
1000
0100
1000
0001
0100
0100
,
0010
0000
0000
0000
1001
0000
0000
0000
0002
0000
0020
0003
0000
0030
0001
0000
,
1000
0000
0010
0000
1010
0000
1000
0010
1000
0000
0001
0010
0001
0000
0100
0010
,
2000
3000
0001
0100
0001
1000
0020
0030
,
1000
0001
0100
0100
0001
2000
0200
3300
,
1100
0000
0000
0000
0100
0000
0100
1000
0010
0000
0100
0000
0001
0000
0010
0000
,
0100
1000
0000
0001
1000
0010
1000
0001
,
0010
0001
0200
0300
0110
0000
0010
1000
,
0001
0000
0010
0000
0002
0000
0003
0000
0011
0000
0000
0000
0001
0000
0001
1000
,
0010
0000
0200
0000
0020
0000
0330
0000
1001
0000
0000
0000
0001
1000
0001
1000
,
0001
0001
1000
0100
1000
0010
1010
0010
,
0110
0000
0000
0000
0020
0030
0200
0300
0002
0003
2000
3000
0200
0300
0020
0030
,
0002
0003
2000
3000
0010
0000
0000
0110
0000
0000
2002
0000
0000
0000
0000
0000
,
3003
0000
0000
0000
1000
0010
1000
0010
1000
0000
0001
0000
0100
0000
0010
0100
,
0001
0100
0010
0000
1000
0001
0010
0001
0100
0000
0010
0000
0100
0000
0010
1000
,
0001
0000
0010
0000
0000
0000
0001
0000
0100
0000
0010
0000
1010
0000
0000
1100
,
0000
0000
0110
0000
0000
0000
0010
0000
0001
0000
0100
0000
0110
0000
0000
0101
,
0000
0011
0000
0001
1000
0010
0100
0001
,
0010
0000
0001
0000
1000
0000
1000
0000
0020
0000
2000
0000
0030
3000
0010
0000
,
0110
0000
0000
0000
2001
0000
0000
0001
0000
0000
3001
0000
0000
0000
2000
0000
,
3010
0000
0000
0000
0120
0000
0000
0100
0000
0000
0130
0000
0000
0000
0001
0000
,
0100
0010
2000
3000
0001
0010
0001
0100
,
0010
2000
3000
0100
0010
0001
1001
0001
,
1001
0000
0000
0000
0012
0000
0000
0010
0000
0000
0013
0000
0000
0000
0200
0000
,
0301
0000
0000
0000
2010
0000
0000
0010
0000
0000
3010
0000
0000
0000
1000
0000
,
0010
1000
0002
0003
0100
0010
0100
0001
,
0010
0000
0001
0000
1001
0000
0000
0000
0110
0000
0000
0000
1001
0000
0001
1000
,
0010
0000
0000
0000
0001
1000
0001
1000
0001
1000
0001
1000
0001
0000
1000
0000
,
1001
0000
0000
0000
0001
0000
0100
0000
0010
1000
0010
0000
1000
0000
0100
0000
,
0010
0001
0100
0000
0020
0000
0030
0000
1000
0000
0001
0000
0010
0001
0010
0000
,
0001
1000
0020
0030
0100
0001
1000
0100
,
0010
0001
1000
0010
0001
0010
1000
0001
,
0100
0000
0001
0000
1001
0000
0000
0000
0020
0000
0200
0030
0000
0300
0001
0000
,
0010
0001
0100
0010
1000
0001
0010
0001
,
1000
0000
0000
0000
1010
0000
0000
0000
0020
0000
2000
0030
0000
3000
0010
0000
,
1000
0100
0110
0000
1001
0000
0110
0000
,
1001
0000
0000
0000
0001
0000
1000
0000
0001
0100
0001
0000
1000
0000
0010
0000
,
1000
0010
1000
0000
0020
0000
0030
0000
0100
0000
0001
0000
0010
0001
0010
0000
,
0001
0100
0020
0030
1000
0100
1000
0010
,
1000
0001
0001
0100
0010
0100
0001
1000
,
0100
0000
0010
0000
0110
0000
0000
0000
0020
0000
0002
0030
0000
0003
0100
0000
,
0010
1000
0001
0010
0001
1000
0010
0100
,
0010
0000
0000
0000
1001
0000
0000
0000
0002
0000
2000
0003
0000
3000
0010
0000
,
0100
0000
0001
0000
1001
0000
0001
1000
0001
0000
1000
0001
1000
0000
0001
0100
,
0001
0100
0110
0010
0010
0000
2000
3000
,
0002
0003
0020
0030
0002
0003
0200
0300
,
0010
0000
1001
1000
1000
0000
0020
0030
,
1000
0001
0200
0310
1000
0000
1001
0000
,
0001
0001
0020
0000
0030
0001
0100
0010
,
0100
0002
0003
1000
0100
1000
0010
1000
,
0001
0100
0020
0030
0000
0100
0001
0010
,
0100
0000
1000
0000
1001
0000
0001
1000
0001
0000
1000
0010
1000
0000
0010
0100
,
0010
1000
0001
0020
0002
0000
0000
0000
0000
0000
0000
0000
0000
0000
0000
0000
,
0000
0033
0000
0000
0000
0000
0000
0000
;

//--------------- dance-single - Alex ----------------
#NOTES:
     dance-single:
     Alex:
     Challenge:
     10:
     0,0,0,0,0:
0000
0000
0000
0000
,
0000
0000
0000
0000
,
0000
0000
0000
0000
,
0000
0000
0000
0000
,
0000
0000
0000
0000
,
0000
0000
1001
0000
0000
0001
1000
0000
,
0010
0100
0000
0001
0010
0100
0010
0001
,
0000
0000
0001
0000
1000
0000
0010
0000
1000
0000
0001
0000
0100
0000
0010
0100
,
0000
0000
0100
0000
0101
0000
0000
0000
1010
0000
0000
0000
0010
0100
0010
1000
,
0001
1000
0100
0010
0001
1000
0010
0100
,
0001
0010
0001
1000
1000
0010
0100
0001
,
1000
0100
0020
0030
0001
1000
0010
0010
,
1000
0001
0100
0001
0010
0001
0100
0010
,
1000
0000
0100
0000
2100
0000
3000
0000
0020
0000
0200
0000
0030
0300
0001
0000
,
0010
0001
1000
0010
0100
0001
1000
0100
,
0001
0000
0100
0000
2100
0000
3000
0000
0020
0000
0002
0000
0030
0003
0010
0000
,
0001
0000
0100
0000
0110
0000
0000
0000
1001
0000
0000
0000
1000
0001
0100
0001
,
1000
0010
0100
0001
1000
0100
2000
3000
,
0001
0100
0001
0010
0001
0100
0010
0000
,
0110
0000
0010
1000
0001
0100
0001
1000
,
0100
0010
0000
0010
0001
1000
0010
1000
,
0001
0010
0002
0003
0001
0100
0001
1000
,
0100
0100
2000
3000
0010
1000
0001
0010
,
1000
0000
0010
0000
0002
0000
0003
0000
0100
0000
0010
0000
0100
0001
0100
0000
,
0001
0001
1000
0001
0100
0010
1000
0100
,
1100
0000
0100
1000
0001
0100
0001
1000
,
0010
0000
1000
0000
1001
0000
0000
0101
0000
0000
0220
0000
0000
0000
0330
0000
,
0000
0000
0000
0000
0010
0100
0001
0010
0001
0000
1000
0000
0100
0000
0010
0001
,
1000
0010
0100
0000
0001
1000
0001
0100
0001
0000
0010
0000
0001
0000
0001
1000
,
0010
0000
0010
0000
0000
0000
0100
0000
0001
0000
1000
0000
0100
0000
0000
1100
,
0000
0000
0011
0000
0000
0000
0001
0000
1000
0000
0010
0000
0110
0000
0000
0101
,
0000
0011
0000
0001
1000
0010
0100
0001
,
1000
0000
0100
1000
0010
0000
0100
0000
0001
0000
1000
0000
0000
0000
1001
0000
,
0001
0000
1000
0000
0020
0000
0000
0100
0000
0000
0130
0000
0000
0000
0001
0000
,
0101
0000
0000
0000
2000
0000
0000
0010
0000
0000
3010
0000
0000
0000
0010
0000
,
1010
1000
1001
0000
0001
0100
0010
0000
,
1000
0100
0010
0001
0100
0100
0110
0010
,
1001
0000
0000
0000
0002
0000
0000
0100
0000
0000
1003
0000
0000
0000
1000
0000
,
1001
0000
0000
0000
0020
0000
0000
0001
0000
0000
0130
0000
0000
0000
1000
0000
,
1100
1000
1010
0000
0010
0100
0001
0100
,
0010
0000
0010
0000
1010
0000
0000
0000
1001
0000
0000
0000
0011
0000
0001
0100
,
0010
0000
0000
0000
0001
1000
0001
0100
0001
1000
0010
1000
0001
0000
1000
0000
,
0010
0100
0001
0000
1000
0000
0100
0000
1000
0000
0010
0000
1000
0000
0001
0000
,
0010
0010
0001
0100
0010
1000
0100
0001
,
0100
1000
0020
0030
0100
0001
0010
0001
,
1000
0010
1000
0100
0010
1000
0010
0001
,
0100
0000
1000
0000
1002
0000
0003
0000
0200
0000
0020
0300
0000
0030
1000
0000
,
0001
0100
0001
0010
0010
0001
1000
0010
,
1000
0000
0001
0000
0102
0000
0003
0000
2000
0000
0020
3000
0000
0030
1000
0000
,
0001
0000
0010
0000
0001
0010
0001
0000
1000
0010
1000
0000
0001
0100
0001
1000
,
0100
0010
0001
1000
0010
0100
0001
1000
0100
0010
0001
1000
0010
1000
0001
0010
,
0001
0100
0001
0100
0010
0100
0001
0010
0001
1000
0100
0010
0100
1000
0010
0100
,
0001
1000
0001
0010
0001
1000
0010
1000
0001
1000
0100
1000
0001
1000
0010
1000
,
0001
0010
0001
0100
0010
1000
0001
0010
0001
0100
0010
1000
0010
0100
0001
1000
,
0100
0010
0001
0000
1002
0000
0003
0000
0002
0000
2000
0003
0000
3000
0010
0000
,
0100
0000
0001
0000
1000
0100
0010
0100
1000
0010
0100
0001
0010
0100
0010
0001
,
1000
0010
0100
0000
0102
0000
0003
0000
0020
0000
0002
0030
0000
0003
1000
0000
,
0010
0000
0100
0000
0001
1000
0001
0000
1000
0001
1000
0000
0001
0100
0001
0010
,
0001
0100
0010
1000
0001
0000
1000
0000
1001
0000
0000
0000
MMM1
0000
0000
0000
,
M1MM
MM1M
MM1M
1MMM
,
M1MM
0000
MM1M
MMM1
MM11
0000
MMM1
0000
,
M1MM
0000
0M10
101M
0000
1000
0001
0000
,
1000
0100
0010
0000
0000
0010
0001
0000
,
0001
1000
0000
1000
0010
1000
0001
0010
,
0000
0000
0010
0000
0001
0000
0100
0000
0000
0000
0100
0000
0010
0000
1000
0100
,
0000
0100
1100
1000
1010
1000
1001
0001
,
0100
0010
1000
0002
0200
0000
0000
0000
0000
0000
0000
0000
0000
0000
0000
0000
,
0000
0303
0000
0000
0000
0000
0000
0000
;
