#TITLE:Drip;
#SUBTITLE:;
#ARTIST:BabyMonster;
#TITLETRANSLIT:;
#SUBTITLETRANSLIT:;
#ARTISTTRANSLIT:;
#GENRE:;
#CREDIT:;
#MUSIC:Drip.ogg;
#BANNER:Drip.png;
#BACKGROUND:Drip-BG.png;
#CDTITLE:;
#SAMPLESTART:56.000;
#SAMPLELENGTH:14.833;
#SELECTABLE:YES;
#OFFSET:0.038;
#BPMS:0.000=120.000;
#STOPS:;
#BGCHANGES:;
#FGCHANGES:;

//--------------- dance-single - Alex ----------------
#NOTES:
     dance-single:
     Alex:
     Beginner:
     1:
     0,0,0,0,0:
0000
0000
0000
0000
,
0000
0000
0000
0000
,
0000
0000
0000
0000
,
0000
0000
0000
0000
,
0000
1000
0000
0000
,
0000
0001
0000
0000
,
0000
0001
0000
0000
,
0000
0100
0000
0000
,
0000
0010
0000
0000
,
0000
0010
0000
0000
,
0000
1000
0000
0000
,
0000
0001
0000
0001
,
0000
0001
0000
0000
,
0000
0100
0000
0000
,
0000
0100
0000
0000
,
0000
0001
0000
0000
,
0000
1000
0000
0000
,
0000
1000
0000
0000
,
0000
0010
0000
0010
,
0000
0010
0000
0000
,
0000
1000
0000
0000
,
0000
0000
0000
0000
,
0000
0001
0000
0000
,
0000
0000
0000
0000
,
0000
0100
0000
0000
,
0000
0000
0000
0000
,
0000
0010
0000
0000
,
0000
1001
0000
0000
,
0000
0001
0000
0000
,
0000
1000
0000
0000
,
0000
0001
0000
0000
,
0000
1000
0000
0000
,
0000
0100
0000
0000
,
0000
0100
0000
0000
,
0000
1000
0000
0000
,
0000
0010
0000
0000
,
0000
1001
0000
0000
,
0000
1000
0000
1000
,
0000
1000
0000
0000
,
0000
0001
0000
0001
,
0000
0001
0000
0000
,
0000
1001
0000
0000
,
0000
1001
0000
0000
,
0000
0010
0000
0000
,
0000
0010
0000
0000
,
0000
1000
0000
0000
,
0000
1000
0000
0000
,
0000
0010
0000
0000
,
0000
0001
0000
0000
,
0000
0100
0000
0000
,
0000
0100
0000
0000
,
0000
0010
0000
0010
,
0000
0010
0000
0000
,
0000
0100
0000
0000
,
0000
0000
0000
0000
,
0000
0010
0000
0000
,
0000
0000
0000
0000
,
0000
0010
0000
0000
,
0000
0000
0000
0000
,
0000
1000
0000
0001
,
0000
1000
0000
0000
,
0000
1001
0000
0000
,
0000
0010
0000
0000
,
0000
0100
0000
0000
,
0000
0001
0000
0000
,
0000
1000
0000
0000
,
0000
1000
0000
0000
,
0000
0001
0000
0000
,
0000
0001
0000
0000
;

//--------------- dance-single - Alex ----------------
#NOTES:
     dance-single:
     Alex:
     Easy:
     3:
     0,0,0,0,0:
0000
0000
0000
0000
,
0000
0000
0000
0000
,
0000
0000
0000
0000
,
0000
1001
0000
0000
,
0000
0001
0000
0001
,
0000
1000
0000
1000
,
0000
0010
0000
0010
,
0000
0100
0000
0100
,
0000
0001
1000
0001
,
0000
1000
0001
1000
,
0000
0010
0100
0010
,
0000
0110
0000
0110
,
0000
0010
0000
0010
,
0000
1000
1000
1000
,
0000
0001
0000
0001
,
0000
0100
0100
0100
,
0000
0000
0001
0000
0001
0000
2000
3000
,
0000
0000
0010
0000
0010
0000
0200
0300
,
0000
0001
0000
1000
,
0000
2002
0000
0000
,
3003
1001
0000
0000
,
0001
0100
0000
0000
,
0010
0010
0000
1000
,
0000
0001
0000
1000
,
0100
1000
0000
0000
,
0001
0100
0000
0000
,
0001
0010
0000
0001
,
0000
1001
0000
0000
,
0000
0001
0000
0001
,
0000
1000
0000
1000
,
0000
0010
0000
0010
,
0000
1000
0000
0001
,
1000
0001
0000
1001
,
0000
1000
0000
1001
,
0000
0010
0000
0110
,
0000
0100
0000
0110
,
0000
2002
0000
3003
,
0000
0001
1000
0001
,
0000
1000
0001
1000
,
0000
0010
0100
0010
,
0000
0100
0010
0100
,
0000
1001
0000
0000
,
0000
1001
0000
0000
,
0000
0010
0000
0010
,
0000
0000
1000
0000
1000
0000
2000
3000
,
0000
0001
0000
0001
,
0000
1000
0000
1000
,
0000
0010
0000
0100
,
0000
0001
0000
0001
,
0000
1000
1000
1000
,
0000
0001
0001
0001
,
0000
0100
0000
0010
,
0000
0220
0000
0000
,
0330
0001
0000
0000
,
1000
0010
0000
0000
,
0010
1000
0000
0001
,
0000
1000
0000
0001
,
0010
0001
0000
0000
,
0100
0010
0000
0000
,
0000
1000
0000
0001
,
0000
1001
0000
0000
,
0000
0010
0000
0010
,
0000
1000
0000
1000
,
0000
0001
0000
1000
,
0000
0100
0000
1000
,
0000
1010
0000
1000
,
0000
1001
0000
0001
,
1000
0001
0000
1001
,
0000
0100
0000
0110
,
0110
0000
0000
0000
;

//--------------- dance-single - Alex ----------------
#NOTES:
     dance-single:
     Alex:
     Medium:
     5:
     0,0,0,0,0:
0000
0000
0000
0000
,
0000
0000
0000
0000
,
0000
0000
0000
0000
,
0000
0000
1001
0000
0000
1001
0000
0000
,
1001
0001
1000
0002
,
0003
0100
0010
0200
,
0300
0001
0010
0002
,
0003
1000
0100
2000
,
3000
0010
1000
0010
,
0010
1000
0001
0100
,
0100
0001
1000
0100
,
0100
1001
1001
2002
,
3003
0000
0001
0000
1000
0000
0010
1000
,
0010
1000
0001
0010
,
0100
0000
1000
0000
0001
0000
0100
0001
,
0100
0001
0001
1000
,
0010
0000
1000
0001
1000
0000
1001
0000
,
0000
0000
0001
0100
0001
0000
0101
0000
,
0000
0110
0000
1010
,
0000
1001
0001
1000
,
0001
1002
0000
1000
,
0000
1000
0000
1003
,
0000
1000
0100
1000
,
0000
0001
0010
0001
,
0000
0210
0000
0010
,
0000
0010
0000
0310
,
0000
0010
0010
1000
,
1000
1001
0000
M00M
,
0000
0001
0001
1000
,
1000
0010
0100
0001
,
0000
0010
0100
1000
,
0001
1000
0010
0100
,
0000
0101
0001
1001
,
1000
1010
0010
0220
,
0330
0101
0001
0011
,
0001
1001
1000
1010
,
0010
0100
0010
0000
0000
0MM0
0000
0000
,
0000
0010
1000
0001
,
0100
0010
0100
0001
,
0000
1000
0100
0010
,
0001
1000
0010
1000
,
0000
0000
0011
0000
0000
1001
0000
0000
,
0000
0000
1010
0000
0000
1001
0000
0000
,
0000
0001
0001
0100
,
0100
0001
1000
2020
,
3030
0010
1000
0010
,
0010
1000
0010
0100
,
0001
0010
0010
0001
,
0001
1000
0010
0100
,
0001
1000
0001
1001
,
0000
0001
0100
0101
,
0000
0110
0000
1010
,
0000
1000
1000
0001
,
0001
1002
0000
0010
,
0000
0100
0000
0013
,
0000
0001
1000
0010
,
0000
0100
0001
1000
,
0000
2100
0000
0010
,
0000
0001
0000
3010
,
0000
0010
1000
0001
,
0100
1001
0000
M00M
,
0000
0001
0001
1000
,
1000
0010
0100
0001
,
0000
1000
1000
0100
,
0100
1000
0010
1000
,
0000
0011
0010
0011
,
0001
1001
1000
2020
,
3030
1010
0010
0110
,
0100
0101
0001
1001
,
0220
0330
0000
0000
;

//--------------- dance-single - Alex ----------------
#NOTES:
     dance-single:
     Alex:
     Hard:
     8:
     0,0,0,0,0:
0000
0000
0000
0000
,
0000
0000
0000
0000
,
0000
0000
0000
0000
,
0000
0000
0000
0000
0100
0000
0000
0100
0000
0000
0010
0000
0010
0000
0000
0010
,
0000
0100
0001
1000
0010
1000
0002
0003
,
0010
0100
1000
0001
0100
0010
0200
0300
,
0001
1000
0100
1000
0001
1000
0002
0003
,
0100
0001
0010
0100
0010
0001
0200
0300
,
0010
1000
1001
0001
1000
0010
1000
0001
,
0200
0300
0001
0010
0100
0010
0001
0100
,
0020
0030
1000
1000
0001
0001
1000
0010
,
2000
0000
3000
0000
0001
0000
0000
1000
0000
0000
0001
0000
1001
0000
0000
1000
,
0000
0000
0010
0000
0100
0000
0000
0001
0010
0000
0001
0000
0100
0000
0010
0000
,
0010
1000
0001
0000
0001
1000
0010
0100
,
0001
0000
0000
0000
1001
0000
0000
1000
0001
0000
1000
0000
0100
0000
1000
0000
,
0001
0000
0100
0100
0001
0010
0100
1000
,
0010
0000
0100
0000
0001
0100
0000
0020
0000
0030
1000
0000
1000
0000
0000
0000
,
0001
0000
1000
0000
0010
0100
0000
0002
0000
0003
0100
0000
0100
0000
0000
0000
,
0001
0000
1000
0000
0010
0000
0000
1000
0000
0000
0001
0000
0100
0000
0000
0001
,
0000
0000
0010
0000
0100
0000
0000
0010
0000
0000
0001
0000
0100
0000
0000
0010
,
0000
0100
0002
0000
1000
0000
1000
0000
,
1003
2000
0010
0010
,
3010
0100
0001
0100
0010
0000
0100
0000
,
0001
1000
0000
1000
0001
0000
1001
0000
,
0001
1000
0020
0000
1000
0000
0100
0000
,
1030
2000
0001
0010
,
3001
0000
0000
0000
1000
0000
0000
0001
0000
0000
1000
0000
0000
0010
0000
0000
,
0100
0000
0000
0001
0000
0000
1001
0000
0000
0000
0000
0000
0000
0000
0000
0000
0000
0000
1000
0000
0001
0000
1000
0000
,
0001
1000
0001
0000
0100
0000
0000
0001
0000
0000
0010
0000
0100
0000
0000
1000
,
0000
0000
0010
0000
0100
0000
0000
0001
0000
0000
1000
0000
0020
0000
0030
0000
,
0100
0001
0100
0000
0001
0000
0000
0001
0000
0000
1000
0000
0010
0000
0000
0010
,
0000
0000
1000
0000
0100
0000
0000
0100
0000
0000
1000
0000
0020
0000
0030
0000
,
0100
0001
0100
0000
0001
0000
0000
1000
0001
0000
0000
0000
1000
0000
0000
0010
,
1000
0000
0000
0000
0001
0000
0000
0100
0001
0000
0010
0000
0100
0000
0000
0000
,
1000
0100
1000
0000
0010
0000
0000
0010
0100
0000
0000
0000
0001
0000
0000
0001
,
0010
0000
0000
0000
0100
0000
0000
0100
1000
0000
0010
0000
0010
0000
0000
0000
,
4000
0004
0000
0000
0000
0000
0000
0000
3003
0000
0000
0000
0000
0000
0000
0000
0000
0000
0000
0000
M00M
0000
0000
0000
0000
0000
0000
0000
0000
0000
0000
0000
,
0001
1000
0010
1000
0001
0010
0100
0010
,
0001
0100
0010
0100
0001
1000
0200
0000
,
0300
1000
1000
0010
0010
1000
0001
1000
,
0010
0010
0100
0001
1000
0100
0020
0000
,
0030
0000
0000
0000
0011
0000
0000
0000
0000
0000
1001
0000
0000
1000
0000
0000
,
0010
0000
0000
0000
1010
0000
0000
0000
0000
0000
0101
0000
0000
0001
0000
0000
,
1000
0000
0001
0010
0001
0100
0010
0100
,
0001
0010
0100
1000
0001
1000
0010
1000
,
0002
0003
1001
0000
0001
1000
0010
0100
,
0001
0000
1000
0100
0010
0100
1000
0001
,
0100
0010
0200
0300
0000
0010
0010
0010
,
1000
0001
0010
0001
0100
0010
0100
0001
,
0010
0000
0100
0000
1000
0010
0000
0200
0000
0300
0001
0000
0001
0000
0000
0000
,
0010
0000
0100
0000
1000
0001
0000
2000
0000
3000
0010
0000
0010
0000
0000
0000
,
1000
0000
0001
0000
0100
0000
0000
0001
0000
0000
0010
0000
0100
0000
0000
0010
,
0000
0000
0001
0000
0100
0000
0000
0010
0000
0000
1000
0000
0001
0000
0000
1000
,
0000
1000
0020
0000
0100
0000
0100
0000
,
0130
0200
0001
0001
,
0301
0000
0001
1000
0010
1000
0001
0000
,
1000
0001
0000
0001
1000
0000
1001
0000
,
0001
1000
0200
0000
1000
0000
0010
0000
,
1300
0020
0001
0100
,
0031
0000
0000
0000
1000
0000
0000
0001
0000
0000
1000
0000
0000
0010
0000
0000
,
0100
0000
0000
0001
0000
0000
1001
0000
0000
0000
0000
0000
0000
0000
0000
0000
0000
0000
0001
0000
1000
0000
0001
0000
,
1000
0001
1000
0000
0001
0000
0000
0100
0000
0000
0001
0000
1000
0000
0000
0010
,
0000
0000
1000
0000
0001
0000
0000
0010
0000
0000
0001
0000
0200
0000
0300
0000
,
0010
0100
0010
0000
0100
0000
0000
0100
0000
0000
0001
0000
1000
0000
0000
1000
,
0000
0000
0001
0000
0010
0000
0000
0001
0000
0000
0100
0000
0002
0000
0003
0000
,
1000
0010
1000
0000
0010
0000
0000
0100
0001
0000
0000
0000
1000
0000
0000
0100
,
1000
0000
0000
0000
0010
0000
0000
0100
0001
0000
1000
0000
0010
0000
0000
0000
,
1000
0010
1000
0000
0001
0000
0000
0001
0010
0000
0000
0000
0001
0000
0000
0100
,
0001
0000
0000
0000
0100
0000
0000
0010
0100
0000
0001
0000
1000
0000
0010
0000
,
0200
0300
0000
0000
;

//--------------- dance-single - Alex ----------------
#NOTES:
     dance-single:
     Alex:
     Challenge:
     9:
     0,0,0,0,0:
0000
0000
0000
0000
,
0000
0000
MMMM
M00M
MMMM
M00M
MMMM
0000
,
MMMM
M00M
M00M
M00M
M00M
M00M
0000
0000
,
0000
0000
0000
0000
1001
0000
0000
0101
0000
0000
0110
0000
1010
0000
0000
1001
,
0000
0000
0001
0100
0001
0000
1000
0010
1000
0000
0100
0000
0020
0000
0030
0000
,
0001
0100
0010
1000
0100
0000
1000
0100
1000
0000
0010
0000
0200
0000
0300
0000
,
0001
0010
0001
0010
0001
0000
0001
0100
0001
0000
0100
0000
0020
0000
0030
0000
,
0100
0001
1000
0100
0010
0000
0001
1000
0010
0000
0100
0000
1001
0000
0000
0000
,
0110
0000
0110
0000
0010
0100
0010
0100
0010
0100
0010
0100
0010
1000
0010
0000
,
0200
0000
0300
0000
0001
0010
0001
0010
0001
0010
0001
0010
0001
0100
0001
0000
,
2000
0000
3000
0000
0010
1000
0010
1000
0010
0000
0010
1000
0010
0100
0010
0100
,
0010
0000
0100
0000
0101
0000
0000
1001
0000
0000
1100
0000
0110
0000
0000
0011
,
0000
0000
0101
0000
0110
0000
0010
0100
0010
0000
0100
0000
0001
0000
1000
0000
,
0001
1000
1100
0100
1000
0010
0100
0001
,
1000
0000
0010
0000
1010
0000
0010
0100
0010
0000
0100
0000
0001
0000
1000
0000
,
1010
0010
1000
0100
0001
0100
1000
0010
,
0100
0000
0001
0000
0010
0001
0000
0200
0000
0300
0010
0000
1001
0000
0000
0000
,
0001
0000
1000
0000
0010
0100
0000
0002
0000
0003
0010
0000
0100
0000
0000
0000
,
1000
0000
0010
0000
1010
0000
0000
1100
0000
0000
0011
0000
0101
0000
0000
0110
,
0000
0000
0101
0000
1001
0000
0000
1010
0000
0000
1001
0000
0011
0000
0000
0101
,
0000
0110
1020
0000
0100
0000
1000
0000
,
0130
0021
0100
0001
,
0130
1000
0010
0100
0001
0010
0011
0000
,
0001
0100
0010
1000
0100
0000
1100
0000
,
1000
0010
1010
1000
0001
0100
0010
1000
,
0100
0010
0100
1000
0001
0100
0010
0100
,
0001
0000
1000
0000
0010
1000
0001
0100
0010
1000
0001
1000
0010
1000
0001
1000
,
0100
0000
0000
0010
0000
0000
0011
0000
0000
0000
0000
0000
1001
0000
0000
0000
0000
0000
0001
0000
1000
0000
0010
0000
,
0100
0001
0100
0000
0010
0000
1000
0010
0000
0010
1000
0000
0001
0000
1000
0100
,
0000
0100
1000
0000
0001
0000
0100
0010
0000
0010
0100
0000
0101
0000
0000
0001
,
0100
0010
1000
0000
0001
0000
0010
0001
0000
0001
0010
0000
0001
0000
0100
0010
,
0000
0010
0100
0000
0001
0000
1000
0100
0000
0100
1000
0000
1100
0000
0000
0100
,
1000
0010
1000
0000
1001
0000
0000
0001
1000
0000
0010
0000
0110
0000
0000
0100
,
0001
0000
0010
0000
0011
0000
0000
0001
1000
0000
0010
0000
1010
0000
0000
0010
,
1000
0001
0100
0000
0101
0000
0000
0001
0100
0000
0100
0000
0110
0000
0000
0010
,
1000
0000
1000
0000
1001
0000
0000
0001
1000
0000
0100
0000
1100
0000
0000
0000
,
1000
0010
1000
0010
1000
0010
1000
0010
1000
0000
0000
0000
0000
0000
0000
0000
0001
0000
0000
0000
2002
0000
0000
0000
0000
0000
0000
0000
3003
0000
0000
0000
,
0001
0100
0001
0100
0001
0000
0010
0001
0000
0001
0100
0000
0100
0010
0000
0010
,
1000
0000
0001
0000
1000
0000
0001
0100
0000
0100
0001
0000
1000
0000
0010
0000
,
1010
0000
0010
1000
0100
0000
0100
1000
0000
1000
0010
0000
0010
1000
0000
1000
,
0001
0000
0100
0000
0001
0000
0010
0100
0000
0100
0010
0000
0011
0000
0000
0000
,
0001
0000
0100
0000
0110
0000
0000
0000
1010
0000
1100
0000
0000
0011
0000
0000
,
0101
0000
0000
0000
0110
0000
0000
0000
1010
0000
1001
0000
0000
0011
0000
0000
,
0100
0001
0100
0001
0100
0000
0010
0000
0100
0000
0001
1000
0000
1000
0001
0000
,
0100
0000
0010
0100
0000
0100
0010
0000
1000
0000
0001
1000
0000
1000
0010
0000
,
2020
0000
3030
0000
0010
0000
1000
0100
1000
0000
1000
0000
0001
0000
0001
0000
,
1001
0001
0100
0010
0100
0001
0010
0100
,
1000
0000
0010
0000
1010
0000
0010
1000
0010
0000
1000
0000
0001
0000
0001
0000
,
0011
0001
0100
0010
0100
0001
0010
0100
,
0010
0000
0001
0000
0100
0001
0000
0200
0000
0300
0010
0000
1010
0000
0000
0000
,
0010
0000
1000
0000
0001
1000
0000
0020
0000
0030
0100
0000
0101
0000
0000
0000
,
0001
0000
1000
0000
1010
0000
0000
1010
0000
0000
0101
0000
0011
0000
0000
0101
,
0000
0000
0110
0000
0101
0000
0000
1001
0000
0000
1100
0000
0110
0000
0000
0011
,
0000
0101
0120
0000
0001
0000
0100
0000
,
0031
1020
0100
1000
,
0130
0001
0010
0100
1000
0001
1000
0000
,
0010
0100
0001
0100
0010
0000
0110
0000
,
0010
1000
1100
0100
1000
0010
0001
0010
,
1000
0001
0010
0001
1000
0100
0001
0100
,
1000
0000
0010
0000
0100
0001
0100
0001
0010
0001
0100
0001
0010
0100
0010
0001
,
0100
0000
0000
0010
0000
0000
1001
0000
0000
0000
0000
0000
0000
0000
0000
0000
0000
0000
0001
0000
0010
0000
0001
0000
,
0100
0010
0100
0000
0001
0000
1000
0010
0000
0010
1000
0000
0001
0000
1000
0100
,
0000
0100
1000
0000
0001
0000
0100
0010
0000
0010
0100
0000
1001
0000
0000
0001
,
1000
0010
1000
0000
0001
0000
0010
0001
0000
0001
0100
0000
0010
0000
1000
0100
,
0000
0100
1000
0000
0010
0000
0100
0001
0000
0001
0010
0000
0011
0000
0000
0001
,
0100
0010
0100
0000
0101
0000
0000
0001
1000
0000
1000
0000
1010
0000
0000
0010
,
0100
0000
0001
0000
0011
0000
0000
0001
1000
0000
0001
0000
1001
0000
0000
0001
,
1000
0100
1000
0000
1100
0000
0000
0100
1000
0000
1000
0000
1010
0000
0000
0010
,
1000
0000
0001
0000
0101
0000
0000
0100
0010
0000
0100
0000
0001
0000
1000
0000
,
2020
3030
0000
0000
;
