#TITLE:Drama;
#SUBTITLE:;
#ARTIST:Aespa;
#TITLETRANSLIT:;
#SUBTITLETRANSLIT:;
#ARTISTTRANSLIT:;
#GENRE:;
#CREDIT:;
#MUSIC:Drama.ogg;
#BANNER:Drama.png;
#BACKGROUND:Drama-BG.png;
#CDTITLE:;
#SAMPLESTART:76.591;
#SAMPLELENGTH:15.706;
#SELECTABLE:YES;
#OFFSET:-0.160;
#BPMS:0.000=131.000
,3.000=196.500
,3.375=65.500
,3.500=196.500
,3.875=65.500
,4.000=196.500
,4.375=65.500
,4.500=196.500
,4.875=65.500
,5.000=196.500
,5.375=65.500
,5.500=196.500
,5.875=65.500
,6.000=131.000
,20.000=65.500
,21.000=131.000
,35.000=65.500
,36.000=131.000
,50.000=196.500
,50.750=65.500
,51.000=131.000
,66.000=65.500
,74.000=131.000
,156.000=65.500
,156.250=196.500
,157.375=65.500
,157.500=196.500
,157.875=65.500
,158.000=196.500
,158.375=65.500
,158.500=196.500
,158.875=65.500
,159.000=196.500
,159.375=65.500
,159.500=196.500
,159.875=65.500
,160.000=131.000
,174.000=65.500
,175.000=131.000
,189.000=65.500
,190.000=131.000
,204.000=65.500
,205.000=131.000
,219.000=65.500
;
#STOPS:;
#BGCHANGES:2.750=Drama.avi=1.000=1=0=0=StretchNoLoop==CrossFade==,
99999.000=-nosongbg-=1.000=0=0=0=StretchNoLoop====
;
#FGCHANGES:;

//--------------- dance-single - Alex ----------------
#NOTES:
     dance-single:
     Alex:
     Beginner:
     1:
     0.079506,0.122011,0.034249,0.034249,0,65,61,4,4,0,0,0.079506,0.122011,0.034249,0.034249,0,65,61,4,4,0,0:
0000
0000
0000
0000
,
0000
0000
1000
0000
,
0000
0000
0001
0000
,
0000
0000
0100
0000
,
0000
0000
0010
0000
,
0000
1000
0000
0000
,
0000
1000
0000
0000
,
0000
0001
0000
0000
,
0000
1000
0000
0000
,
0001
0000
0000
0000
,
0100
0000
0000
0000
,
0001
0000
0000
0000
,
1000
0000
0010
0000
,
1000
0000
0000
0000
,
0010
0000
0000
0000
,
0100
0000
0000
0000
,
0001
0000
0000
1001
,
0000
0000
0000
0000
,
0000
0000
0000
0000
,
0100
0000
0000
0000
,
0010
0000
0000
0000
,
1000
0000
1000
0000
,
1000
0000
0000
0000
,
0001
0000
0000
0000
,
0100
0000
0000
0000
,
0001
0000
0000
0000
,
1000
0000
0001
0000
,
1000
0000
0000
0000
,
0010
0000
0000
0000
,
1000
0000
0000
0000
,
0001
0000
0000
0000
,
0200
0000
0000
0000
,
0300
0000
0000
0000
,
0020
0000
0000
0000
,
0030
0000
0000
0000
,
2000
0000
0000
0000
,
3000
0000
0000
0000
,
0002
0000
0000
0000
,
0003
0000
0000
0000
,
1001
0000
0000
0000
,
1000
0000
0000
0000
,
0001
0000
0000
0000
,
0100
0000
0000
0000
,
0010
0000
0000
0010
,
0000
0000
0000
1000
,
0000
0000
0000
0001
,
0000
0000
0000
1000
,
0000
0000
1001
0000
,
0001
0000
1000
0000
,
0000
0000
0010
0000
,
0010
0000
0100
0000
,
0000
0100
0000
0001
,
0000
0100
0000
0000
,
0000
0010
0000
1000
,
0000
0010
0000
0000
,
1001
0000
0000
0000
,
0000
0000
0001
1000
,
0001
0000
0000
0000
;

//--------------- dance-single - Alex ----------------
#NOTES:
     dance-single:
     Alex:
     Easy:
     2:
     0.168797,0.218656,0.102746,0.034249,0,138,126,12,4,0,0,0.168797,0.218656,0.102746,0.034249,0,138,126,12,4,0,0:
0000
0000
0000
0000
,
0000
0000
0100
0000
,
1000
0000
0001
0000
,
1000
0000
0010
0000
,
0100
0000
0010
0010
,
0010
0100
0000
0001
,
0000
1000
0000
0001
,
0000
1000
0000
1000
,
0000
0010
0100
0100
,
0001
0000
0010
0000
,
0001
0000
1000
0000
,
0001
0000
0100
0000
,
0010
0010
0010
0000
,
1000
0000
0010
0000
,
1000
0000
1000
0000
,
0001
0000
0100
0000
,
0010
0010
0010
0000
,
1001
0000
0110
0000
,
1001
0000
0000
0000
,
0001
1000
1001
0000
,
0010
0010
0110
0000
,
0100
0100
0100
0000
,
0001
0001
0001
0000
,
1000
1000
1010
0000
,
0100
0100
1001
0000
,
0001
0001
1000
0000
,
0010
0010
0100
0000
,
0001
0000
1000
0000
,
0001
0000
0100
0000
,
0010
0000
0100
0000
,
0001
0000
1000
0100
,
2000
0000
3000
0000
,
0020
0000
0030
0000
,
0100
0000
0010
0000
,
0100
0000
1001
0000
,
0020
0000
0030
0000
,
0200
0000
0300
0000
,
0001
0000
1000
0000
,
1001
0000
0110
0000
,
0000
0000
0000
0000
,
0100
0000
0010
0000
,
0100
0000
0100
0000
,
0001
0000
1000
0000
,
0001
0001
0001
1000
,
0000
1000
0000
0010
,
0000
0010
0000
1000
,
0000
0001
0000
0100
,
0100
0100
0110
0000
,
0010
0000
1000
0000
,
0001
0000
1000
0000
,
0010
0000
0100
0100
,
0100
0001
0000
1000
,
0000
0001
0000
0001
,
0000
1000
0000
0010
,
0000
1000
1000
1001
,
0000
0000
0010
0000
,
1000
0000
0000
0010
0010
0010
0010
0000
;

//--------------- dance-single - Alex ----------------
#NOTES:
     dance-single:
     Alex:
     Medium:
     4:
     0.249526,0.292826,0.102746,0.3168,0,204,192,12,37,0,0,0.249526,0.292826,0.102746,0.3168,0,204,192,12,37,0,0:
0000
0000
0000
0100
,
0100
0100
0110
0010
,
0100
0000
0001
1000
,
0001
0000
1000
0010
,
1000
0001
0100
0010
,
0020
0030
0100
0000
0001
0000
0100
0000
,
0000
0010
1000
0010
,
0000
1000
0001
0010
,
0001
0000
1000
0000
0010
0000
0200
0300
,
1001
0001
1000
0000
,
1001
1000
0001
0000
,
0100
0010
0100
0001
,
0010
0100
2000
3000
,
0010
1000
0010
0000
,
0100
0001
0100
0000
,
0001
0010
0100
0010
,
0001
0000
1000
0000
0020
0030
0000
0000
,
0001
1000
0001
0000
1000
0001
1000
0000
,
0001
0100
0010
0000
2002
0000
3003
0000
,
0010
0100
1001
0000
,
1000
0001
0101
0000
,
0010
0100
0002
0003
,
1000
0100
0020
0030
,
0001
0100
0110
0000
,
0010
1000
1100
0000
,
0010
0001
2000
3000
,
0001
0100
0002
0003
,
0100
0010
0100
0010
,
1000
0001
1000
0000
,
0001
0100
0100
0001
,
0010
0100
0010
0000
,
0002
0003
2000
3020
,
0230
0000
0300
0020
,
0230
0302
0023
0230
,
0320
0032
2003
0000
,
3020
0000
0230
0302
,
2003
0000
3002
2003
,
3020
0000
0230
0000
0302
0000
2003
3000
,
1001
0000
0110
0000
,
1001
0000
0000
0000
,
1000
0001
1000
0000
,
0010
0100
0010
0000
,
0100
0001
0010
0100
,
1000
0000
0010
0000
0020
0030
0100
0000
,
0100
0001
0000
1000
,
1000
0010
0000
1000
,
0001
0010
0001
1000
,
0010
0000
0020
0030
1001
0000
0001
0000
,
0010
0001
1000
0010
,
1000
0001
0100
0010
,
0100
0100
0001
1000
,
0200
0300
1000
0000
0010
0000
1000
0000
,
1000
0001
0100
0010
,
0100
0001
0001
0010
,
0100
0000
1000
0000
0001
0000
2000
3000
,
0000
0000
0000
0010
0010
0000
0000
0100
,
0100
0000
0000
0100
0001
0100
0002
0000
,
0003
0000
0000
0000
;

//--------------- dance-single - Alex ----------------
#NOTES:
     dance-single:
     Alex:
     Hard:
     8:
     0.491712,0.536847,0.385297,0.453794,0.201211,402,357,45,53,18,0,0.491712,0.536847,0.385297,0.453794,0.201211,402,357,45,53,18,0:
0000
0000
0000
0000
0000
0000
1001
1000
,
1001
0000
0001
0000
1001
0000
1000
0000
1001
0000
0000
0001
0100
0000
0010
0000
,
1000
0000
0000
0000
0001
0000
0100
0000
0001
0000
0000
0001
1000
0000
0010
0000
,
1000
0000
0100
0010
0011
0000
0001
0100
,
0110
0000
1001
0000
0001
1000
0010
1000
,
0001
0002
0000
0003
1010
0000
0000
0010
1000
0000
0001
0000
0100
0000
0000
0000
,
0010
0000
0100
0000
0001
0000
0000
1000
0100
0000
1000
0000
0010
0000
0000
0000
,
0100
0001
1001
0000
1000
0010
1010
0000
,
0100
0000
0001
0000
0001
0000
0010
0000
0100
0000
1000
0000
0010
0020
0000
0030
,
1001
0000
0000
0001
1000
0000
0100
0000
1000
0000
0000
0000
0010
0000
1000
0000
,
0010
0000
0000
0010
0100
0000
0001
0000
1000
0000
0000
0000
0100
0000
0010
0000
,
0011
0000
0100
1000
1010
0000
1001
0000
,
0001
0100
0010
0100
0002
0000
1003
1000
,
1010
0000
0000
0010
0100
0000
0001
0000
0010
0000
0000
0000
0001
0000
1000
0000
,
0010
0000
0000
0010
1000
0000
0001
0000
0100
0000
0000
0000
0010
0000
0100
0000
,
0110
0000
0010
1000
1001
0000
0101
0100
,
0010
0000
1000
0000
0001
0000
0010
0000
0100
0200
0000
0300
1001
0000
0000
0000
,
0001
0010
0100
1000
0001
0000
0000
0000
1000
0010
0100
0001
1000
0000
0000
0000
,
0100
0000
0000
0010
0000
0000
0001
0000
0000
0200
0000
0000
0000
0000
0000
0000
0000
0000
0310
0000
0000
0000
0000
0000
0010
0000
0000
0000
1000
0000
0000
0000
0010
0000
0000
0000
1000
0000
0000
0000
0010
0000
0000
0000
1000
0000
0000
0000
,
0010
0000
0110
0000
1001
0000
0000
0001
,
0100
1000
0100
0001
2000
0000
3000
0000
,
0010
0010
1000
1000
0002
0000
0003
0000
,
0100
0100
0001
0001
0010
0001
0100
0000
,
0110
1001
0110
0000
,
0011
1100
1010
0000
,
0010
0100
0001
1000
0200
0000
0300
0000
,
1000
0001
0100
0001
1000
0010
2000
0000
,
3001
0100
0010
0100
0001
0010
0100
1000
,
0001
0100
0010
0010
1000
1000
0001
0001
,
1000
0100
0010
0100
1100
0000
1010
0000
,
1000
0001
0010
0002
0000
1003
1000
0010
,
1010
0000
0000
2000
3200
0320
0032
0203
,
0000
0000
0000
0300
0020
0030
2000
3002
,
0023
0000
0032
0203
0320
0000
2030
3200
,
2300
0000
3000
0001
0200
0000
0320
2030
,
3020
0000
0030
0200
0302
0023
0230
2300
,
0000
0000
0000
0000
3000
0000
0020
0000
0230
0000
0300
0002
0000
0003
2000
0000
,
3020
0000
0130
0100
0200
0000
0310
0010
,
2002
0000
3003
0010
0220
0000
0000
0000
,
0330
0000
1001
0001
1001
1000
1001
0001
,
1001
0000
0000
0001
0100
0000
0010
0000
1000
0000
0000
0000
0001
0000
1000
0000
,
0100
0000
0000
0010
0001
0000
0100
0000
0010
0000
0000
0000
0010
0000
0100
0000
,
0101
0000
0001
1000
1001
0000
0110
0000
,
0010
0000
1000
0000
0100
0000
0010
0000
0001
0002
0000
0003
1001
0000
0000
0001
,
1000
0000
0001
0000
0100
0000
0000
0000
0010
0000
1000
0000
0100
0000
0000
0100
,
0010
0001
0100
0000
0010
1000
1001
0000
,
0001
0100
0110
0000
0010
1000
0100
0010
,
0001
0000
0100
0000
0010
0020
0000
0030
1001
0000
0000
0000
1000
0000
0100
0000
,
0010
0001
0100
0010
0100
0000
0001
0010
,
0100
1000
0001
0100
0020
0000
0130
0100
,
0001
0000
0010
0000
0100
0000
1000
0001
0100
0000
0010
0000
1000
0000
0100
0000
,
0010
0001
0100
0010
1000
0000
0000
0000
0001
0000
0100
0000
0001
0000
1000
0000
,
0010
1000
0001
0000
0001
0100
0010
0100
,
0001
0010
0220
0330
2002
0000
0000
0000
,
3003
0000
0001
1000
0010
0000
0100
0000
0001
0000
1000
0000
0100
0200
0000
0300
,
000M
0000
0000
000M
0M00
0000
00M0
0000
0000
0000
M000
0000
0M00
0000
00M0
0000
000M
0000
0000
000M
M000
0000
00M0
0000
0000
0000
00M0
0000
0M00
0000
000M
0000
,
M000
0000
0000
0M00
00M0
0000
000M
0000
0000
0000
0000
0000
0001
0000
1000
0000
0010
0000
1000
0000
0001
0000
0100
0000
0010
0000
0020
0000
0000
0000
0000
0000
,
0030
0000
0000
0000
;
