#TITLE:Domino;
#SUBTITLE:;
#ARTIST:Stray Kids;
#TITLETRANSLIT:;
#SUBTITLETRANSLIT:;
#ARTISTTRANSLIT:;
#GENRE:;
#CREDIT:;
#MUSIC:Domino.ogg;
#BANNER:Domino.png;
#BACKGROUND:Domino-BG.png;
#CDTITLE:;
#SAMPLESTART:49.516;
#SAMPLELENGTH:18.813;
#SELECTABLE:YES;
#OFFSET:-0.485;
#BPMS:0.000=240.000
,0.750=80.000
,1.000=240.000
,1.750=80.000
,2.000=240.000
,2.750=80.000
,3.000=240.000
,3.750=80.000
,4.000=160.000
,32.000=240.000
,32.750=80.000
,33.000=240.000
,33.750=80.000
,34.000=240.000
,34.750=80.000
,35.000=240.000
,35.750=80.000
,35.875=65.500
,36.000=160.000
,64.000=240.000
,64.750=80.000
,65.000=240.000
,65.750=80.000
,66.000=240.000
,66.750=80.000
,67.000=240.000
,67.750=80.000
,68.000=160.000
,160.000=240.000
,160.750=80.000
,161.000=240.000
,161.750=80.000
,162.000=240.000
,162.750=80.000
,163.000=240.000
,163.750=80.000
,164.000=160.000
,192.000=240.000
,192.750=80.000
,193.000=240.000
,193.750=80.000
,194.000=240.000
,194.750=80.000
,195.000=240.000
,195.750=80.000
,196.000=160.000
,225.000=240.000
,225.750=80.000
,226.000=240.000
,226.750=80.000
,227.000=240.000
,227.750=80.000
,228.000=240.000
,228.750=80.000
,229.000=160.000
,257.000=240.000
,257.750=80.000
,258.000=240.000
,258.750=80.000
,259.000=240.000
,259.750=80.000
,260.000=240.000
,260.750=80.000
,261.000=160.000
,353.000=240.000
,353.750=80.000
,354.000=240.000
,354.750=80.000
,355.000=240.000
,355.750=80.000
,356.000=240.000
,356.750=80.000
,357.000=160.000
,385.000=240.000
,385.750=80.000
,386.000=240.000
,386.750=80.000
,387.000=240.000
,387.750=80.000
,388.000=240.000
,388.750=80.000
,389.000=160.000
;
#STOPS:196.000=1.152;
#BGCHANGES:;
#FGCHANGES:;

//--------------- dance-single - Alex ----------------
#NOTES:
     dance-single:
     Alex:
     Beginner:
     2:
     0.103274,0.128998,0.079587,0,0,109,97,12,0,0,0,0.103274,0.128998,0.079587,0,0,109,97,12,0,0,0:
0000
0000
0000
0000
,
0001
0000
0000
0000
,
1000
0000
0000
0000
,
0001
0000
0000
0000
,
0100
0000
0000
0000
,
0010
0000
0000
0000
,
1000
0000
0000
0000
,
0001
0000
0000
0000
,
1000
0000
0000
0000
,
1001
0000
0000
0000
,
0100
0000
0000
0000
,
0010
0000
0000
0000
,
0100
0000
0000
0000
,
0001
0000
1000
0000
,
0001
0000
0000
0000
,
1000
0000
0000
0000
,
0010
0000
0000
0000
,
0110
0000
0000
0000
,
0000
0000
0000
0000
,
1001
0000
0000
0000
,
0000
0000
0000
0000
,
0011
0000
0000
0000
,
0000
0000
0000
0000
,
1100
0000
0000
0000
,
1000
0000
0000
0000
,
0010
0000
0000
0000
,
0010
0000
0000
0000
,
1000
0000
0000
0000
,
0001
0000
0000
0000
,
0001
0000
0000
0000
,
1000
0000
0000
0000
,
1000
0000
0000
0000
,
0001
0000
0000
0000
,
1001
0000
0000
0000
,
0001
0000
0000
0000
,
0100
0000
0000
0000
,
0010
0000
0010
0000
,
0010
0000
0000
0000
,
1000
0000
0000
0000
,
1000
0000
0000
0000
,
0001
0000
0001
0000
,
1000
0000
0000
0000
,
1000
0000
0000
0000
,
0001
0000
0000
0000
,
0001
0000
0000
0000
,
0100
0000
0000
0000
,
0100
0000
0000
0000
,
0010
0000
0000
0000
,
1000
0000
0001
0000
,
1000
0000
0000
0000
,
0000
0001
0000
0000
,
0000
0001
0000
0000
,
0000
1000
0000
0000
,
0000
1000
0000
0000
,
0000
0010
0000
0000
,
0000
0100
0000
0000
,
0000
0100
0000
0000
,
0000
1001
0000
0000
,
0000
0001
0000
0000
,
0000
1000
0000
0000
,
0000
1000
0000
0000
,
0000
0010
0000
0000
,
0000
1000
0000
0000
,
0000
0001
0000
0000
,
0000
0001
0000
0000
,
0000
1001
0000
0000
,
0000
0000
0000
0000
,
0000
0110
0000
0000
,
0000
0000
0000
0000
,
0000
1100
0000
0000
,
0000
0000
0000
0000
,
0000
0011
0000
0000
,
0000
0001
0000
0000
,
0000
1000
0000
0000
,
0000
1000
0000
0000
,
0000
0100
0000
0000
,
0000
1000
0000
0000
,
0000
0001
0000
0000
,
0000
1000
0000
0000
,
0000
0001
0000
0000
,
0000
0100
0000
0000
,
0000
0110
0000
0000
,
0000
0010
0000
0000
,
0000
1000
0000
0000
,
0000
1000
0000
0000
,
0000
0010
0000
0000
,
0000
0100
0000
0000
,
0000
0001
0000
0000
,
0000
1000
0000
1000
,
0000
1000
0000
0000
,
0000
0001
0000
0000
,
0000
1000
0000
0000
,
0000
0010
0000
0000
,
0000
0100
0000
0000
,
0000
0100
0000
0000
,
0000
0001
0000
0000
,
0000
1000
0000
0001
,
0000
1000
0000
0000
;

//--------------- dance-single - Alex ----------------
#NOTES:
     dance-single:
     Alex:
     Easy:
     4:
     0.228339,0.322494,0.106116,0.079587,0,241,225,16,12,0,0,0.228339,0.322494,0.106116,0.079587,0,241,225,16,12,0,0:
0000
0000
0000
0000
,
1000
0000
0001
0000
,
1000
0000
1001
0000
,
0001
0000
0100
0000
,
0001
0000
0101
0000
,
0010
0000
1000
0000
,
0010
0000
1010
0000
,
1000
0000
0001
0000
,
0100
0100
0100
0100
,
0100
0000
0010
0000
,
0100
0000
0001
0000
,
0010
0000
0100
0000
,
1000
0000
0001
0000
,
1000
1000
0001
0001
,
1000
0000
0010
0000
,
0100
0000
0001
0000
,
0010
0010
0010
0010
,
0020
0000
0000
0000
0030
0000
0000
0100
,
0000
0100
0000
0000
0000
0000
0000
0000
,
0002
0000
0000
0000
0003
0000
0000
1000
,
0000
1000
0000
1000
0000
1000
0000
0000
,
0020
0000
0000
0000
0030
0000
0000
0100
,
0000
0100
0000
0000
0000
0000
0000
0000
,
0001
0000
1000
0000
,
0001
0001
1000
1000
,
1001
0000
0001
0000
,
1001
0000
1000
1000
,
1010
0000
0010
0000
,
0110
0000
0100
0100
,
0001
0000
1000
0000
,
0001
0000
1000
0000
,
0010
0010
0010
0010
,
0100
0100
0100
0100
,
1001
0000
0001
0000
,
1000
0000
0001
0000
,
0100
0000
0010
0000
,
1000
1000
1000
0100
,
0100
0000
1000
0000
,
0010
0000
0100
0000
,
0001
0000
1000
0000
,
0010
0010
0010
0010
,
0010
0000
0100
0000
,
0100
0000
0001
0000
,
1000
2000
0000
3000
,
0001
0002
0000
0003
,
1001
0000
0001
0000
,
0001
0000
0100
0000
,
0100
0200
0000
0300
,
0010
0010
0010
0010
,
0010
0000
0000
1001
,
0000
0001
0000
0001
,
0000
1000
0000
1000
,
0000
0010
0000
0100
,
0000
0010
0000
0010
,
0000
0100
0000
0001
,
0000
0010
0000
0100
,
0000
1000
1000
1000
,
1000
1000
0000
0001
,
0000
1000
0000
0001
,
0000
0100
0000
0100
,
0000
0010
0000
0010
,
0000
1001
0000
1000
,
0000
0010
0000
1000
,
0000
0001
0000
0100
,
0000
0010
0010
0010
,
0010
0020
0000
0030
,
0000
0100
0000
0100
0000
0000
0000
0000
,
0000
0002
0000
0003
,
0000
1000
0000
1000
0000
1000
0000
1000
,
0000
0200
0000
0300
,
0000
0010
0000
0010
0000
0000
0000
0000
,
0000
0001
0000
1000
,
0000
0001
0000
1000
,
0000
1001
0000
0001
,
0000
1000
0000
0010
,
0010
0110
0000
0100
,
0000
0001
0000
0010
,
0010
0011
0000
0001
,
0000
1000
0000
0010
,
0000
0100
0000
0001
,
0000
0010
0010
0010
,
0010
0010
0000
0001
,
0000
0100
0000
0001
,
0000
1000
0000
0010
,
0000
1000
1000
1000
,
0001
0001
0000
1000
,
0000
0010
0000
0100
,
0000
0001
0000
0010
,
0000
0100
0100
0100
,
0100
0100
0000
1000
,
0000
0010
0000
0100
,
0000
0001
0002
0000
,
0003
1000
2000
0000
,
3000
1001
0000
0001
,
0000
1000
0000
0010
,
0000
0100
0200
0000
,
0300
0010
0010
0010
,
0010
0110
0000
0000
;

//--------------- dance-single - Alex ----------------
#NOTES:
     dance-single:
     Alex:
     Medium:
     6:
     0.431097,0.451492,0.404568,0.132645,0,455,394,61,20,0,0,0.431097,0.451492,0.404568,0.132645,0,455,394,61,20,0,0:
0000
0000
0000
0000
,
0000
0001
0100
0010
,
1000
0001
1001
0000
,
0000
0001
1000
0100
,
0010
0001
0101
0000
,
0000
0100
0010
1000
,
1000
0001
0001
0010
,
0100
1000
0010
0100
,
1001
1001
1001
1001
,
0001
0100
0001
0100
,
0010
1000
0010
1000
,
0100
0100
1000
1000
,
0010
0100
0001
0010
,
0100
2000
3010
0200
,
0301
0010
0001
0100
,
0010
0010
1000
0001
,
0011
0011
0011
0011
,
1000
0000
0010
0100
0001
1000
0000
0100
,
0000
0020
0000
0000
0000
0000
0030
0000
,
0000
0000
0001
1000
0001
0100
0001
1000
,
0000
1000
0000
0010
0000
0020
0000
0000
,
0030
0000
0100
0001
0100
0010
0000
1000
,
0000
0200
0000
0000
0300
1000
0010
1000
,
0000
0001
0000
0100
0000
0001
1000
0001
,
1000
0010
0100
0001
,
1001
0000
0000
0011
0000
0000
0101
0000
,
0000
0110
0000
0000
0010
0000
1000
0000
,
1100
0000
0000
0110
0000
0000
0011
0000
,
0000
1001
0000
0000
0001
0100
0001
0100
,
0000
0100
0000
0010
0000
0010
0000
1000
,
0000
1000
0000
0001
0000
0001
0000
0001
,
0100
0100
0010
0010
,
1000
0001
1000
0001
1000
0001
1000
0001
,
1000
0000
1000
0000
0001
0000
0001
0010
,
0001
0000
0100
0000
0010
0000
1000
0100
,
0010
0000
0001
0000
0100
0000
0010
0100
,
0001
0000
0001
0000
1000
0000
0100
1000
,
0100
0000
1000
0000
0010
0000
0100
0010
,
0100
0000
0001
0000
0010
0000
0001
0010
,
0001
0000
0100
0000
0010
0000
1000
0001
,
1000
1001
1001
1001
,
0001
0001
0100
0100
,
0010
0000
0010
0000
1000
0100
0010
0001
,
0100
0220
0000
0330
,
0001
2002
0000
3003
,
1001
0000
0001
0010
,
0100
0000
1000
0000
0010
0100
0010
0100
,
0010
0220
0000
0330
,
1001
1001
1001
1001
,
0000
0000
1001
0001
,
0000
0000
1000
0010
0100
0000
1001
0000
,
0000
0000
0001
0000
0010
0001
0010
0000
,
0100
0100
1000
0000
0010
0000
0100
0000
,
0001
1001
1000
1000
,
0010
0010
0100
0001
,
0010
0100
0010
0001
,
0100
0110
0110
0110
,
0110
0010
0010
1000
,
1000
0001
0100
0001
,
0010
0100
1000
0010
,
0100
0001
1000
0010
,
0010
1000
1000
0001
,
0010
0001
0100
0010
,
1000
0100
0010
0100
,
1000
1001
1001
1001
,
1001
0000
0000
0000
0001
0100
0001
0010
,
0000
0100
0000
2000
0000
0000
0000
0000
,
0000
0000
3000
0000
0010
0100
0001
0100
,
0000
0010
0000
1000
0000
0001
0000
0200
,
0000
0000
0300
0000
0010
0100
0001
0010
,
0000
0001
0000
0200
0000
0000
0300
0010
,
1000
0010
0000
0100
0001
0100
0000
0001
,
0010
0100
1000
0000
0010
0000
0100
0000
,
0001
0000
1001
0000
0000
0011
0000
0000
,
0101
0000
0000
0110
0000
0000
0010
0000
,
1000
0000
1010
0000
0000
1100
0000
0000
,
0011
0000
0000
0101
0000
0000
0100
0000
,
0010
0100
0000
0001
0000
0010
0000
0001
,
0010
0001
0000
1000
0100
1000
0000
0001
,
1000
0001
1000
0000
0010
0000
0100
0000
,
0001
0000
0010
0000
0100
0000
1000
0010
,
1000
0010
1000
0000
0001
0000
0100
0000
,
0010
0100
0010
0000
1000
0000
0100
0000
,
0010
0001
0100
0000
0001
0000
1000
0000
,
0010
0100
0001
0000
1000
0000
0100
0000
,
0010
0100
1000
0000
1000
0000
0001
0000
,
0001
0100
0001
0000
0010
0000
0001
0000
,
0100
0010
0100
0000
0010
0000
1000
0000
,
0001
1000
0001
0000
1001
0000
1001
0000
,
1001
1001
0000
0001
,
0100
0000
0010
0000
1000
0000
0100
0010
,
0001
0100
0010
0000
2002
0000
0000
0000
,
3003
0010
0220
0000
,
0330
1001
0000
0001
,
0010
0000
0001
0000
0100
0000
0010
1000
,
0100
0010
0100
0000
2200
0000
0000
0000
,
3300
0011
0101
0110
,
1010
1001
0000
0000
;

//--------------- dance-single - Alex ----------------
#NOTES:
     dance-single:
     Alex:
     Hard:
     9:
     0.575112,0.580489,0.470891,0.218865,0.006632,607,536,71,33,0,0,0.575112,0.580489,0.470891,0.218865,0.006632,607,536,71,33,0,0:
0000
0000
0000
0000
,
1001
0000
0001
0010
0001
0100
0010
0100
,
0001
0010
0100
1000
0001
0000
0000
0000
,
1001
0000
0001
1000
0010
0100
0001
0010
,
0001
1000
0010
0100
0001
0000
0000
0000
,
1001
0000
0001
1000
0100
1000
0001
0001
,
1000
1000
0010
0100
0001
0010
0100
0000
,
1000
0000
0010
0000
0100
0000
0001
0020
0000
0000
0000
0000
0030
0000
0000
0000
,
0011
0101
0110
1010
,
0000
0000
0010
1000
0100
1000
0010
0000
,
0010
0010
0100
0010
0001
0100
0010
1000
,
0001
0000
1000
0001
1000
0001
0010
0000
,
0001
0100
0010
0100
0001
0010
0100
1000
,
0001
0000
0002
0003
2000
3000
0020
0030
,
0200
0300
0001
0010
0001
0100
0010
0010
,
1000
0000
0001
1000
1000
0001
0100
0010
,
1010
1100
0110
0011
,
0000
0000
0001
0100
0010
0100
0001
0020
,
0000
0230
0000
0000
0000
0000
0300
0000
,
0000
0000
1000
0010
1000
0001
0100
0020
,
0000
2030
0000
3002
0000
0203
0000
0000
,
0300
0000
0010
0100
0001
0010
0001
0200
,
0000
0320
0000
0000
0030
1000
0001
0010
,
0000
0100
0100
1000
0000
0010
0100
0001
,
0000
0001
1000
0010
0100
0001
0010
0001
,
1000
0000
0000
1001
0000
0000
0101
0000
,
0000
0110
0000
0010
1000
0100
0010
0001
,
0011
0000
0000
0101
0000
0000
0110
0000
,
0000
1010
0000
0000
0001
0100
0010
0100
,
0000
0101
0000
0101
0000
0001
1000
0010
,
0000
0010
1000
0100
0000
0100
0010
0001
,
0100
0010
0100
0001
0010
0100
1000
0001
,
1000
0001
1000
0001
1000
0001
1000
0001
,
1000
0000
0010
0100
0001
0000
1000
0100
,
0010
0000
0001
0100
0001
0000
0010
0001
,
0010
0000
0001
0100
0010
0000
1000
0010
,
0100
0001
0010
0010
0001
0001
0100
0001
,
0100
0000
0010
1000
0010
0000
1000
0100
,
1000
0000
0100
0010
0001
0000
0100
0010
,
1000
0000
0001
0010
0001
0000
0100
0010
,
1010
1100
0110
0011
,
0000
0000
0000
0000
0001
0100
0001
0010
,
0001
0100
0010
0100
0001
0010
0100
1000
,
0001
2002
0000
3003
,
0010
0220
0000
0330
,
1001
0000
0000
0000
0001
0100
0100
0001
,
0001
1000
0010
0100
0001
1000
0100
0010
,
0001
0011
0000
0000
,
0101
0110
1010
1100
,
0110
0000
0000
0000
0000
0000
0000
0000
1001
0000
0000
0000
0001
1000
0001
0000
,
0000
0000
1000
0010
0100
0001
0010
0001
,
0100
0000
0110
0000
0010
1000
0001
0000
,
0001
1000
0100
1000
0001
0100
0001
0010
,
0100
0000
1100
0000
0100
0100
1000
0010
,
1000
0001
0100
0000
0010
0100
0001
0010
,
0001
0100
0110
0000
0010
1000
0010
0100
,
0010
1000
1100
0000
0011
0000
0101
0000
,
0110
0000
0010
0100
0001
0100
0010
1000
,
0100
0010
0100
1000
0001
0100
0010
0010
,
2000
0000
3001
0100
0001
1000
0010
0100
,
0001
0010
0001
1000
0010
0100
0001
1000
,
0200
0000
1300
1000
0010
0100
0001
0001
,
0010
0001
0100
0000
0010
1000
0000
0000
,
1000
0001
0010
0001
0100
0100
0010
0010
,
1000
0100
1100
0000
0011
0000
0110
0000
,
1001
0000
0000
0000
0001
0100
0001
0010
,
0100
2000
0000
3020
0000
0000
0000
0000
,
0000
0000
0030
0000
0100
0001
0010
0001
,
0100
0020
0000
2030
0000
3020
0000
0230
,
0000
0000
0300
0000
0010
0001
0100
0100
,
0010
2000
0000
3002
0000
0000
0003
1000
,
0100
1000
0000
0001
0010
0001
0000
0001
,
0100
0001
0000
0001
1000
0010
0100
0001
,
1000
0100
1100
0000
0000
0011
0000
0000
,
0101
0000
0000
0110
0000
0010
1000
0001
,
0010
0001
0011
0000
0000
1100
0000
0000
,
0101
0000
0000
0110
0000
0000
0010
1000
,
0001
0010
0000
0011
0000
1100
0000
0001
,
0100
0001
0000
1000
0010
1000
0000
0001
,
0010
0001
0100
0100
0010
0010
1000
0100
,
0010
0100
1000
0100
1000
0100
1000
0100
,
1000
0100
1000
0000
1000
0010
1000
0000
,
0001
0100
0001
0000
0010
0100
1000
0000
,
0001
0100
0001
0000
1000
0010
0100
0000
,
0001
0010
0100
1000
0001
0100
0010
0100
,
0001
0001
0001
0000
0010
0100
1000
0000
,
0001
1000
1000
0000
0010
0100
0100
0000
,
0001
0010
0001
0000
1000
0100
1000
0000
,
0010
0100
0110
0000
1001
0000
0110
0000
,
1001
0000
0001
0000
1000
0000
0010
0100
,
0001
0100
0010
1000
0100
0010
0100
1000
,
0001
0100
0110
0000
2002
0000
0000
0000
,
3003
0011
2200
0000
,
3300
0000
0011
0000
0000
0000
0001
0010
,
0001
0001
0100
0100
0010
1000
0100
0010
,
0100
1000
1100
0000
0022
0000
0000
0000
,
0033
0011
0101
0110
,
1010
1001
0000
0000
;

//--------------- dance-single - Alex ----------------
#NOTES:
     dance-single:
     Alex:
     Challenge:
     12:
     0.871669,1.066966,0.722917,0.530581,0.510685,920,811,109,80,8,21,0.871669,1.066966,0.722917,0.530581,0.510685,920,811,109,80,8,21:
0011
0101
0110
1010
,
1001
0000
0000
0000
0001
0010
0001
0010
0001
0100
0001
0100
0010
0100
0010
1000
,
0010
0000
1000
0100
1000
0000
0001
0100
0001
0000
0000
0000
0000
0000
0000
0000
,
1001
0000
0000
0000
0001
1000
0001
1000
0010
1000
0010
1000
0001
0010
0001
0100
,
0010
0000
0010
1000
0001
0000
0001
1000
0100
0000
0000
0000
0000
0000
0000
0000
,
1100
0000
0000
0000
0100
0010
0001
0100
0010
1000
0001
0010
0100
0000
1000
0000
,
0001
0100
0010
1000
0100
0010
0011
0000
,
0001
0000
0100
0000
0010
0000
1000
0001
0000
0000
0001
0000
0100
0000
0010
0000
,
1001
0011
1010
1100
,
0010
0001
0100
0010
0110
0010
1000
0001
,
0010
0001
0011
0001
0100
0001
1000
0010
,
1010
0010
1000
0100
1000
1000
1001
0001
,
0100
0010
1000
0001
1001
0001
0010
0100
,
0012
0200
0010
1000
,
0313
0000
1000
0010
0100
0001
0010
0001
,
0011
0001
0100
0010
1000
0100
1000
0010
,
1010
1001
0101
0110
,
0010
1000
0100
0010
0001
0200
0000
0320
,
0000
2030
0000
3002
0023
0230
2300
0000
,
3120
0000
0230
0302
0023
2030
3020
0032
,
0000
1203
0000
1320
0000
0132
0000
0000
,
0013
0100
1000
0010
0001
0010
1000
0200
,
0000
2300
0000
3010
0010
0100
0001
0012
,
0000
0103
0010
1020
0000
0130
0001
0010
,
0100
1000
0010
0100
0001
0010
0001
1000
,
0010
0000
0100
0000
0001
0010
0001
0000
0100
0000
0010
1000
0010
0000
1000
0000
,
0100
0010
0001
0000
0100
0000
0010
1000
0001
0000
0001
0010
0001
0000
1000
0100
,
1000
0000
0010
0000
0100
0001
0100
0000
0010
0000
1000
0100
0010
0000
0001
0000
,
0100
0010
0100
0000
0001
0000
0010
0100
1000
0000
0001
0000
0100
0000
0120
0000
,
0000
2130
0000
3012
0000
0203
0320
0032
,
0000
2003
3200
0320
0000
0031
0100
0010
,
1000
0001
0100
0001
0010
0100
1000
0001
,
0100
0001
0100
0001
0100
0001
0100
0010
0100
0010
0100
0010
0200
0000
0000
0000
,
0310
1000
0010
1000
0010
1000
0100
1000
0100
1000
0001
1000
0001
0010
0001
0100
,
0001
0010
0001
0100
0010
0100
0010
0100
0001
0010
0001
0100
0010
1000
0010
0100
,
0001
1000
0100
0010
0001
0100
0001
1000
0001
1000
0010
1000
0001
0100
0001
0100
,
0020
2030
3002
0203
0310
1000
0001
0010
,
0001
0010
0001
0010
0001
0100
0001
0100
0010
0100
0010
0100
0001
0010
0100
1000
,
0001
1000
0001
1000
0100
1000
0001
1000
0001
0010
0001
0100
0001
0100
0010
1000
,
0100
0010
0001
0100
0001
1000
0001
1000
0100
1000
0010
1000
0010
0100
0010
0000
,
0110
0101
0011
1001
,
0001
1000
1010
0010
0100
0001
0101
0001
,
0010
0100
1100
0100
1000
0010
0110
0100
,
0012
0000
2013
0000
3010
0100
1000
0100
,
0012
0000
2013
0000
3100
1000
0010
0100
,
0101
0000
1010
0000
0010
0100
0101
0010
,
0100
0010
1010
0100
1000
0010
0011
0001
,
1002
0000
0123
0000
0130
0001
0010
0100
,
1100
0011
0110
1001
,
MMMM
0000
MMMM
0000
1001
0000
0001
0000
0101
0000
0100
0000
0010
1000
0100
0000
,
0010
0000
0000
0000
0011
0000
0001
0000
0100
0010
0100
0000
0001
0010
0001
1000
,
0010
0000
0100
0000
0101
0000
0000
0000
0001
0010
0100
0000
1100
0000
0000
0000
,
0010
0100
0101
0001
0010
0100
1000
0001
,
1001
0000
1010
0000
0010
0100
0001
0010
,
0100
1000
1001
0000
0010
0010
0100
0001
,
0010
0000
0100
0000
1100
0000
0000
0000
1000
0000
0010
0000
0001
0000
0010
1000
,
0100
0100
1100
0000
1010
0000
0110
0000
,
0101
0000
0001
0010
0100
0010
0001
0100
,
1000
0100
0001
0010
1000
0010
0001
0100
,
0110
0000
0001
0010
0001
0100
1000
0100
,
0001
0010
0100
1000
0010
0001
0010
1000
,
1001
0000
0001
1000
0001
0000
0100
0000
0010
0000
1000
0000
0100
0000
0010
0000
,
0001
0100
1200
0000
0310
0102
0000
0000
,
1003
0010
0100
1000
0100
0010
1000
0010
,
0001
0100
0110
0000
0011
0000
0101
0000
,
1010
0000
0010
1000
0100
1000
0010
0002
,
0000
0203
0000
2300
0000
3020
0230
0302
,
2013
0000
3120
0000
0130
0001
0010
1000
,
0010
0002
0000
0203
0000
0320
0000
0032
,
0000
1003
1100
0000
0010
0100
1000
0020
,
0000
2030
0000
3200
0000
0310
0001
0100
,
0010
0102
0000
1003
0010
1020
0000
0130
,
1000
0100
0001
0010
1000
0010
0001
1000
,
0010
0000
0100
0000
0101
0000
0001
0000
1000
0001
1000
0000
0010
0000
0100
0001
,
0100
0000
0010
0000
1000
0100
0010
0000
0001
0000
0100
0001
0100
0000
0010
1000
,
0010
0000
1000
0001
1000
0000
0001
0000
0010
0001
0010
0000
0001
0000
0100
0001
,
0100
0000
0010
0000
1000
0010
1000
0000
0100
0000
0010
0001
0100
0000
0010
0000
,
1000
1002
0000
0213
0000
2310
0000
3100
,
0010
0012
0000
0103
0010
2010
0000
3100
,
0010
0001
0100
0010
1000
0100
0010
0100
,
1000
0000
0001
0000
0100
0010
0100
0010
0100
0010
0100
0010
0100
0010
0100
0010
,
0200
0000
0300
0000
0010
0100
0010
0100
0001
0100
0001
0010
0001
0100
0001
0010
,
0100
1000
0001
1000
0010
1000
0001
1000
0100
1000
0010
0100
0010
1000
0100
0010
,
0001
0100
0001
0010
0001
0010
0001
0100
0001
0100
0010
0100
0010
1000
0010
1000
,
0001
0010
0001
0100
0020
0000
2030
0000
3002
0000
0203
0000
0310
0000
1000
0000
,
0100
0000
0010
0000
0001
0010
0001
0100
0010
1000
0100
1000
0010
0100
0010
1000
,
0001
0100
0001
0010
0001
0100
0010
0100
0001
0010
0001
1000
0100
0010
0100
1000
,
0001
1000
0010
1000
0001
0010
0001
0100
0010
1000
0100
0010
0001
0100
0010
1000
,
0001
0010
0001
0000
0011
0000
0000
0000
0101
0000
0000
0000
0110
0000
0000
0000
,
1010
0000
0010
1000
1100
0100
1000
0010
,
0110
0100
0001
0010
0011
0001
0100
0010
,
1000
0001
2001
0000
3120
0000
0130
0001
,
0010
0100
1200
0000
0312
0000
0103
0010
,
1000
0001
1001
0000
0110
0000
0010
0100
,
0101
0001
0010
0100
1100
0100
1000
0010
,
0110
0100
0201
0000
1320
0000
0130
1000
,
0100
0010
0011
0000
0101
0000
2020
0000
,
0100
0001
3030
0000
;
